osu file format v14

[General]
AudioFilename: audio.mp3
AudioLeadIn: 0
PreviewTime: 62885
Countdown: 0
SampleSet: Soft
StackLeniency: 0.2
Mode: 0
LetterboxInBreaks: 0
WidescreenStoryboard: 1

[Editor]
Bookmarks: 9552,17171,32409,47647,62885,78123,82409,85742,93361,100980,108599,123837
DistanceSpacing: 1.2
BeatDivisor: 4
GridSize: 4
TimelineZoom: 2.399999

[Metadata]
Title:Paradise
TitleUnicode:Paradise
Artist:Sound Souler
ArtistUnicode:Sound Souler
Creator:kwk
Version:Hard
Source:Arcaea
Tags:Hobbes2 Mir Asaiga Tsumia 紅 Kou Crimson Solace
BeatmapID:1517059
BeatmapSetID:686777

[Difficulty]
HPDrainRate:4
CircleSize:4
OverallDifficulty:5
ApproachRate:7.5
SliderMultiplier:1.4
SliderTickRate:1

[Events]
//Background and Video events
0,0,"55064306_p0.jpg",0,0
//Break Periods
//Storyboard Layer 0 (Background)
//Storyboard Layer 1 (Fail)
//Storyboard Layer 2 (Pass)
//Storyboard Layer 3 (Foreground)
//Storyboard Sound Samples

[TimingPoints]
1933,476.190476190476,4,2,91,30,1,0
3837,-100,4,2,92,30,0,0
5742,-100,4,2,93,30,0,0
7647,-100,4,2,94,30,0,0
9313,-100,4,2,1,60,0,0
9552,-100,4,2,1,60,0,0
47647,-83.3333333333333,4,2,1,60,0,1
62885,-83.3333333333333,4,2,1,60,0,0
72409,-83.3333333333333,4,2,1,60,0,0
73956,-83.3333333333333,4,2,1,60,0,0
85742,-83.3333333333333,4,2,1,60,0,0
88599,-83.3333333333333,4,2,1,60,0,0
93837,-100,4,2,1,60,0,0
108599,-83.3333333333333,4,2,1,60,0,0
123837,-100,4,2,1,60,0,0
139552,-100,4,2,1,55,0,0
140028,-100,4,2,1,50,0,0
140504,-100,4,2,1,45,0,0
140980,-100,4,2,1,40,0,0
141456,-100,4,2,1,35,0,0
141932,-100,4,2,1,30,0,0
142409,-100,4,2,1,25,0,0
142885,-100,4,2,1,20,0,0
143361,-100,4,2,1,15,0,0
143837,-100,4,2,1,10,0,0
144313,-100,4,2,1,5,0,0

[Colours]
Combo1 : 255,255,166
Combo2 : 255,128,128
Combo3 : 0,255,255
Combo4 : 0,255,128

[HitObjects]
151,120,1933,6,0,P|182:114|231:140,1,70,8|8,0:0|0:1,0:0:0:0:
276,186,2409,1,2,0:0:0:0:
276,186,2528,2,0,L|346:173,1,70,2|2,0:1|0:1,0:0:0:0:
423,201,3004,1,2,0:0:0:0:
423,201,3123,1,4,0:1:0:0:
493,155,3361,2,0,P|508:197|475:265,1,105,2|4,0:0|0:3,0:0:0:0:
455,278,3837,6,0,L|368:298,1,70,8|8,0:0|0:1,0:0:0:0:
312,332,4313,1,2,0:0:0:0:
312,332,4432,2,0,P|301:292|312:257,1,70,2|2,0:1|0:1,0:0:0:0:
371,210,4909,1,2,0:0:0:0:
371,210,5028,1,4,0:1:0:0:
430,150,5266,2,0,L|360:60,1,105,2|4,0:0|0:3,0:0:0:0:
347,29,5742,6,0,P|305:20|267:45,1,70,8|8,0:0|0:1,0:0:0:0:
239,103,6218,1,2,0:0:0:0:
239,103,6337,1,2,0:1:0:0:
292,167,6575,2,0,P|302:204|289:250,1,70,4|2,0:2|0:0,0:0:0:0:
283,276,6932,1,4,0:1:0:0:
210,211,7171,1,8,0:3:0:0:
210,211,7290,1,2,0:3:0:0:
210,211,7409,1,4,0:3:0:0:
149,282,7647,6,0,P|99:288|60:260,1,70,8|8,0:0|0:1,0:0:0:0:
55,201,8123,2,0,L|83:133,1,70,2|0,0:0|0:0,0:0:0:0:
97,97,8480,1,8,0:3:0:0:
185,123,8718,1,2,0:0:0:0:
185,123,8837,1,2,0:3:0:0:
267,100,9075,2,0,L|315:85,3,35,0|0|0|0,0:0|0:0|0:0|0:0,0:0:0:0:
342,89,9552,6,0,P|366:134|346:176,1,70,4|2,0:0|0:3,0:0:0:0:
307,231,10028,1,8,0:1:0:0:
307,231,10147,1,2,0:3:0:0:
217,192,10385,1,2,0:3:0:0:
150,263,10623,1,0,0:0:0:0:
150,263,10742,1,2,0:3:0:0:
80,195,10980,2,0,P|52:241|56:294,1,105,8|2,0:1|0:3,0:0:0:0:
72,337,11456,6,0,L|156:358,1,70,0|2,0:0|0:3,0:0:0:0:
232,321,11932,1,8,0:1:0:0:
232,321,12052,1,2,0:3:0:0:
323,356,12290,1,2,0:3:0:0:
410,312,12528,1,0,0:0:0:0:
410,312,12647,1,2,0:3:0:0:
497,356,12885,2,0,L|489:241,1,105,8|2,0:1|0:3,0:0:0:0:
462,210,13361,6,0,L|479:130,1,70,0|2,0:0|0:3,0:0:0:0:
437,51,13837,1,8,0:1:0:0:
437,51,13956,1,2,0:3:0:0:
351,98,14194,1,2,0:3:0:0:
272,39,14432,1,0,0:0:0:0:
272,39,14552,1,2,0:3:0:0:
190,93,14790,2,0,L|127:100,2,35,8|2|0,0:1|0:3|0:0,0:0:0:0:
273,144,15266,6,0,P|294:171|301:205,1,70,0|2,0:0|0:3,0:0:0:0:
241,282,15742,1,8,0:1:0:0:
241,282,15861,1,2,0:3:0:0:
153,202,16099,1,2,0:3:0:0:
128,317,16337,1,2,0:3:0:0:
241,282,16575,1,2,0:3:0:0:
328,357,16813,1,2,0:3:0:0:
328,357,16932,1,2,0:3:0:0:
417,315,17171,6,0,L|432:220,1,70,4|2,1:2|0:0,0:0:0:0:
438,197,17528,1,2,0:0:0:0:
385,114,17766,1,2,0:0:0:0:
385,114,17885,1,0,0:0:0:0:
287,126,18123,1,0,1:0:0:0:
287,126,18242,1,2,0:0:0:0:
272,222,18480,1,2,0:0:0:0:
272,222,18599,1,10,1:2:0:0:
311,311,18837,1,2,0:0:0:0:
228,363,19075,6,0,P|193:374|157:361,1,70,2|0,1:2|0:0,0:0:0:0:
119,340,19432,1,0,0:0:0:0:
22,361,19671,1,0,0:0:0:0:
22,361,19790,1,0,0:0:0:0:
66,272,20028,2,0,P|69:225|48:188,1,70,2|2,1:2|0:2,0:0:0:0:
9,120,20504,2,0,P|-2:86|3:52,1,70,10|2,1:2|0:2,0:0:0:0:
94,19,20980,6,0,L|192:52,1,70,2|2,1:2|0:2,0:0:0:0:
207,53,21337,1,0,0:0:0:0:
302,32,21575,1,0,0:0:0:0:
302,32,21694,1,2,0:2:0:0:
352,116,21932,2,0,P|393:122|435:87,1,70,2|2,1:2|0:2,0:0:0:0:
496,50,22409,2,0,P|514:77|511:143,1,70,10|2,1:2|0:2,0:0:0:0:
468,197,22885,5,2,1:2:0:0:
370,191,23123,1,2,0:2:0:0:
370,191,23242,1,2,0:2:0:0:
321,275,23480,1,2,0:2:0:0:
321,275,23599,1,2,0:2:0:0:
362,363,23837,2,0,P|403:368|432:359,1,70,2|0,1:2|0:2,0:0:0:0:
461,266,24313,2,0,L|469:182,1,70,10|2,1:2|0:2,0:0:0:0:
474,98,24790,5,2,1:2:0:0:
395,39,25028,1,2,0:2:0:0:
318,100,25266,1,10,1:2:0:0:
318,100,25385,1,2,0:2:0:0:
245,33,25623,1,2,0:2:0:0:
245,33,25742,1,0,0:0:0:0:
184,109,25980,1,2,0:0:0:0:
184,109,26099,1,2,0:0:0:0:
226,197,26337,1,2,0:0:0:0:
226,197,26456,1,2,0:2:0:0:
213,294,26694,6,0,P|175:323|126:314,1,70,2|0,1:2|0:0,0:0:0:0:
105,317,27052,1,0,0:0:0:0:
54,233,27290,1,0,0:0:0:0:
54,233,27409,1,0,0:0:0:0:
67,135,27647,2,0,L|153:145,1,70,2|2,1:2|0:2,0:0:0:0:
226,197,28123,2,0,L|312:170,1,70,10|2,1:2|0:2,0:0:0:0:
353,99,28599,1,2,1:2:0:0:
439,145,28837,6,0,B|453:179|453:179|444:245,1,70,2|8,0:2|1:0,0:0:0:0:
432,258,29194,1,2,0:2:0:0:
339,311,29432,2,0,B|291:296|291:296|223:332,1,105,2|0,0:2|0:0,0:0:0:0:
204,353,29909,1,2,0:2:0:0:
107,335,30147,2,0,B|85:290|85:290|98:227,1,105,2|0,0:2|1:2,0:0:0:0:
109,189,30623,1,2,0:2:0:0:
189,133,30861,6,0,B|211:178|211:178|198:241,1,105,2|0,0:0|0:0,0:0:0:0:
187,279,31337,1,2,0:0:0:0:
265,337,31575,2,0,B|313:311|313:311|361:326,1,105,2|8,0:0|1:0,0:0:0:0:
404,350,32052,1,2,0:2:0:0:
452,345,32171,1,2,0:2:0:0:
479,304,32290,1,2,0:0:0:0:
475,255,32409,6,0,L|456:161,1,70,4|2,1:0|0:0,0:0:0:0:
448,139,32766,1,0,0:0:0:0:
358,98,33004,1,2,0:0:0:0:
358,98,33123,1,0,0:0:0:0:
296,174,33361,2,0,P|255:184|211:168,1,70,2|0,1:2|0:0,0:0:0:0:
139,136,33837,2,0,P|100:131|62:144,1,70,10|2,1:2|0:2,0:0:0:0:
10,216,34313,5,0,1:0:0:0:
31,312,34552,1,2,0:0:0:0:
31,312,34671,1,0,0:0:0:0:
99,242,34909,1,2,0:2:0:0:
148,232,35028,1,0,0:0:0:0:
192,256,35147,1,2,0:0:0:0:
220,296,35266,2,0,P|256:301|297:267,1,70,2|2,1:2|0:2,0:0:0:0:
319,194,35742,2,0,L|312:100,1,70,10|2,1:2|0:2,0:0:0:0:
378,50,36218,5,0,1:0:0:0:
454,111,36456,1,2,0:0:0:0:
454,111,36575,1,0,0:0:0:0:
431,206,36813,1,2,0:0:0:0:
431,206,36932,1,0,0:0:0:0:
506,269,37171,2,0,P|459:302|428:304,1,70,2|2,1:2|0:2,0:0:0:0:
365,294,37647,2,0,L|276:273,1,70,10|2,1:2|0:2,0:0:0:0:
208,320,38123,5,0,1:0:0:0:
118,280,38361,1,2,0:0:0:0:
118,280,38480,1,0,0:0:0:0:
132,183,38718,1,2,0:2:0:0:
38,155,38956,1,2,0:0:0:0:
38,155,39075,1,2,1:2:0:0:
42,56,39313,1,0,0:0:0:0:
42,56,39432,1,2,0:0:0:0:
42,56,39552,2,0,L|130:79,1,70,8|2,1:0|0:2,0:0:0:0:
156,60,39909,1,2,0:2:0:0:
202,45,40028,6,0,L|217:132,1,70,0|2,1:0|0:0,0:0:0:0:
226,161,40385,1,0,0:0:0:0:
248,256,40623,1,2,0:0:0:0:
248,256,40742,1,0,0:0:0:0:
323,193,40980,2,0,P|363:183|396:194,1,70,2|2,1:2|0:2,0:0:0:0:
463,255,41456,2,0,P|473:295|462:328,1,70,10|2,1:2|0:2,0:0:0:0:
385,377,41932,5,2,1:2:0:0:
303,321,42171,1,2,0:2:0:0:
303,321,42290,1,2,0:2:0:0:
217,369,42528,1,2,0:2:0:0:
140,307,42766,1,2,0:2:0:0:
140,307,42885,1,2,1:2:0:0:
55,355,43123,1,2,0:2:0:0:
0,275,43361,2,0,L|5:194,1,70,10|2,1:2|1:2,0:0:0:0:
48,119,43837,6,0,P|97:99|119:101,1,70,2|2,0:2|0:2,0:0:0:0:
151,127,44194,1,2,0:2:0:0:
185,161,44313,2,0,L|194:260,1,70,10|2,0:2|0:2,0:0:0:0:
193,280,44671,1,2,0:2:0:0:
233,307,44790,2,0,P|267:304|298:287,1,70,2|2,0:2|0:2,0:0:0:0:
319,242,45147,1,2,0:2:0:0:
336,196,45266,2,0,L|357:124,1,70,10|2,0:2|0:2,0:0:0:0:
336,83,45623,1,2,0:2:0:0:
336,83,45742,1,4,0:2:0:0:
415,26,45980,6,0,L|443:13,3,23.3333333333333,0|2|2|10,0:0|0:0|0:2|0:2,0:0:0:0:
482,101,46456,2,0,L|510:88,3,23.3333333333333,0|2|2|2,0:0|0:0|0:2|0:2,0:0:0:0:
462,180,46932,1,0,0:0:0:0:
378,127,47171,1,10,0:2:0:0:
363,146,47290,1,2,0:2:0:0:
358,170,47409,1,2,0:2:0:0:
362,194,47528,1,2,0:2:0:0:
373,215,47647,6,0,P|388:245|361:351,1,139.999995727539,4|2,1:2|0:3,0:0:0:0:
330,329,48123,2,0,P|287:328|257:344,1,55.9999982910157,8|2,1:0|0:0,0:0:0:0:
246,359,48361,2,0,P|218:365|191:362,1,55.9999982910157,2|2,0:0|0:0,0:0:0:0:
161,336,48599,6,0,P|146:306|173:200,1,139.999995727539,2|2,1:2|0:3,0:0:0:0:
202,188,49075,2,0,P|206:156|196:125,1,55.9999982910157,8|2,1:0|0:2,0:0:0:0:
175,103,49313,2,0,L|114:85,1,55.9999982910157,2|2,0:2|0:2,0:0:0:0:
84,102,49552,6,0,L|84:188,1,83.9999974365235,2|2,1:2|0:2,0:0:0:0:
30,290,50028,2,0,P|76:270|126:277,1,83.9999974365235,10|0,1:2|0:0,0:0:0:0:
163,294,50385,1,2,0:0:0:0:
193,344,50504,2,0,P|243:361|289:332,1,83.9999974365235,0|2,1:0|0:2,0:0:0:0:
340,257,50980,2,0,L|372:169,1,83.9999974365235,8|2,1:0|0:2,0:0:0:0:
388,62,51456,6,0,L|397:17,4,27.9999991455078,0|2|0|2|0,1:3|0:0|0:3|0:0|0:0,0:0:0:0:
418,134,51932,2,0,P|352:166|302:146,1,111.999996582031,8|2,1:0|0:2,0:0:0:0:
268,95,52409,2,0,L|259:50,4,27.9999991455078,0|2|0|2|0,1:0|0:0|0:0|0:0|0:0,0:0:0:0:
239,168,52885,2,0,P|173:200|123:180,1,111.999996582031,8|0,1:0|0:0,0:0:0:0:
67,158,53361,6,0,L|20:170,4,27.9999991455078,2|2|2|2|2,1:2|0:2|0:2|0:2|0:2,0:0:0:0:
53,235,53837,2,0,L|6:247,4,27.9999991455078,10|2|2|2|2,1:2|0:2|0:2|0:2|0:2,0:0:0:0:
9,323,54313,2,0,L|110:298,1,83.9999974365235,0|2,1:0|0:0,0:0:0:0:
196,235,54790,2,0,L|212:197,6,20.9999993591309,8|2|0|2|0|2|0,1:0|0:0|0:0|0:0|0:0|0:0|0:0,0:0:0:0:
198,293,55266,6,0,P|245:274|330:298,1,139.999995727539,0|2,1:0|0:3,0:0:0:0:
353,326,55742,2,0,P|384:338|415:330,1,55.9999982910157,8|2,1:0|0:2,0:0:0:0:
437,311,55980,2,0,L|463:249,1,55.9999982910157,2|2,0:2|0:2,0:0:0:0:
496,254,56218,2,0,P|498:190|434:130,1,139.999995727539,2|2,1:2|0:3,0:0:0:0:
414,154,56694,2,0,P|382:161|343:147,1,55.9999982910157,8|2,1:0|0:2,0:0:0:0:
323,171,56932,2,0,L|275:142,1,55.9999982910157,2|2,0:2|0:2,0:0:0:0:
235,78,57171,6,0,P|243:143|167:185,1,139.999995727539,2|2,1:2|0:3,0:0:0:0:
122,154,57647,2,0,P|79:175|64:202,1,55.9999982910157,8|2,1:0|0:3,0:0:0:0:
32,241,57885,2,0,P|14:285|20:315,1,55.9999982910157,2|2,0:3|0:3,0:0:0:0:
47,360,58123,2,0,P|117:383|192:341,1,139.999995727539,0|2,1:0|0:3,0:0:0:0:
212,294,58599,2,0,P|243:283|282:287,1,55.9999982910157,8|2,1:0|0:3,0:0:0:0:
338,291,58837,2,0,L|401:319,1,55.9999982910157,2|2,0:3|0:3,0:0:0:0:
465,348,59075,6,0,L|504:339,4,27.9999991455078,2|2|2|2|2,1:2|0:2|0:2|0:2|0:2,0:0:0:0:
468,269,59552,2,0,L|507:260,4,27.9999991455078,8|2|2|2|2,1:0|0:3|0:3|0:3|0:3,0:0:0:0:
501,185,60028,2,0,L|414:204,1,83.9999974365235,0|2,1:0|1:2,0:0:0:0:
381,314,60504,2,0,L|298:296,1,83.9999974365235,10|0,1:2|1:0,0:0:0:0:
190,342,60980,5,6,0:1:0:0:
84,291,61218,1,2,0:1:0:0:
81,173,61456,1,10,0:1:0:0:
184,116,61694,1,2,0:1:0:0:
285,175,61932,5,2,0:1:0:0:
402,115,62171,1,2,0:1:0:0:
292,45,62409,1,10,0:1:0:0:
285,175,62647,1,2,0:1:0:0:
403,219,62885,6,0,P|425:251|421:317,1,83.9999974365235,6|2,1:2|0:0,0:0:0:0:
398,335,63242,1,2,0:0:0:0:
285,373,63480,1,2,0:2:0:0:
235,383,63599,1,2,0:0:0:0:
184,384,63718,1,2,0:2:0:0:
136,366,63837,2,0,L|110:285,1,83.9999974365235,2|2,1:2|0:0,0:0:0:0:
8,294,64313,2,0,L|27:190,1,83.9999974365235,10|2,1:2|0:2,0:0:0:0:
45,113,64790,5,2,1:2:0:0:
112,187,65028,2,0,P|163:196|222:161,1,83.9999974365235,2|8,0:2|1:0,0:0:0:0:
238,164,65385,1,2,0:0:0:0:
262,119,65504,1,2,0:0:0:0:
256,68,65623,1,2,0:2:0:0:
219,32,65742,2,0,P|178:21|138:32,1,83.9999974365235,2|2,1:2|0:0,0:0:0:0:
57,93,66218,2,0,L|35:196,1,83.9999974365235,8|2,1:0|0:2,0:0:0:0:
61,273,66694,6,0,P|124:248|213:267,1,139.999995727539,0|2,1:0|0:0,0:0:0:0:
226,280,67171,2,0,P|264:288|296:273,1,55.9999982910157,10|2,1:2|0:2,0:0:0:0:
311,260,67409,2,0,L|326:186,1,55.9999982910157,2|2,0:2|0:0,0:0:0:0:
330,166,67647,6,0,P|267:141|178:160,1,139.999995727539,0|2,1:0|0:2,0:0:0:0:
165,173,68124,2,0,P|127:181|95:166,1,55.9999982910157,10|2,1:2|0:2,0:0:0:0:
80,153,68362,2,0,L|65:79,1,55.9999982910157,2|2,0:2|0:2,0:0:0:0:
78,60,68599,6,0,L|162:36,1,83.9999974365235,0|2,1:0|0:2,0:0:0:0:
259,46,69075,2,0,L|339:22,1,83.9999974365235,10|2,1:2|0:2,0:0:0:0:
438,42,69552,2,0,L|416:126,1,83.9999974365235,2|2,1:2|0:2,0:0:0:0:
360,206,70028,2,0,L|339:287,1,83.9999974365235,10|2,1:2|0:2,0:0:0:0:
256,344,70504,5,2,1:2:0:0:
200,259,70742,1,0,0:0:0:0:
200,259,70861,2,0,P|146:231|67:250,1,125.999996154785,2|0,0:2|0:0,0:0:0:0:
31,326,71456,1,2,1:2:0:0:
133,343,71694,1,0,0:0:0:0:
133,343,71813,2,0,L|265:323,1,125.999996154785,2|0,0:2|0:0,0:0:0:0:
344,376,72409,5,2,1:2:0:0:
445,324,72647,1,0,0:0:0:0:
445,324,72766,2,0,P|458:252|433:197,1,125.999996154785,2|0,0:2|0:0,0:0:0:0:
368,132,73361,1,2,1:2:0:0:
343,269,73599,1,0,0:0:0:0:
343,269,73718,2,0,P|294:273|241:257,1,83.9999974365235,2|2,0:2|0:2,0:0:0:0:
224,231,74075,1,2,0:2:0:0:
173,229,74194,1,2,0:2:0:0:
143,270,74313,6,0,P|126:317|131:364,1,83.9999974365235,2|0,1:2|0:0,0:0:0:0:
231,379,74790,1,8,1:0:0:0:
231,379,74909,2,0,L|314:362,1,83.9999974365235,0|0,0:0|0:0,0:0:0:0:
361,348,75266,1,0,1:0:0:0:
397,382,75385,2,0,L|436:306,1,83.9999974365235,0|0,0:0|0:0,0:0:0:0:
482,288,75742,1,10,1:2:0:0:
508,247,75861,1,2,0:2:0:0:
512,198,75980,1,2,0:2:0:0:
494,153,76099,1,2,0:2:0:0:
444,145,76218,6,0,L|357:139,1,83.9999974365235,2|2,0:2|0:2,0:0:0:0:
281,76,76694,2,0,P|264:102|261:165,1,83.9999974365235,10|2,0:2|0:2,0:0:0:0:
324,230,77171,2,0,P|321:271|301:307,1,83.9999974365235,2|2,0:2|0:2,0:0:0:0:
222,244,77647,2,0,L|138:238,1,83.9999974365235,10|2,1:2|1:2,0:0:0:0:
73,316,78123,5,4,1:0:0:0:
0,263,78361,1,0,0:0:0:0:
0,263,78480,1,0,0:0:0:0:
0,263,78599,2,0,P|-7:214|18:170,1,83.9999974365235,10|0,1:2|0:0,0:0:0:0:
85,121,79075,1,2,1:2:0:0:
185,119,79313,1,2,0:2:0:0:
234,207,79552,1,10,1:2:0:0:
334,203,79790,1,2,0:2:0:0:
389,119,80028,6,0,P|430:108|472:121,1,83.9999974365235,0|2,1:0|0:2,0:0:0:0:
495,216,80504,2,0,L|512:306,1,83.9999974365235,10|2,1:2|0:2,0:0:0:0:
434,363,80980,1,2,1:2:0:0:
333,354,81218,1,2,0:2:0:0:
285,265,81456,1,10,1:2:0:0:
217,339,81694,1,2,0:2:0:0:
123,301,81932,6,0,L|120:201,1,83.9999974365235,2|2,1:2|0:0,0:0:0:0:
85,180,82290,1,0,0:0:0:0:
44,149,82409,2,0,L|57:54,1,83.9999974365235,10|2,1:2|0:2,0:0:0:0:
101,44,82766,1,0,0:0:0:0:
148,60,82885,2,0,B|196:70|196:70|253:45,1,83.9999974365235,2|2,1:2|0:2,0:0:0:0:
320,15,83361,1,10,1:2:0:0:
365,105,83599,1,2,0:2:0:0:
271,142,83837,6,0,L|161:183,1,83.9999974365235,2|0,1:2|0:0,0:0:0:0:
96,138,84313,1,8,1:0:0:0:
96,138,84432,2,0,P|91:173|112:229,1,83.9999974365235,0|0,0:0|0:0,0:0:0:0:
153,233,84790,2,0,L|231:203,1,83.9999974365235,0|0,1:0|0:0,0:0:0:0:
316,149,85266,1,8,1:0:0:0:
316,149,85385,2,0,P|329:188|324:229,1,83.9999974365235,0|0,0:0|0:0,0:0:0:0:
291,278,85742,5,2,1:2:0:0:
344,382,85980,1,2,0:2:0:0:
459,362,86218,1,8,1:2:0:0:
459,362,86337,2,0,B|490:255,1,83.9999974365235,0|0,0:0|0:0,0:0:0:0:
483,222,86694,5,2,1:2:0:0:
413,127,86932,1,2,0:2:0:0:
460,18,87171,1,10,1:2:0:0:
460,18,87290,2,0,P|419:7|378:13,1,83.9999974365235,0|0,0:0|0:0,0:0:0:0:
345,61,87647,5,2,1:2:0:0:
294,167,87885,1,2,0:2:0:0:
176,166,88123,1,10,1:2:0:0:
176,166,88242,2,0,B|145:59,1,83.9999974365235,0|0,0:0|0:0,0:0:0:0:
111,56,88599,2,0,P|33:103|37:212,1,167.999994873047,2|10,1:2|1:2,0:0:0:0:
44,217,89194,2,0,L|101:230,1,41.9999987182618,0|0,0:0|0:0,0:0:0:0:
185,220,89552,6,0,L|283:197,1,83.9999974365235,2|0,1:2|0:0,0:0:0:0:
332,276,90028,2,0,L|430:253,1,83.9999974365235,10|0,1:2|0:0,0:0:0:0:
480,175,90504,2,0,P|500:124|488:66,1,83.9999974365235,2|0,1:2|0:0,0:0:0:0:
436,17,90980,1,10,1:2:0:0:
256,192,91456,12,10,92885,1:1:0:0:
318,38,93361,6,0,L|300:136,1,83.9999974365235,4|2,1:2|0:3,0:0:0:0:
283,216,93837,1,8,0:0:0:0:
283,216,93956,1,2,0:3:0:0:
372,176,94194,1,2,0:3:0:0:
437,249,94432,1,0,0:0:0:0:
437,249,94551,1,2,0:3:0:0:
404,341,94789,2,0,L|292:312,1,105,8|2,0:0|0:3,0:0:0:0:
252,316,95266,6,0,L|184:333,1,70,0|2,0:0|0:3,0:0:0:0:
92,367,95741,1,8,0:0:0:0:
92,367,95861,1,2,0:3:0:0:
20,299,96099,1,2,0:3:0:0:
77,223,96337,1,0,0:0:0:0:
77,223,96456,1,2,0:3:0:0:
166,261,96694,2,0,P|174:202|144:159,1,105,8|2,0:0|0:3,0:0:0:0:
105,147,97170,6,0,P|95:108|121:62,1,70,0|2,0:0|0:3,0:0:0:0:
188,31,97646,1,8,0:0:0:0:
188,31,97765,1,2,0:3:0:0:
267,88,98003,1,2,0:3:0:0:
356,49,98241,1,0,0:0:0:0:
356,49,98361,1,2,0:3:0:0:
444,91,98599,2,0,L|491:77,2,35,8|2|0,0:0|0:3|0:0,0:0:0:0:
407,182,99075,6,0,L|305:175,1,70,0|2,0:0|0:3,0:0:0:0:
260,238,99551,1,8,0:0:0:0:
260,238,99670,1,2,0:3:0:0:
170,197,99908,1,2,0:3:0:0:
96,262,100146,1,0,0:0:0:0:
96,262,100266,1,2,0:3:0:0:
132,352,100504,2,0,L|97:351,2,35,8|2|0,0:0|0:3|1:0,0:0:0:0:
224,318,100980,6,0,P|262:312|314:333,1,70,2|2,1:2|0:2,0:0:0:0:
331,348,101337,1,2,0:2:0:0:
428,337,101575,1,0,0:0:0:0:
464,246,101813,1,0,0:0:0:0:
443,149,102052,1,0,0:0:0:0:
443,149,102171,2,0,L|476:83,2,70,0|0|0,0:0|0:0|0:0,0:0:0:0:
359,200,102885,6,0,P|312:208|280:194,1,70,2|0,1:2|0:0,0:0:0:0:
223,131,103361,1,8,1:0:0:0:
223,131,103480,1,0,0:0:0:0:
130,163,103718,1,0,0:0:0:0:
130,163,103837,2,0,L|120:247,1,70,2|2,1:2|0:2,0:0:0:0:
38,284,104313,2,0,L|68:356,1,70,10|2,1:2|0:2,0:0:0:0:
112,359,104671,1,0,0:0:0:0:
153,332,104790,6,0,P|192:325|225:336,1,70,0|2,1:2|0:2,0:0:0:0:
310,372,105266,2,0,P|318:338|311:304,1,70,8|0,1:0|0:0,0:0:0:0:
230,249,105742,2,0,P|222:215|231:181,1,70,2|2,1:2|0:2,0:0:0:0:
323,214,106218,2,0,P|356:222|390:215,1,70,10|2,1:2|0:2,0:0:0:0:
471,135,106694,5,6,1:2:0:0:
473,141,106932,1,0,1:0:0:0:
426,33,107171,1,10,1:2:0:0:
428,39,107409,1,0,1:0:0:0:
319,82,107647,1,2,1:2:0:0:
321,88,107885,1,0,1:0:0:0:
221,23,108123,1,10,1:2:0:0:
223,29,108361,1,0,1:0:0:0:
97,71,108599,6,0,P|84:110|90:151,1,83.9999974365235,6|2,1:2|0:2,0:0:0:0:
118,194,108956,1,2,0:2:0:0:
217,210,109194,1,2,0:2:0:0:
245,251,109313,1,2,0:2:0:0:
242,301,109432,1,2,0:2:0:0:
208,338,109552,2,0,L|96:331,1,83.9999974365235,2|0,1:2|0:0,0:0:0:0:
48,266,110028,1,10,1:2:0:0:
30,166,110266,1,2,0:2:0:0:
90,85,110504,6,0,P|133:103|159:146,1,83.9999974365235,2|2,1:2|0:2,0:0:0:0:
185,228,110980,1,8,1:0:0:0:
185,228,111099,2,0,P|229:247|291:233,1,83.9999974365235,2|2,0:2|0:2,0:0:0:0:
301,279,111456,2,0,L|314:192,1,83.9999974365235,2|2,1:2|0:2,0:0:0:0:
285,99,111932,1,10,1:2:0:0:
358,29,112171,1,2,0:2:0:0:
456,45,112409,6,0,P|491:117|460:158,1,139.999995727539,2|2,1:2|0:2,0:0:0:0:
426,166,112885,2,0,P|412:193|414:241,1,55.9999982910157,10|2,1:2|0:2,0:0:0:0:
424,248,113123,2,0,P|420:275|407:300,1,55.9999982910157,0|2,0:2|0:2,0:0:0:0:
376,315,113361,2,0,P|311:284|236:303,1,139.999995727539,2|2,1:2|0:2,0:0:0:0:
214,285,113837,2,0,P|200:258|202:210,1,55.9999982910157,10|2,1:2|0:2,0:0:0:0:
212,203,114075,2,0,P|208:175|195:150,1,55.9999982910157,0|0,0:0|0:0,0:0:0:0:
170,126,114313,6,0,P|106:110|72:127,1,83.9999974365235,2|2,1:2|0:2,0:0:0:0:
22,189,114790,2,0,P|6:253|23:287,1,83.9999974365235,8|2,1:2|0:2,0:0:0:0:
88,331,115266,2,0,L|105:249,1,83.9999974365235,2|2,1:2|0:2,0:0:0:0:
200,216,115742,2,0,L|220:118,1,83.9999974365235,10|2,1:2|0:2,0:0:0:0:
297,72,116218,6,0,P|346:71|385:122,1,83.9999974365235,2|2,1:2|0:2,0:0:0:0:
385,139,116575,1,2,0:2:0:0:
374,249,116813,1,2,0:2:0:0:
330,275,116932,1,2,0:2:0:0:
279,272,117052,1,2,0:2:0:0:
239,240,117171,2,0,L|204:159,1,83.9999974365235,2|2,1:2|0:2,0:0:0:0:
111,128,117647,1,10,1:2:0:0:
57,213,117885,1,2,0:2:0:0:
103,302,118123,6,0,B|146:283|146:283|206:308,1,83.9999974365235,2|2,1:2|0:2,0:0:0:0:
267,346,118599,1,8,1:0:0:0:
267,346,118718,2,0,L|358:269,1,83.9999974365235,2|0,0:2|0:0,0:0:0:0:
374,316,119075,2,0,B|356:269|356:269|371:222,1,83.9999974365235,2|2,1:2|0:2,0:0:0:0:
434,162,119552,1,10,1:2:0:0:
388,71,119790,1,2,0:2:0:0:
331,154,120028,6,0,P|276:181|218:161,1,125.999996154785,2|0,1:2|0:0,0:0:0:0:
168,153,120504,1,8,1:0:0:0:
126,181,120623,2,0,L|130:276,1,83.9999974365235,2|0,0:2|0:2,0:0:0:0:
149,311,120980,1,0,1:0:0:0:
121,353,121099,2,0,P|77:360|28:340,1,83.9999974365235,2|0,0:2|0:0,0:0:0:0:
10,307,121456,2,0,L|25:216,1,83.9999974365235,10|2,1:2|0:2,0:0:0:0:
0,93,121932,6,0,P|34:86|64:93,1,55.9999982910157,2|2,1:1|0:1,0:0:0:0:
98,80,122171,2,0,P|120:107|129:136,1,55.9999982910157,2|2,1:1|0:1,0:0:0:0:
146,167,122409,2,0,P|199:186|243:168,1,83.9999974365235,10|2,1:1|1:1,0:0:0:0:
353,141,122885,6,0,P|359:175|352:205,1,55.9999982910157,2|2,1:1|0:1,0:0:0:0:
366,239,123124,2,0,P|338:261|309:270,1,55.9999982910157,2|2,1:1|0:1,0:0:0:0:
278,287,123362,2,0,P|259:340|271:383,1,83.9999974365235,10|0,1:1|0:0,0:0:0:0:
373,350,123837,6,0,L|438:300,1,70,4|2,1:2|0:3,0:0:0:0:
453,212,124313,1,8,1:0:0:0:
453,212,124432,1,2,0:3:0:0:
358,238,124671,1,2,0:3:0:0:
317,148,124909,1,0,0:0:0:0:
317,148,125028,1,2,0:3:0:0:
230,194,125266,2,0,P|178:201|136:177,1,70,8|0,1:0|0:0,0:0:0:0:
111,112,125742,5,0,1:0:0:0:
185,48,125980,1,2,0:3:0:0:
274,88,126218,1,8,1:0:0:0:
274,88,126337,1,2,0:3:0:0:
364,50,126575,1,2,0:3:0:0:
440,111,126813,1,0,0:0:0:0:
440,111,126933,1,0,0:0:0:0:
363,172,127171,6,0,B|321:162|321:162|260:178,1,105,8|0,1:0|0:0,0:0:0:0:
214,194,127647,1,0,1:0:0:0:
190,289,127885,1,2,0:3:0:0:
245,369,128123,1,8,1:0:0:0:
245,369,128242,1,2,0:3:0:0:
342,364,128480,1,2,0:3:0:0:
394,281,128718,1,0,0:0:0:0:
394,281,128837,1,2,0:3:0:0:
384,182,129075,2,0,L|379:139,2,35,8|2|0,1:0|0:3|0:0,0:0:0:0:
304,240,129552,6,0,P|268:250|229:241,1,70,0|0,1:0|0:0,0:0:0:0:
164,178,130028,1,8,1:0:0:0:
164,178,130147,1,2,0:3:0:0:
192,84,130385,1,2,0:3:0:0:
112,26,130623,1,0,0:0:0:0:
112,26,130742,1,2,0:3:0:0:
29,78,130980,2,0,L|33:151,1,70,8|0,1:0|1:0,0:0:0:0:
37,196,131337,1,2,0:3:0:0:
84,183,131456,6,0,L|56:265,1,70,4|2,1:2|0:3,0:0:0:0:
22,339,131932,1,8,0:0:0:0:
22,339,132052,1,2,0:3:0:0:
118,320,132290,1,2,0:3:0:0:
198,375,132528,1,0,0:0:0:0:
198,375,132647,1,2,0:3:0:0:
293,352,132885,2,0,L|334:247,1,105,8|2,0:0|0:3,0:0:0:0:
351,209,133361,5,0,0:0:0:0:
408,288,133599,1,2,0:3:0:0:
501,257,133837,1,8,0:0:0:0:
501,257,133956,1,2,0:3:0:0:
424,195,134194,1,2,0:3:0:0:
503,137,134432,1,0,0:0:0:0:
503,137,134552,1,2,0:3:0:0:
428,73,134790,2,0,P|429:29|429:28,2,35,8|2|0,0:0|0:3|0:3,0:0:0:0:
256,192,135266,12,0,136694,0:0:0:0:
189,107,137171,6,0,P|180:143|196:190,1,70,0|0,1:0|1:0,0:0:0:0:
278,208,137647,2,0,P|284:242|275:275,1,70,8|0,1:0|1:0,0:0:0:0:
85,322,138361,2,0,L|44:321,2,35,0|2|8,1:0|0:3|0:0,0:0:0:0:
129,355,138758,2,0,L|167:349,1,23.3333333333333,0|0,1:0|1:0,0:0:0:0:
256,192,139075,12,0,144790,0:0:0:0:
