osu file format v14

[General]
AudioFilename: audio.mp3
AudioLeadIn: 0
PreviewTime: 62885
Countdown: 0
SampleSet: Soft
StackLeniency: 0.4
Mode: 0
LetterboxInBreaks: 0
WidescreenStoryboard: 0

[Editor]
Bookmarks: 9552,17171,32409,47647,62885,78123,78361,82409,85742,93361,100980,108599,123837
DistanceSpacing: 0.6
BeatDivisor: 12
GridSize: 4
TimelineZoom: 2.5

[Metadata]
Title:Paradise
TitleUnicode:Paradise
Artist:Sound Souler
ArtistUnicode:Sound Souler
Creator:kwk
Version:Future
Source:Arcaea
Tags:Hobbes2 Mir Asaiga Tsumia 紅 Kou Crimson Solace
BeatmapID:1453452
BeatmapSetID:686777

[Difficulty]
HPDrainRate:5
CircleSize:5
OverallDifficulty:8
ApproachRate:9
SliderMultiplier:1.8
SliderTickRate:1

[Events]
//Background and Video events
0,0,"55064306_p0.jpg",0,0
//Break Periods
//Storyboard Layer 0 (Background)
//Storyboard Layer 1 (Fail)
//Storyboard Layer 2 (Pass)
//Storyboard Layer 3 (Foreground)
//Storyboard Sound Samples

[TimingPoints]
1933,476.190476190476,4,2,91,30,1,0
3837,-100,4,2,92,30,0,0
5742,-100,4,2,93,30,0,0
7647,-100,4,2,94,30,0,0
9313,-100,4,2,1,60,0,0
9552,-100,4,2,1,60,0,0
47647,-76.9230769230769,4,2,1,60,0,1
62885,-76.9230769230769,4,2,1,60,0,0
72409,-66.6666666666667,4,2,1,60,0,0
73956,-76.9230769230769,4,2,1,60,0,0
85742,-66.6666666666667,4,2,1,60,0,0
88599,-76.9230769230769,4,2,1,60,0,0
93837,-100,4,2,1,60,0,0
108599,-76.9230769230769,4,2,1,60,0,0
123837,-100,4,2,1,60,0,0
139552,-100,4,2,1,55,0,0
140028,-100,4,2,1,50,0,0
140504,-100,4,2,1,45,0,0
140980,-100,4,2,1,40,0,0
141456,-100,4,2,1,35,0,0
141932,-100,4,2,1,30,0,0
142409,-100,4,2,1,25,0,0
142885,-100,4,2,1,20,0,0
143361,-100,4,2,1,15,0,0
143837,-100,4,2,1,10,0,0
144313,-100,4,2,1,5,0,0

[Colours]
Combo1 : 255,255,166
Combo2 : 255,128,128
Combo3 : 0,255,255
Combo4 : 0,255,128

[HitObjects]
415,170,1933,5,8,0:0:0:0:
403,345,2171,1,8,0:1:0:0:
420,155,2409,5,2,0:0:0:0:
403,220,2528,1,2,0:1:0:0:
378,46,2766,1,2,0:1:0:0:
414,221,3004,5,2,0:0:0:0:
397,156,3123,1,4,0:1:0:0:
264,310,3361,5,2,0:0:0:0:
225,333,3480,1,8,0:3:0:0:
181,326,3599,1,2,0:3:0:0:
149,296,3718,1,4,0:3:0:0:
143,251,3837,5,8,0:0:0:0:
275,136,4075,1,8,0:1:0:0:
129,257,4313,5,2,0:0:0:0:
187,224,4432,1,2,0:1:0:0:
81,364,4670,1,2,0:1:0:0:
180,215,4908,5,2,0:0:0:0:
146,273,5027,1,4,0:1:0:0:
282,181,5266,5,2,0:0:0:0:
265,139,5385,1,8,0:3:0:0:
226,115,5504,1,2,0:3:0:0:
181,111,5623,1,4,0:3:0:0:
139,127,5742,5,8,0:0:0:0:
347,74,5980,1,8,0:1:0:0:
138,144,6218,5,2,0:0:0:0:
204,152,6337,1,2,0:1:0:0:
85,32,6575,1,4,0:2:0:0:
25,196,6813,5,2,0:0:0:0:
10,130,6932,1,4,0:1:0:0:
87,258,7171,5,8,0:3:0:0:
121,199,7290,1,2,0:3:0:0:
43,271,7409,1,4,0:3:0:0:
223,309,7647,5,8,0:0:0:0:
119,167,7885,1,8,0:1:0:0:
228,324,8123,5,2,0:0:0:0:
199,263,8242,1,2,0:1:0:0:
330,380,8480,1,8,0:3:0:0:
190,269,8718,5,2,0:0:0:0:
245,308,8837,1,2,0:3:0:0:
43,70,9075,5,0,0:0:0:0:
26,66,9194,1,0,0:0:0:0:
14,79,9313,2,0,P|13:94|20:108,3,22.5
0,145,9552,6,0,L|116:122,1,90,4|2,0:0|0:3,0:0:0:0:
228,198,10028,5,8,0:1:0:0:
232,130,10147,2,0,L|236:62,1,45,2|0,0:3|0:0,0:0:0:0:
161,242,10385,1,2,0:3:0:0:
251,64,10623,5,0,0:0:0:0:
211,118,10742,1,2,0:3:0:0:
230,273,10980,5,8,0:1:0:0:
263,302,11099,1,0,0:0:0:0:
307,308,11218,1,2,0:3:0:0:
349,294,11337,1,2,0:3:0:0:
374,254,11456,2,0,P|370:199|336:146,1,90,0|2,0:0|0:3,0:0:0:0:
172,96,11932,5,8,0:1:0:0:
240,100,12051,2,0,P|265:98|303:77,1,45,2|0,0:3|0:0,0:0:0:0:
113,159,12290,1,2,0:3:0:0:
290,62,12527,5,0,0:0:0:0:
260,122,12646,1,2,0:3:0:0:
98,91,12885,5,8,0:1:0:0:
58,112,13004,1,0,0:0:0:0:
42,154,13123,1,2,0:3:0:0:
52,197,13242,1,2,0:3:0:0:
86,225,13361,6,0,L|186:199,1,90,0|2,0:0|0:3,0:0:0:0:
35,319,13837,5,8,0:1:0:0:
79,269,13956,2,0,L|91:198,1,45,2|0,0:3|0:0,0:0:0:0:
128,369,14194,1,2,0:3:0:0:
62,197,14432,5,0,0:0:0:0:
106,248,14552,1,2,0:3:0:0:
213,133,14790,5,8,0:1:0:0:
194,198,14910,1,2,0:3:0:0:
181,107,15028,1,0,0:0:0:0:
401,8,15266,6,0,L|312:22,1,90,0|2,0:0|0:3,0:0:0:0:
478,71,15742,5,8,0:1:0:0:
421,126,15861,2,0,L|343:109,1,45,2|0,0:3|0:0,0:0:0:0:
470,0,16099,1,2,0:3:0:0:
501,188,16337,5,2,0:3:0:0:
430,336,16575,2,0,L|476:314,1,45,2|8,0:3|0:1,0:0:0:0:
301,384,16812,5,2,0:3:0:0:
236,362,16932,2,0,L|190:340,1,45,2|0,0:3|0:0,0:0:0:0:
249,188,17171,6,0,P|268:233|235:302,1,90,4|2,1:2|0:0,0:0:0:0:
227,177,17528,2,0,P|214:147|211:110,1,45,2|8,0:0|1:2,0:0:0:0:
247,290,17766,1,2,0:0:0:0:
299,241,17885,2,0,P|328:228|365:225,1,45
464,230,18123,5,0,1:0:0:0:
464,230,18242,1,2,0:0:0:0:
423,249,18361,1,2,0:0:0:0:
379,239,18480,1,2,0:0:0:0:
346,208,18599,1,10,1:2:0:0:
337,163,18718,1,2,0:2:0:0:
357,123,18837,2,0,P|378:109|413:116,1,45,2|0,0:0|0:0,0:0:0:0:
338,226,19075,6,0,P|281:234|234:206,1,90,2|0,1:2|0:0,0:0:0:0:
323,312,19432,2,0,L|390:305,1,45,0|8,0:0|1:0,0:0:0:0:
208,350,19671,1,0,0:0:0:0:
273,366,19790,1,0,0:0:0:0:
71,332,20028,6,0,L|129:314,1,45,2|0,1:2|0:0,0:0:0:0:
236,360,20266,2,0,L|264:306,1,45,2|0,0:2|0:0,0:0:0:0:
372,263,20504,2,0,L|353:205,1,45,10|0,1:2|0:0,0:0:0:0:
399,98,20742,2,0,L|344:70,1,45,2|0,0:2|0:0,0:0:0:0:
96,54,20980,6,0,L|149:73,1,45,2|0,1:2|0:0,0:0:0:0:
226,78,21218,2,0,L|292:53,1,45,2|0,0:2|0:0,0:0:0:0:
147,0,21456,1,8,1:0:0:0:
103,145,21694,5,2,0:2:0:0:
278,155,21932,2,0,L|206:172,1,45,2|0,1:2|0:0,0:0:0:0:
374,117,22171,2,0,L|335:179,1,45,2|0,0:2|0:0,0:0:0:0:
415,22,22409,2,0,L|432:94,1,45,10|0,1:2|0:0,0:0:0:0:
427,237,22647,2,0,L|416:190,1,45,2|0,0:2|0:0,0:0:0:0:
512,313,22885,5,2,1:2:0:0:
257,303,23123,1,2,0:2:0:0:
320,269,23242,2,0,P|350:263|387:281,1,45,2|8,0:2|1:0,0:0:0:0:
232,316,23480,1,2,0:2:0:0:
235,244,23599,2,0,P|245:214|280:192,1,45,2|0,0:2|0:0,0:0:0:0:
370,146,23837,6,0,P|339:151|302:132,1,45,2|2,1:2|0:2,0:0:0:0:
223,217,24075,2,0,P|203:193|201:151,1,45,0|0,0:2|0:0,0:0:0:0:
107,73,24313,2,0,P|96:102|61:124,1,45,10|0,1:2|0:0,0:0:0:0:
94,235,24551,2,0,P|63:240|26:221,1,45,2|0,0:2|0:0,0:0:0:0:
140,351,24790,5,2,1:2:0:0:
308,210,25028,1,2,0:2:0:0:
110,327,25266,5,10,1:2:0:0:
210,310,25385,2,0,P|229:299|242:281,1,45,2|0,0:2|0:0,0:0:0:0:
30,343,25623,2,0,P|75:317|114:330,1,90,2|0,0:2|0:0,0:0:0:0:
263,361,25980,5,2,0:0:0:0:
302,383,26099,1,2,0:0:0:0:
346,383,26218,1,10,1:2:0:0:
387,364,26337,1,2,0:0:0:0:
403,322,26456,2,0,L|405:259,1,45,2|0,0:2|0:0,0:0:0:0:
487,152,26694,6,0,P|500:194|490:237,1,90,2|0,1:2|0:0,0:0:0:0:
373,188,27051,2,0,L|417:192,1,45,0|8,0:0|1:2,0:0:0:0:
258,150,27290,1,0,0:0:0:0:
323,134,27409,1,0,0:0:0:0:
156,59,27647,6,0,L|215:72,1,45,2|0,1:2|0:0,0:0:0:0:
318,19,27885,2,0,L|349:70,1,45,2|0,0:2|0:0,0:0:0:0:
461,106,28123,2,0,L|446:165,1,45,10|0,1:2|0:0,0:0:0:0:
499,269,28361,2,0,L|446:300,1,45,2|0,0:2|0:0,0:0:0:0:
215,297,28599,6,0,L|253:273,1,45,2|0,1:2|0:0,0:0:0:0:
338,168,28837,1,2,0:2:0:0:
266,314,29075,5,8,1:0:0:0:
200,249,29194,2,0,P|196:210|210:172,1,45,2|0,0:2|0:0,0:0:0:0:
333,366,29432,6,0,P|290:320|238:313,1,90,2|0,0:2|0:0,0:0:0:0:
386,237,29790,1,0,0:0:0:0:
387,308,29909,2,0,P|354:322|328:318,1,45,2|8,0:2|1:0,0:0:0:0:
442,197,30147,6,0,P|461:234|459:315,1,90,2|0,0:2|0:0,0:0:0:0:
503,116,30504,1,0,1:2:0:0:
478,212,30623,1,2,0:2:0:0:
365,45,30861,6,0,L|389:141,1,90,2|0,0:0|0:0,0:0:0:0:
271,54,31218,1,0,0:0:0:0:
347,86,31337,2,0,P|376:86|408:77,1,45,2|0,0:0|1:0,0:0:0:0:
238,159,31575,6,0,P|291:149|318:103,1,90,2|0,0:0|0:0,0:0:0:0:
117,119,31932,1,8,1:0:0:0:
162,119,32052,1,2,0:2:0:0:
202,139,32171,1,2,0:2:0:0:
226,176,32290,1,2,0:0:0:0:
226,220,32409,6,0,B|211:283,1,45,4|0,1:0|0:0,0:0:0:0:
338,199,32647,1,2,0:0:0:0:
351,128,32766,2,0,L|334:79,1,45,0|8,0:0|1:0,0:0:0:0:
426,251,33004,1,2,0:0:0:0:
413,180,33123,2,0,L|430:131,1,45
512,246,33361,6,0,L|475:195,1,45,2|0,1:2|0:0,0:0:0:0:
338,199,33599,1,0,0:0:0:0:
494,335,33837,6,0,P|472:328|450:330,1,45,10|0,1:2|0:0,0:0:0:0:
261,366,34075,2,0,P|238:368|217:361,1,45,2|0,0:2|0:0,0:0:0:0:
115,184,34313,6,0,P|128:202|132:224,1,45,0|0,1:0|0:0,0:0:0:0:
99,84,34552,1,2,0:0:0:0:
158,123,34671,2,0,P|181:124|202:117,1,45,0|8,0:0|1:0,0:0:0:0:
31,183,34909,1,2,0:2:0:0:
74,169,35028,1,0,0:0:0:0:
115,184,35147,1,2,0:0:0:0:
134,224,35266,6,0,P|133:247|123:267,1,45,2|0,1:2|0:0,0:0:0:0:
210,325,35504,2,0,P|197:344|179:357,1,45,2|0,0:2|0:0,0:0:0:0:
281,234,35742,2,0,P|303:229|325:234,1,45,10|0,1:2|0:0,0:0:0:0:
415,131,35980,2,0,P|436:138|453:153,1,45,2|0,0:2|0:0,0:0:0:0:
476,322,36218,6,0,L|400:304,1,45,0|0,1:0|0:0,0:0:0:0:
210,325,36456,1,2,0:0:0:0:
281,331,36575,2,0,P|309:328|330:313,1,45,0|8,0:0|1:0,0:0:0:0:
182,348,36813,1,2,0:0:0:0:
217,285,36932,2,0,P|225:258|220:232,1,45
64,319,37171,6,0,L|127:310,1,45,2|0,1:2|0:0,0:0:0:0:
0,226,37409,2,0,L|44:232,1,45,2|0,0:2|0:0,0:0:0:0:
100,149,37647,2,0,L|163:140,1,45,10|0,1:2|0:0,0:0:0:0:
36,56,37885,2,0,L|80:62,1,45,2|0,0:2|0:0,0:0:0:0:
268,53,38123,6,0,L|198:72,1,45,0|0,1:0|0:0,0:0:0:0:
384,8,38361,1,2,0:0:0:0:
339,76,38480,2,0,P|306:82|279:70,1,45,0|8,0:0|1:0,0:0:0:0:
428,125,38718,2,0,P|405:121|384:129,1,45,2|0,0:2|0:0,0:0:0:0:
479,40,38956,1,2,0:0:0:0:
448,147,39075,6,0,L|466:196,1,45,2|0,1:2|0:0,0:0:0:0:
334,164,39313,1,0,0:0:0:0:
354,123,39432,1,2,0:0:0:0:
396,106,39552,1,8,1:0:0:0:
439,115,39671,1,2,0:2:0:0:
483,112,39790,1,2,0:2:0:0:
505,73,39909,1,2,0:2:0:0:
485,32,40028,6,0,L|466:-11,1,45,0|0,1:0|0:0,0:0:0:0:
462,134,40266,1,2,0:0:0:0:
401,86,40385,2,0,L|412:35,1,45,0|8,0:0|1:0,0:0:0:0:
379,171,40623,1,2,0:0:0:0:
317,126,40742,2,0,L|328:75,1,45
269,225,40980,6,0,L|313:219,1,45,2|0,1:2|0:0,0:0:0:0:
436,222,41218,2,0,L|480:213,1,45,2|0,0:2|0:0,0:0:0:0:
243,213,41456,2,0,L|287:207,1,45,10|0,1:2|0:0,0:0:0:0:
462,234,41694,2,0,L|506:225,1,45,2|0,0:2|0:0,0:0:0:0:
374,312,41932,6,0,L|393:236,1,45,2|0,1:2|0:0,0:0:0:0:
358,384,42171,1,2,0:2:0:0:
257,337,42290,2,0,L|210:303,1,45,2|8,0:2|1:0,0:0:0:0:
74,340,42528,2,0,L|110:366,1,45,2|0,0:2|0:0,0:0:0:0:
0,332,42766,1,2,0:2:0:0:
30,235,42885,6,0,L|84:217,1,45,2|0,1:2|0:0,0:0:0:0:
135,134,43123,2,0,L|177:171,1,45,2|0,0:2|0:0,0:0:0:0:
274,174,43361,2,0,L|262:229,1,45,10|0,1:2|0:0,0:0:0:0:
308,314,43599,2,0,L|254:332,1,45,2|0,1:2|0:0,0:0:0:0:
410,251,43837,2,0,L|358:235,1,45,2|0,0:2|0:0,0:0:0:0:
277,147,44075,5,2,0:2:0:0:
245,115,44194,1,2,0:2:0:0:
256,71,44313,1,10,0:2:0:0:
300,60,44432,1,2,0:2:0:0:
332,91,44552,1,2,0:2:0:0:
320,134,44671,1,2,0:2:0:0:
277,147,44790,5,2,0:2:0:0:
245,179,44909,1,2,0:2:0:0:
256,223,45028,1,2,0:2:0:0:
300,234,45147,1,2,0:2:0:0:
337,210,45266,1,10,0:2:0:0:
246,228,45385,5,0,0:2:0:0:
289,241,45504,1,2,0:2:0:0:
326,216,45623,1,2,0:2:0:0:
332,171,45742,6,0,L|315:116,1,45,4|0,0:2|0:0,0:0:0:0:
192,78,45980,1,0,0:0:0:0:
182,93,46059,1,2,0:0:0:0:
174,109,46139,1,2,0:2:0:0:
163,127,46218,2,0,L|167:47,1,60,10|0,0:2|0:0,0:0:0:0:
99,132,46456,5,0,0:0:0:0:
89,147,46535,1,2,0:0:0:0:
81,163,46615,1,2,0:2:0:0:
70,181,46694,2,0,L|79:98,1,60,2|0,0:2|0:0,0:0:0:0:
17,68,46932,1,0,0:0:0:0:
0,239,47171,5,10,0:2:0:0:
68,259,47290,1,2,0:2:0:0:
134,231,47409,1,2,0:2:0:0:
202,252,47528,1,2,0:2:0:0:
211,137,47647,5,4,1:2:0:0:
346,223,47806,5,2,0:3:0:0:
338,247,47885,1,2,0:3:0:0:
404,136,48044,5,2,0:3:0:0:
408,160,48123,1,8,1:0:0:0:
312,112,48282,5,2,0:0:0:0:
296,48,48361,1,2,0:0:0:0:
452,92,48520,5,2,0:0:0:0:
428,88,48599,1,2,1:2:0:0:
368,184,48758,5,2,0:3:0:0:
392,180,48837,1,2,0:3:0:0:
452,280,48996,5,2,0:3:0:0:
428,276,49075,1,8,1:0:0:0:
305,360,49234,5,2,0:2:0:0:
289,288,49313,1,2,0:2:0:0:
177,368,49472,5,2,0:2:0:0:
201,364,49552,1,2,1:2:0:0:
213,288,49671,1,0,0:0:0:0:
145,252,49790,1,2,0:2:0:0:
85,300,49909,1,2,0:2:0:0:
1,260,50028,5,10,1:2:0:0:
77,268,50147,1,2,0:0:0:0:
105,152,50266,1,0,0:0:0:0:
49,200,50385,1,2,0:0:0:0:
201,236,50504,5,0,1:0:0:0:
189,164,50623,1,2,0:2:0:0:
177,88,50742,1,2,0:2:0:0:
165,12,50861,1,2,0:2:0:0:
89,108,50980,5,8,1:0:0:0:
161,92,51099,1,2,0:2:0:0:
277,180,51218,1,2,0:2:0:0:
201,164,51337,1,2,0:2:0:0:
125,256,51456,5,0,1:3:0:0:
137,252,51536,1,2,0:0:0:0:
149,248,51615,1,0,0:3:0:0:
161,244,51694,1,2,0:0:0:0:
161,316,51813,5,0,0:0:0:0:
225,276,51932,5,8,1:0:0:0:
263,268,52012,1,0,0:0:0:0:
299,281,52091,1,2,0:0:0:0:
325,310,52171,1,2,0:2:0:0:
336,346,52250,1,2,0:2:0:0:
320,381,52329,1,2,0:2:0:0:
280,382,52409,6,0,L|261:344,3,38.9999982147218,0|2|0|2,1:0|0:0|0:0|0:0,0:0:0:0:
314,274,52726,1,0,0:0:0:0:
308,254,52805,1,2,0:0:0:0:
302,232,52885,5,8,1:0:0:0:
235,263,53004,1,2,0:0:0:0:
164,243,53123,1,2,0:0:0:0:
142,175,53242,1,0,0:0:0:0:
180,112,53361,5,2,1:2:0:0:
204,116,53440,1,2,0:2:0:0:
228,120,53520,1,2,0:2:0:0:
252,124,53599,1,2,0:2:0:0:
276,128,53679,1,2,0:2:0:0:
300,132,53758,1,2,0:2:0:0:
320,148,53837,5,10,1:2:0:0:
296,152,53916,1,2,0:2:0:0:
272,156,53996,1,2,0:2:0:0:
248,160,54075,1,2,0:2:0:0:
224,164,54155,1,2,0:2:0:0:
200,168,54234,1,2,0:2:0:0:
220,192,54313,5,0,1:0:0:0:
288,205,54432,1,2,0:0:0:0:
338,251,54552,5,2,0:0:0:0:
314,255,54631,1,0,0:0:0:0:
290,259,54711,1,2,0:0:0:0:
310,291,54790,6,0,L|350:299,7,29.2499986610413,8|2|0|2|0|2|0|2,1:0|0:0|0:0|0:0|0:0|0:0|0:0|0:0,0:0:0:0:
240,336,55266,1,0,1:0:0:0:
108,276,55425,5,2,0:3:0:0:
120,296,55504,1,2,0:3:0:0:
200,196,55663,5,2,0:3:0:0:
196,220,55742,1,8,1:0:0:0:
72,152,55901,5,2,0:2:0:0:
60,80,55980,1,2,0:2:0:0:
224,40,56138,5,2,0:2:0:0:
188,104,56218,1,2,1:2:0:0:
123,39,56377,5,2,0:3:0:0:
170,103,56457,1,2,0:3:0:0:
96,44,56615,5,2,0:3:0:0:
60,108,56695,1,8,1:0:0:0:
112,242,56853,5,2,0:2:0:0:
148,178,56933,1,2,0:2:0:0:
300,200,57091,5,2,0:2:0:0:
292,176,57171,1,2,1:2:0:0:
392,248,57329,5,2,0:3:0:0:
404,228,57409,1,2,0:3:0:0:
372,348,57567,5,2,0:3:0:0:
396,344,57647,1,8,1:0:0:0:
292,308,57806,5,2,0:3:0:0:
268,304,57886,1,2,0:3:0:0:
400,272,58044,5,2,0:3:0:0:
436,264,58124,1,0,1:0:0:0:
248,228,58282,5,2,0:3:0:0:
212,220,58362,1,2,0:3:0:0:
444,188,58520,5,2,0:3:0:0:
512,168,58600,1,8,1:0:0:0:
212,148,58758,5,2,0:3:0:0:
144,128,58838,1,2,0:3:0:0:
320,12,58996,6,0,P|323:35|320:72,1,38.9999982147218,2|2,0:3|1:2,0:0:0:0:
312,72,59155,1,2,0:2:0:0:
304,92,59234,1,2,0:2:0:0:
304,116,59313,1,2,0:2:0:0:
316,136,59393,1,2,0:2:0:0:
336,144,59472,1,2,0:2:0:0:
360,144,59552,6,0,L|400:128,1,38.9999982147218,8|2,1:0|0:3,0:0:0:0:
424,192,59710,2,0,L|460:176,1,38.9999982147218,2|2,0:3|0:3,0:0:0:0:
420,264,59869,2,0,L|384:284,1,38.9999982147218,2|2,0:3|0:3,0:0:0:0:
328,352,60028,5,0,1:0:0:0:
268,272,60186,1,0,1:0:0:0:
288,264,60266,1,2,1:2:0:0:
228,356,60385,1,0,0:0:0:0:
160,312,60504,5,10,1:2:0:0:
92,352,60623,1,2,0:2:0:0:
0,312,60742,5,0,1:0:0:0:
68,352,60861,1,2,0:2:0:0:
80,236,60980,5,6,0:1:0:0:
192,368,61139,5,2,0:1:0:0:
196,356,61218,1,2,0:1:0:0:
284,288,61377,5,2,0:1:0:0:
280,276,61456,1,10,0:1:0:0:
192,204,61615,5,0,0:1:0:0:
183,249,61694,1,2,0:1:0:0:
288,112,61853,5,2,0:1:0:0:
284,100,61932,1,2,0:1:0:0:
132,48,62091,5,0,0:1:0:0:
136,36,62170,1,2,0:1:0:0:
280,200,62329,5,2,0:1:0:0:
276,188,62408,1,10,0:1:0:0:
120,312,62567,5,2,0:1:0:0:
124,300,62646,1,2,0:1:0:0:
316,364,62806,5,2,0:1:0:0:
308,356,62885,2,0,P|252:336|216:352,1,58.4999973220826,6|0,1:2|0:0,0:0:0:0:
428,264,63123,1,2,0:0:0:0:
368,308,63242,2,0,P|341:319|312:317,1,58.4999973220826,2|8,0:0|1:0,0:0:0:0:
460,384,63480,5,2,0:2:0:0:
400,340,63599,1,2,0:0:0:0:
380,268,63718,1,2,0:2:0:0:
396,192,63837,1,2,1:2:0:0:
512,104,64075,1,2,0:0:0:0:
512,104,64313,5,10,1:2:0:0:
396,191,64552,2,0,P|368:200|339:194,1,58.4999973220826,2|0,0:2|0:0,0:0:0:0:
292,116,64790,5,2,1:2:0:0:
344,305,65028,2,0,P|357:242|336:189,1,116.999994644165,2|8,0:2|1:0,0:0:0:0:
416,312,65385,5,2,0:0:0:0:
320,268,65504,1,2,0:0:0:0:
488,288,65623,1,2,0:2:0:0:
400,320,65742,5,2,1:2:0:0:
500,186,65980,1,2,0:0:0:0:
512,364,66218,1,8,1:0:0:0:
431,148,66456,1,2,0:2:0:0:
400,320,66694,5,0,1:0:0:0:
488,324,66853,5,2,0:0:0:0:
416,340,66932,1,0,0:0:0:0:
332,224,67091,5,2,0:0:0:0:
404,240,67170,1,10,1:2:0:0:
404,220,67329,5,2,0:2:0:0:
332,236,67408,1,2,0:2:0:0:
260,332,67567,5,2,0:0:0:0:
332,348,67646,1,0,1:0:0:0:
332,328,67805,5,2,0:0:0:0:
260,344,67884,1,0,0:0:0:0:
144,228,68044,5,2,0:2:0:0:
216,244,68123,1,10,1:2:0:0:
216,224,68282,5,2,0:2:0:0:
144,240,68361,1,2,0:2:0:0:
0,240,68520,5,2,0:2:0:0:
56,302,68599,2,0,P|59:330|53:359,1,58.4999973220826,0|0,1:0|0:0,0:0:0:0:
144,240,68837,6,0,P|128:215|105:197,1,58.4999973220826,2|0,0:2|0:0,0:0:0:0:
136,122,69075,2,0,P|107:116|79:120,1,58.4999973220826,10|0,1:2|0:0,0:0:0:0:
48,44,69313,2,0,P|23:59|6:83,1,58.4999973220826,2|0,0:2|0:0,0:0:0:0:
0,240,69552,6,0,P|24:224|42:201,1,58.4999973220826,2|0,1:2|0:0,0:0:0:0:
160,184,69790,2,0,P|189:183|215:171,1,58.4999973220826,2|0,0:2|0:0,0:0:0:0:
326,215,70028,2,0,P|351:228|380:232,1,58.4999973220826,10|0,1:2|0:0,0:0:0:0:
454,324,70266,2,0,P|469:348|492:366,1,58.4999973220826,2|0,0:2|0:0,0:0:0:0:
488,232,70504,5,2,1:2:0:0:
344,348,70742,1,0,0:0:0:0:
408,304,70861,2,0,P|440:296|472:304,1,58.4999973220826,2|8,0:2|1:0,0:0:0:0:
344,348,71099,2,0,P|312:356|280:348,1,58.4999973220826
60,32,71456,5,2,1:2:0:0:
204,156,71694,1,0,0:0:0:0:
140,104,71813,2,0,P|116:100|80:108,1,58.4999973220826,2|8,0:2|1:0,0:0:0:0:
207,160,72052,1,0,0:0:0:0:
207,160,72171,2,0,P|235:163|264:157,1,58.4999973220826
336,8,72409,5,2,1:2:0:0:
292,248,72647,1,0,0:0:0:0:
408,192,72766,2,0,P|444:184|496:200,1,67.5000025749208,2|8,0:2|1:0,0:0:0:0:
292,248,73004,2,0,P|256:256|204:240,1,67.5000025749208
66,13,73361,5,2,1:2:0:0:
292,248,73599,1,0,0:0:0:0:
134,149,73718,2,0,P|98:141|46:157,1,67.5000025749208,2|8,0:2|1:0,0:0:0:0:
218,109,73956,5,2,0:2:0:0:
154,153,74075,1,2,0:2:0:0:
142,229,74194,1,2,0:2:0:0:
175,297,74313,6,0,P|197:314|226:321,1,58.4999973220826,2|0,1:2|0:0,0:0:0:0:
374,301,74552,2,0,P|346:303|321:318,1,58.4999973220826
430,365,74790,1,8,1:0:0:0:
486,313,74909,2,0,P|498:253|470:189,1,116.999994644165
406,237,75266,1,0,1:0:0:0:
350,185,75385,2,0,P|338:125|366:61,1,116.999994644165
406,181,75742,5,10,1:2:0:0:
294,161,75861,1,2,0:2:0:0:
294,261,75980,1,2,0:2:0:0:
190,241,76099,1,2,0:2:0:0:
150,357,76218,6,0,L|218:321,1,58.4999973220826,2|0,0:2|0:0,0:0:0:0:
70,285,76456,2,0,L|147:287,1,58.4999973220826,2|0,0:2|0:0,0:0:0:0:
46,205,76694,2,0,L|112:245,1,58.4999973220826,10|0,0:2|0:0,0:0:0:0:
54,141,76932,2,0,L|90:209,1,58.4999973220826,2|0,0:2|0:0,0:0:0:0:
158,269,77171,6,0,L|262:281,1,58.4999973220826,2|0,0:2|0:0,0:0:0:0:
274,353,77409,2,0,L|341:283,1,58.4999973220826,2|0,0:2|1:0,0:0:0:0:
434,345,77647,2,0,L|447:241,1,58.4999973220826,10|0,1:2|0:0,0:0:0:0:
506,169,77885,2,0,L|441:86,1,58.4999973220826,2|2,1:2|0:2,0:0:0:0:
300,85,78123,6,0,P|268:129|268:193,1,116.999994644165,4|0,1:0|0:0,0:0:0:0:
369,245,78520,5,2,0:0:0:0:
392,247,78599,1,10,1:2:0:0:
213,356,78758,5,0,0:0:0:0:
194,360,78837,1,2,0:0:0:0:
100,148,79075,6,0,L|105:119,1,29.2499986610413,2|0,1:2|0:0,0:0:0:0:
216,288,79313,2,0,L|208:259,1,29.2499986610413,2|0,0:2|0:0,0:0:0:0:
28,304,79552,2,0,L|80:292,1,29.2499986610413,10|0,1:2|0:0,0:0:0:0:
252,112,79790,2,0,L|284:120,1,29.2499986610413,2|0,0:2|0:0,0:0:0:0:
512,208,80028,6,0,P|504:176|516:152,1,38.9999982147218,0|0,1:0|0:0,0:0:0:0:
457,247,80206,1,2,0:0:0:0:
444,260,80266,2,0,P|432:292|444:348,1,77.9999964294435,2|0,0:2|0:0,0:0:0:0:
360,288,80504,2,0,P|340:278|284:292,1,58.4999973220826,10|0,1:2|0:0,0:0:0:0:
176,348,80742,2,0,P|147:350|120:339,1,58.4999973220826,2|0,0:2|0:0,0:0:0:0:
52,140,80980,6,0,L|60:220,1,58.4999973220826,2|0,1:2|0:0,0:0:0:0:
172,84,81218,2,0,L|160:156,1,58.4999973220826,2|0,0:2|0:0,0:0:0:0:
248,324,81456,2,0,L|257:266,1,58.4999973220826,10|0,1:2|0:0,0:0:0:0:
368,268,81694,2,0,L|362:209,1,58.4999973220826,2|0,0:2|0:0,0:0:0:0:
351,15,81932,5,2,1:2:0:0:
255,101,82091,5,0,0:0:0:0:
231,98,82171,1,2,0:0:0:0:
414,144,82329,5,2,0:0:0:0:
436,136,82409,2,0,P|473:126|512:141,2,58.4999973220826,10|0|2,1:2|0:0|0:2,0:0:0:0:
498,56,82806,5,2,0:2:0:0:
512,158,82885,1,2,1:2:0:0:
436,309,83123,1,2,0:2:0:0:
216,172,83361,5,10,1:2:0:0:
400,232,83599,1,2,0:2:0:0:
164,240,83837,6,0,P|192:236|216:212,1,58.4999973220826,2|0,1:2|0:0,0:0:0:0:
129,232,84075,2,0,P|101:236|80:256,1,58.4999973220826
0,384,84313,1,8,1:0:0:0:
68,312,84432,2,0,P|80:248|44:204,1,116.999994644165
164,124,84790,6,0,P|175:97|174:68,1,58.4999973220826,0|0,1:0|0:0,0:0:0:0:
130,123,85028,2,0,P|118:149|119:178,1,58.4999973220826
156,323,85266,1,8,1:0:0:0:
272,236,85385,2,0,P|292:168|264:104,1,116.999994644165
424,188,85742,6,0,P|392:200|359:195,1,67.5000025749208,2|0,1:2|0:0,0:0:0:0:
260,360,85980,2,0,P|248:328|253:295,1,67.5000025749208,2|0,0:2|0:0,0:0:0:0:
88,196,86218,2,0,P|120:184|153:189,1,67.5000025749208,8|0,1:2|0:0,0:0:0:0:
252,24,86456,2,0,P|264:56|259:89,1,67.5000025749208,2|0,0:2|0:0,0:0:0:0:
76,196,86694,6,0,L|144:192,1,67.5000025749208,2|0,1:2|0:0,0:0:0:0:
260,372,86932,2,0,L|256:304,1,67.5000025749208,2|0,0:2|0:0,0:0:0:0:
436,188,87171,2,0,L|368:192,1,67.5000025749208,10|0,1:2|0:0,0:0:0:0:
252,12,87409,2,0,L|256:80,1,67.5000025749208,2|0,0:2|0:0,0:0:0:0:
452,188,87647,6,0,P|420:176|387:181,1,67.5000025749208,2|0,1:2|0:0,0:0:0:0:
260,388,87885,2,0,P|271:356|266:323,1,67.5000025749208,2|0,0:2|0:0,0:0:0:0:
60,196,88123,2,0,P|91:207|124:202,1,67.5000025749208,10|0,1:2|0:0,0:0:0:0:
252,0,88361,2,0,P|240:27|245:60,1,67.5000025749208,2|0,0:2|0:0,0:0:0:0:
340,260,88599,6,0,P|284:228|200:256,1,116.999994644165,2|2,1:2|0:2,0:0:0:0:
424,356,89075,1,10,1:2:0:0:
467,303,89194,2,0,L|483:175,1,116.999994644165
404,76,89552,6,0,L|412:156,2,58.4999973220826,2|0|0,1:2|0:0|0:0,0:0:0:0:
201,233,90028,1,10,1:2:0:0:
304,164,90147,2,0,L|320:40,1,116.999994644165
160,200,90504,6,0,L|167:257,2,58.4999973220826,2|0|0,1:2|0:0|0:0,0:0:0:0:
0,45,90980,1,10,1:2:0:0:
84,124,91099,2,0,L|69:240,1,116.999994644165
240,352,91456,1,2,1:1:0:0:
220,260,91615,5,2,0:1:0:0:
196,256,91694,1,2,0:1:0:0:
324,188,91853,5,2,0:1:0:0:
300,196,91932,1,10,1:1:0:0:
411,72,92171,5,2,0:1:0:0:
432,184,92329,5,2,0:1:0:0:
436,160,92409,1,2,1:1:0:0:
360,248,92567,5,2,0:1:0:0:
344,228,92647,1,2,0:1:0:0:
352,336,92806,5,2,0:1:0:0:
328,332,92885,1,10,1:1:0:0:
444,264,93044,5,2,0:1:0:0:
468,260,93123,1,2,0:1:0:0:
356,196,93282,5,2,0:1:0:0:
332,192,93361,1,4,1:2:0:0:
436,108,93599,1,2,0:3:0:0:
256,144,93837,5,8,0:0:0:0:
310,103,93956,2,0,L|368:60,1,45,2|0,0:3|0:0,0:0:0:0:
179,120,94194,1,2,0:3:0:0:
373,75,94432,5,0,0:0:0:0:
306,79,94551,1,2,0:3:0:0:
136,48,94789,5,8,0:0:0:0:
107,81,94908,1,0,0:0:0:0:
101,125,95027,1,2,0:3:0:0:
115,167,95146,1,2,0:3:0:0:
153,190,95265,2,0,P|208:186|261:152,1,90,0|2,0:0|0:3,0:0:0:0:
396,272,95741,5,8,0:0:0:0:
328,268,95860,2,0,P|303:270|265:291,1,45,2|0,0:3|0:0,0:0:0:0:
455,209,96099,1,2,0:3:0:0:
278,306,96336,5,0,0:0:0:0:
308,246,96455,1,2,0:3:0:0:
440,72,96694,5,8,0:0:0:0:
480,93,96813,1,0,0:0:0:0:
496,135,96932,1,2,0:3:0:0:
486,178,97051,1,2,0:3:0:0:
452,206,97170,6,0,L|352:180,1,90,0|2,0:0|0:3,0:0:0:0:
312,336,97646,5,8,0:0:0:0:
371,298,97765,2,0,L|429:256,1,45,2|0,0:3|0:0,0:0:0:0:
264,272,98003,1,2,0:3:0:0:
443,281,98241,5,0,0:0:0:0:
378,265,98361,1,2,0:3:0:0:
488,144,98599,5,8,0:0:0:0:
421,157,98719,1,2,0:3:0:0:
510,178,98837,1,0,0:0:0:0:
292,208,99075,6,0,L|200:176,1,90,0|2,0:0|0:3,0:0:0:0:
404,168,99551,5,8,0:0:0:0:
336,160,99670,2,0,L|276:192,1,45,2|0,0:3|0:0,0:0:0:0:
456,120,99908,1,2,0:3:0:0:
260,108,100146,5,0,0:0:0:0:
324,128,100266,2,0,L|370:106,1,45,2|0,0:3|0:0,0:0:0:0:
204,176,100504,1,8,0:0:0:0:
268,200,100623,1,2,0:3:0:0:
184,216,100742,1,0,1:0:0:0:
86,358,100980,6,0,P|90:313|76:285,1,45,2|0,1:2|0:0,0:0:0:0:
18,215,101218,1,2,0:2:0:0:
88,300,101337,6,0,P|122:308|163:293,1,45,2|8,0:2|1:0,0:0:0:0:
216,244,101575,2,0,P|264:244|300:272,1,90
192,268,101932,2,0,L|184:216,1,45,0|0,1:0|0:0,0:0:0:0:
80,128,102170,5,0,0:0:0:0:
90,172,102289,1,0,0:0:0:0:
121,205,102408,1,8,1:0:0:0:
166,214,102527,1,2,0:2:0:0:
206,194,102646,2,0,P|220:173|213:138,1,45,2|0,0:2|0:0,0:0:0:0:
121,205,102884,6,0,P|113:262|141:309,2,90,2|0|8,1:2|0:0|1:0,0:0:0:0:
48,308,103480,1,0,0:0:0:0:
0,184,103718,1,0,0:0:0:0:
0,184,103778,1,2,0:2:0:0:
0,184,103837,6,0,L|60:177,1,45,2|0,1:2|0:0,0:0:0:0:
140,93,104075,2,0,L|186:131,1,45,2|0,0:2|0:0,0:0:0:0:
304,129,104313,2,0,L|309:189,1,45,10|0,1:2|0:0,0:0:0:0:
393,271,104551,2,0,L|353:318,1,45,2|0,0:2|0:0,0:0:0:0:
192,320,104790,5,0,1:2:0:0:
112,252,105028,2,0,P|148:256|164:272,1,45,2|0,0:2|0:0,0:0:0:0:
10,352,105266,1,8,1:0:0:0:
72,288,105385,2,0,P|80:260|60:204,1,90,2|0,0:2|0:0,0:0:0:0:
143,284,105742,6,0,L|195:272,1,45,2|0,1:2|0:0,0:0:0:0:
27,284,105980,2,0,L|75:288,1,45,2|0,0:2|0:0,0:0:0:0:
252,232,106218,6,0,L|258:179,1,45,10|0,1:2|0:0,0:0:0:0:
265,347,106456,2,0,L|256:299,1,45,2|0,0:2|0:0,0:0:0:0:
428,240,106694,6,0,B|368:232,1,45,6|0,1:2|0:0,0:0:0:0:
364,264,106932,2,0,L|308:260,1,45,0|0,1:0|0:0,0:0:0:0:
84,240,107171,6,0,B|144:232,1,45,10|0,1:2|0:0,0:0:0:0:
148,264,107409,2,0,L|204:260,1,45,0|0,1:0|0:0,0:0:0:0:
480,128,107647,6,0,B|420:120,1,45,2|0,1:2|0:0,0:0:0:0:
416,152,107885,2,0,L|360:148,1,45,0|0,1:0|0:0,0:0:0:0:
32,128,108123,6,0,B|92:120,1,45,10|0,1:2|0:0,0:0:0:0:
96,152,108361,2,0,L|152:148,1,45,0|0,1:0|0:0,0:0:0:0:
328,78,108599,6,0,P|348:22|332:-14,1,58.4999973220826,6|0,1:2|0:0,0:0:0:0:
420,198,108837,1,2,0:2:0:0:
376,138,108956,2,0,P|365:111|367:82,1,58.4999973220826,2|8,0:2|1:0,0:0:0:0:
300,230,109194,5,2,0:2:0:0:
344,170,109313,1,2,0:2:0:0:
416,150,109432,1,2,0:2:0:0:
492,166,109551,1,2,1:2:0:0:
263,142,109789,1,2,0:2:0:0:
263,142,110027,5,10,1:2:0:0:
494,169,110266,2,0,P|466:160|437:166,1,58.4999973220826,2|0,0:2|0:0,0:0:0:0:
512,95,110504,5,2,1:2:0:0:
504,280,110742,2,0,P|484:217|496:164,1,116.999994644165,2|8,0:2|1:0,0:0:0:0:
420,276,111099,5,2,0:2:0:0:
512,225,111218,1,2,0:2:0:0:
394,347,111337,1,2,0:2:0:0:
422,257,111456,5,2,1:2:0:0:
512,364,111694,1,2,0:2:0:0:
253,318,111932,1,10,1:2:0:0:
498,302,112170,1,2,0:2:0:0:
428,135,112408,5,2,1:2:0:0:
427,231,112567,5,2,0:2:0:0:
424,159,112646,1,0,0:0:0:0:
310,59,112805,5,2,0:2:0:0:
306,132,112884,1,10,1:2:0:0:
326,129,113043,5,2,0:2:0:0:
298,61,113122,1,0,0:2:0:0:
236,179,113282,5,2,0:2:0:0:
232,252,113361,1,2,1:2:0:0:
252,249,113520,5,2,0:2:0:0:
224,181,113599,1,0,0:2:0:0:
107,53,113758,5,2,0:2:0:0:
103,126,113837,1,10,1:2:0:0:
123,123,113996,5,2,0:2:0:0:
95,55,114075,1,0,0:0:0:0:
28,204,114234,5,0,0:0:0:0:
96,224,114313,2,0,L|184:206,1,58.4999973220826,2|0,1:2|0:0,0:0:0:0:
103,151,114552,2,0,L|177:200,1,58.4999973220826,2|0,0:2|0:0,0:0:0:0:
159,104,114790,2,0,L|177:191,1,58.4999973220826,8|0,1:2|0:0,0:0:0:0:
231,110,115028,2,0,L|181:184,1,58.4999973220826,2|0,0:2|0:0,0:0:0:0:
174,304,115266,6,0,L|219:226,1,58.4999973220826,2|0,1:2|0:0,0:0:0:0:
284,367,115505,2,0,L|260:280,1,58.4999973220826,2|0,0:2|0:0,0:0:0:0:
411,330,115743,2,0,L|332:285,1,58.4999973220826,10|0,1:2|0:0,0:0:0:0:
485,231,115981,2,0,L|398:254,1,58.4999973220826,2|0,0:2|0:0,0:0:0:0:
413,97,116218,6,0,P|397:135|415:200,1,58.4999973220826,2|0,1:2|0:0,0:0:0:0:
364,25,116456,1,2,0:2:0:0:
442,71,116575,2,0,P|407:77|379:63,1,58.4999973220826,2|8,0:2|1:0,0:0:0:0:
288,0,116813,1,2,0:2:0:0:
200,7,116932,1,2,0:2:0:0:
138,70,117052,1,2,0:2:0:0:
151,154,117171,6,0,L|227:142,1,58.4999973220826,2|0,1:2|0:0,0:0:0:0:
312,220,117409,2,0,L|388:208,1,58.4999973220826,2|0,0:2|0:0,0:0:0:0:
282,70,117647,6,0,L|294:146,1,58.4999973220826,10|0,1:2|0:0,0:0:0:0:
230,236,117885,2,0,L|242:312,1,58.4999973220826,2|0,0:2|0:0,0:0:0:0:
391,339,118123,6,0,P|391:301|365:263,1,58.4999973220826,2|0,1:2|0:0,0:0:0:0:
150,256,118361,2,0,P|134:311|151:366,1,116.999994644165,2|8,0:2|1:0,0:0:0:0:
169,234,118718,2,0,P|168:192|142:164,1,58.4999973220826,2|0,0:2|0:0,0:0:0:0:
61,322,118996,5,2,0:2:0:0:
87,336,119075,2,0,L|147:317,1,58.4999973220826,2|0,1:2|0:0,0:0:0:0:
301,341,119313,2,0,L|245:358,1,58.4999973220826,2|0,0:2|0:0,0:0:0:0:
114,226,119552,2,0,L|174:207,1,58.4999973220826,10|0,1:2|0:0,0:0:0:0:
328,231,119790,2,0,L|272:248,1,58.4999973220826,2|0,0:2|0:0,0:0:0:0:
387,152,120028,6,0,P|420:197|419:258,1,116.999994644165,2|2,1:2|0:2,0:0:0:0:
440,156,120385,1,0,0:0:0:0:
362,143,120504,6,0,P|349:106|356:79,2,58.4999973220826,8|2|0,1:0|0:2|0:0,0:0:0:0:
439,3,120861,1,0,0:2:0:0:
421,64,120980,6,0,P|390:74|360:71,1,58.4999973220826,0|2,1:0|0:2,0:0:0:0:
291,37,121218,2,0,P|262:35|234:45,1,58.4999973220826
209,180,121456,2,0,P|214:135|197:108,1,58.4999973220826,10|0,1:2|0:0,0:2:0:0:
151,12,121694,2,0,P|145:56|163:84,1,58.4999973220826,2|0,0:2|0:0,0:0:0:0:
282,107,121932,5,2,1:1:0:0:
389,184,122091,5,2,0:1:0:0:
354,177,122171,1,2,1:1:0:0:
257,233,122329,5,2,0:1:0:0:
222,240,122409,1,10,1:1:0:0:
492,296,122647,1,2,1:1:0:0:
341,349,122806,5,2,0:1:0:0:
344,314,122885,1,2,1:1:0:0:
163,287,123044,5,2,0:1:0:0:
160,252,123123,1,2,1:1:0:0:
351,212,123282,5,2,0:1:0:0:
354,177,123361,1,10,1:1:0:0:
128,140,123520,5,2,0:1:0:0:
131,105,123599,1,2,1:1:0:0:
361,75,123758,5,2,0:1:0:0:
364,40,123837,1,4,1:2:0:0:
243,173,124075,1,2,0:3:0:0:
399,81,124313,5,8,1:0:0:0:
336,56,124432,1,2,0:3:0:0:
512,52,124671,2,0,L|450:66,1,45,2|0,0:3|1:0,0:0:0:0:
334,67,124908,5,0,0:0:0:0:
400,58,125027,1,2,0:3:0:0:
240,174,125265,5,8,1:0:0:0:
197,158,125384,1,0,0:0:0:0:
174,120,125503,1,2,0:3:0:0:
176,76,125622,1,2,0:3:0:0:
207,43,125741,5,0,1:0:0:0:
380,70,125979,1,2,0:3:0:0:
193,36,126217,5,8,1:0:0:0:
256,59,126336,1,2,0:3:0:0:
81,68,126575,2,0,L|130:52,1,45,2|0,0:3|1:0,0:0:0:0:
258,48,126812,5,0,0:0:0:0:
192,59,126931,1,2,0:3:0:0:
377,69,127170,5,8,1:0:0:0:
419,86,127289,1,0,0:0:0:0:
443,125,127408,1,2,0:3:0:0:
447,170,127527,1,2,0:3:0:0:
431,212,127646,5,0,1:0:0:0:
479,45,127884,1,2,0:3:0:0:
302,161,128122,5,8,1:0:0:0:
368,153,128241,1,2,0:3:0:0:
240,241,128480,2,0,L|252:191,1,45,2|0,0:3|1:0,0:0:0:0:
343,98,128717,5,0,0:0:0:0:
328,164,128836,1,2,0:3:0:0:
194,46,129075,5,8,1:0:0:0:
224,106,129194,1,2,0:3:0:0:
207,2,129313,1,0,0:0:0:0:
208,293,129551,5,0,1:0:0:0:
146,158,129789,1,2,0:3:0:0:
236,297,130027,5,8,1:0:0:0:
171,277,130146,1,2,0:3:0:0:
309,369,130385,2,0,L|260:355,1,45,2|0,0:3|1:0,0:0:0:0:
169,288,130622,5,0,0:0:0:0:
235,272,130741,1,2,0:3:0:0:
32,243,130980,5,8,1:0:0:0:
99,246,131099,1,2,0:3:0:0:
0,214,131218,1,0,1:0:0:0:
21,197,131337,1,2,0:3:0:0:
2,132,131456,5,4,1:2:0:0:
191,63,131694,2,0,P|244:108|241:132,1,90,2|8,0:3|0:0,0:0:0:0:
291,41,132052,2,0,L|352:24,1,45,2|0,0:3|0:0,0:0:0:0:
160,61,132290,2,0,L|116:56,1,45,2|0,0:3|0:0,0:0:0:0:
243,121,132528,5,0,0:0:0:0:
227,55,132647,2,0,L|234:-6,1,45,2|0,0:3|0:0,0:0:0:0:
76,4,132885,5,8,0:0:0:0:
54,27,133004,1,0,0:0:0:0:
47,57,133123,1,2,0:3:0:0:
57,84,133242,1,2,0:3:0:0:
84,103,133361,2,0,B|143:94|143:93,1,45
14,158,133599,6,0,P|-5:190|4:248,1,90,2|8,0:3|0:0,0:0:0:0:
12,87,133956,2,0,L|-31:38,1,45,2|0,0:3|0:0,0:0:0:0:
93,140,134194,2,0,L|41:144,1,45,2|0,0:3|0:0,0:0:0:0:
147,182,134432,1,0,0:0:0:0:
214,177,134552,2,0,L|269:173,1,45,2|0,0:3|0:0,0:0:0:0:
212,55,134790,5,8,0:0:0:0:
177,112,134909,1,2,0:3:0:0:
249,64,135028,1,0,0:3:0:0:
92,49,135266,1,2,0:3:0:0:
256,192,135385,12,0,137052,0:0:0:0:
116,147,137171,5,0,1:0:0:0:
288,180,137409,1,0,1:0:0:0:
92,164,137647,1,8,1:0:0:0:
272,158,137885,1,0,1:0:0:0:
210,307,138361,6,0,L|200:254,2,45,0|2|8,1:0|0:3|0:0,0:0:0:0:
122,357,138758,5,0,1:0:0:0:
122,357,138837,1,0,1:0:0:0:
42,325,139075,1,4,0:0:0:0:
256,192,139194,12,0,144790,0:0:0:0:
