osu file format v14

[General]
AudioFilename: audio.mp3
AudioLeadIn: 0
PreviewTime: 108599
Countdown: 0
SampleSet: Soft
StackLeniency: 0.7
Mode: 3
LetterboxInBreaks: 0
SpecialStyle: 0
WidescreenStoryboard: 1

[Editor]
Bookmarks: 9552,17171,32409,47647,62885,70504,78123,93361,108599,116218,123837,131456,144790
DistanceSpacing: 1
BeatDivisor: 4
GridSize: 4
TimelineZoom: 0.9

[Metadata]
Title:Paradise
TitleUnicode:Paradise
Artist:Sound Souler
ArtistUnicode:Sound Souler
Creator:cai_ji_ccc
Version:Future
Source:Arcaea
Tags:electronic artcore violin rhythm game Memories of Light lowiro EP01 Piano House Lavenue Video Game Instrumental Stellights 紅 Kou Crimson Solace World Against
BeatmapID:3685596
BeatmapSetID:1797319

[Difficulty]
HPDrainRate:7.7
CircleSize:4
OverallDifficulty:7.7
ApproachRate:5
SliderMultiplier:1.4
SliderTickRate:1

[Events]
//Background and Video events
0,0,"IMG_20220702_161733.jpg",0,0
//Break Periods
//Storyboard Layer 0 (Background)
//Storyboard Layer 1 (Fail)
//Storyboard Layer 2 (Pass)
//Storyboard Layer 3 (Foreground)
//Storyboard Layer 4 (Overlay)
//Storyboard Sound Samples

[TimingPoints]
1933,476.190476190476,4,2,1,40,1,0
62885,-100,4,2,1,40,0,1
78123,-100,4,2,1,40,0,0
108599,-100,4,2,1,40,0,1
123837,-100,4,2,1,40,0,0

[HitObjects]
448,192,9552,5,0,0:0:0:0:
320,192,9552,1,0,0:0:0:0:
64,192,9552,1,0,0:0:0:0:
192,192,9790,1,0,0:0:0:0:
64,192,10028,1,0,0:0:0:0:
448,192,10028,1,0,0:0:0:0:
192,192,10147,1,0,0:0:0:0:
192,192,10385,1,0,0:0:0:0:
448,192,10623,1,0,0:0:0:0:
192,192,10742,1,0,0:0:0:0:
64,192,10980,1,0,0:0:0:0:
448,192,10980,1,0,0:0:0:0:
192,192,11099,1,0,0:0:0:0:
320,192,11218,1,0,0:0:0:0:
192,192,11337,1,0,0:0:0:0:
448,192,11456,1,0,0:0:0:0:
64,192,11456,1,0,0:0:0:0:
320,192,11694,1,0,0:0:0:0:
448,192,11932,1,0,0:0:0:0:
64,192,11932,1,0,0:0:0:0:
320,192,12052,1,0,0:0:0:0:
320,192,12290,1,0,0:0:0:0:
64,192,12528,1,0,0:0:0:0:
320,192,12647,1,0,0:0:0:0:
448,192,12885,1,0,0:0:0:0:
192,192,12885,1,0,0:0:0:0:
64,192,13004,1,0,0:0:0:0:
320,192,13123,1,0,0:0:0:0:
192,192,13242,1,0,0:0:0:0:
64,192,13361,1,0,0:0:0:0:
320,192,13361,1,0,0:0:0:0:
448,192,13599,1,0,0:0:0:0:
64,192,13837,1,0,0:0:0:0:
192,192,13837,1,0,0:0:0:0:
448,192,13956,1,0,0:0:0:0:
320,192,14194,1,0,0:0:0:0:
192,192,14432,1,0,0:0:0:0:
320,192,14552,1,0,0:0:0:0:
64,192,14790,1,0,0:0:0:0:
448,192,14790,1,0,0:0:0:0:
192,192,14909,1,0,0:0:0:0:
320,192,15028,1,0,0:0:0:0:
448,192,15266,1,0,0:0:0:0:
64,192,15266,1,0,0:0:0:0:
192,192,15504,1,0,0:0:0:0:
448,192,15742,1,0,0:0:0:0:
64,192,15742,1,0,0:0:0:0:
192,192,15861,1,0,0:0:0:0:
320,192,16099,1,0,0:0:0:0:
320,192,16337,1,0,0:0:0:0:
64,192,16575,1,0,0:0:0:0:
320,192,16813,1,0,0:0:0:0:
192,192,16932,1,0,0:0:0:0:
448,192,17171,1,0,0:0:0:0:
320,192,17171,1,0,0:0:0:0:
64,192,17171,1,0,0:0:0:0:
192,192,17409,1,0,0:0:0:0:
320,192,17528,1,0,0:0:0:0:
64,192,17647,1,0,0:0:0:0:
448,192,17647,1,0,0:0:0:0:
192,192,17766,1,0,0:0:0:0:
320,192,17885,1,0,0:0:0:0:
448,192,18123,1,0,0:0:0:0:
192,192,18361,1,0,0:0:0:0:
64,192,18480,1,0,0:0:0:0:
448,192,18599,1,0,0:0:0:0:
320,192,18599,1,0,0:0:0:0:
192,192,18718,1,0,0:0:0:0:
320,192,18837,1,0,0:0:0:0:
448,192,19075,1,0,0:0:0:0:
64,192,19075,1,0,0:0:0:0:
192,192,19313,1,0,0:0:0:0:
448,192,19552,1,0,0:0:0:0:
64,192,19552,1,0,0:0:0:0:
320,192,19790,1,0,0:0:0:0:
448,192,20028,1,0,0:0:0:0:
192,192,20028,128,0,20266:0:0:0:0:
320,192,20266,128,0,20504:0:0:0:0:
192,192,20504,1,0,0:0:0:0:
448,192,20504,128,0,20742:0:0:0:0:
64,192,20742,128,0,20980:0:0:0:0:
448,192,20980,1,0,0:0:0:0:
192,192,20980,128,0,21218:0:0:0:0:
320,192,21218,128,0,21456:0:0:0:0:
192,192,21456,1,0,0:0:0:0:
64,192,21456,1,0,0:0:0:0:
448,192,21694,128,0,21932:0:0:0:0:
64,192,21932,1,0,0:0:0:0:
320,192,21932,128,0,22171:0:0:0:0:
192,192,22171,128,0,22409:0:0:0:0:
448,192,22409,1,0,0:0:0:0:
320,192,22409,128,0,22647:0:0:0:0:
192,192,22647,128,0,22885:0:0:0:0:
448,192,22885,1,0,0:0:0:0:
64,192,22885,128,0,23123:0:0:0:0:
320,192,23123,1,0,0:0:0:0:
192,192,23242,1,0,0:0:0:0:
448,192,23361,1,0,0:0:0:0:
64,192,23361,1,0,0:0:0:0:
320,192,23480,1,0,0:0:0:0:
192,192,23599,1,0,0:0:0:0:
448,192,23837,1,0,0:0:0:0:
64,192,23837,1,0,0:0:0:0:
192,192,23956,1,0,0:0:0:0:
320,192,24075,1,0,0:0:0:0:
448,192,24313,1,0,0:0:0:0:
64,192,24313,128,0,24552:0:0:0:0:
192,192,24552,128,0,24790:0:0:0:0:
448,192,24790,1,0,0:0:0:0:
320,192,24790,128,0,25028:0:0:0:0:
64,192,25028,128,0,25266:0:0:0:0:
448,192,25266,1,0,0:0:0:0:
192,192,25266,1,0,0:0:0:0:
320,192,25385,1,0,0:0:0:0:
64,192,25504,1,0,0:0:0:0:
192,192,25623,1,0,0:0:0:0:
448,192,25742,1,0,0:0:0:0:
320,192,25980,1,0,0:0:0:0:
192,192,26099,1,0,0:0:0:0:
448,192,26218,1,0,0:0:0:0:
64,192,26218,1,0,0:0:0:0:
320,192,26337,1,0,0:0:0:0:
192,192,26456,1,0,0:0:0:0:
448,192,26694,1,0,0:0:0:0:
64,192,26694,1,0,0:0:0:0:
192,192,26932,1,0,0:0:0:0:
448,192,27171,1,0,0:0:0:0:
320,192,27171,1,0,0:0:0:0:
64,192,27409,1,0,0:0:0:0:
192,192,27647,128,0,27885:0:0:0:0:
320,192,27647,1,0,0:0:0:0:
448,192,27885,128,0,28123:0:0:0:0:
64,192,28123,1,0,0:0:0:0:
192,192,28123,128,0,28361:0:0:0:0:
320,192,28361,128,0,28599:0:0:0:0:
192,192,28599,1,0,0:0:0:0:
64,192,28599,128,0,28837:0:0:0:0:
448,192,28837,128,0,29075:0:0:0:0:
320,192,29075,1,0,0:0:0:0:
64,192,29075,1,0,0:0:0:0:
192,192,29194,1,0,0:0:0:0:
448,192,29313,1,0,0:0:0:0:
320,192,29432,1,0,0:0:0:0:
64,192,29552,1,0,0:0:0:0:
320,192,29790,1,0,0:0:0:0:
192,192,29909,1,0,0:0:0:0:
448,192,30028,1,0,0:0:0:0:
64,192,30028,1,0,0:0:0:0:
320,192,30147,1,0,0:0:0:0:
192,192,30266,1,0,0:0:0:0:
320,192,30504,1,0,0:0:0:0:
64,192,30504,1,0,0:0:0:0:
192,192,30623,1,0,0:0:0:0:
448,192,30742,1,0,0:0:0:0:
320,192,30861,1,0,0:0:0:0:
192,192,30980,1,0,0:0:0:0:
64,192,30980,1,0,0:0:0:0:
320,192,31218,1,0,0:0:0:0:
448,192,31337,1,0,0:0:0:0:
192,192,31456,1,0,0:0:0:0:
320,192,31575,1,0,0:0:0:0:
64,192,31694,1,0,0:0:0:0:
192,192,31932,1,0,0:0:0:0:
448,192,31932,1,0,0:0:0:0:
320,192,32052,1,0,0:0:0:0:
64,192,32171,1,0,0:0:0:0:
192,192,32290,1,0,0:0:0:0:
448,192,32409,1,0,0:0:0:0:
64,192,32409,1,0,0:0:0:0:
192,192,32647,1,0,0:0:0:0:
320,192,32766,1,0,0:0:0:0:
64,192,32885,1,0,0:0:0:0:
448,192,32885,1,0,0:0:0:0:
192,192,33004,1,0,0:0:0:0:
320,192,33123,1,0,0:0:0:0:
64,192,33361,1,0,0:0:0:0:
192,192,33361,128,0,33599:0:0:0:0:
448,192,33599,128,0,33837:0:0:0:0:
320,192,33837,1,0,0:0:0:0:
192,192,33837,128,0,34075:0:0:0:0:
64,192,34075,128,0,34313:0:0:0:0:
448,192,34313,1,0,0:0:0:0:
320,192,34313,1,0,0:0:0:0:
192,192,34552,1,0,0:0:0:0:
448,192,34790,1,0,0:0:0:0:
64,192,34790,1,0,0:0:0:0:
320,192,34909,1,0,0:0:0:0:
64,192,35028,1,0,0:0:0:0:
192,192,35147,1,0,0:0:0:0:
448,192,35266,1,0,0:0:0:0:
320,192,35266,128,0,35504:0:0:0:0:
64,192,35504,128,0,35742:0:0:0:0:
192,192,35742,1,0,0:0:0:0:
448,192,35742,128,0,35980:0:0:0:0:
320,192,35980,128,0,36218:0:0:0:0:
64,192,36218,1,0,0:0:0:0:
192,192,36218,1,0,0:0:0:0:
448,192,36456,1,0,0:0:0:0:
64,192,36694,1,0,0:0:0:0:
320,192,36694,1,0,0:0:0:0:
192,192,36813,1,0,0:0:0:0:
320,192,36932,1,0,0:0:0:0:
448,192,37171,1,0,0:0:0:0:
64,192,37171,128,0,37409:0:0:0:0:
192,192,37409,128,0,37647:0:0:0:0:
64,192,37647,1,0,0:0:0:0:
448,192,37647,128,0,37885:0:0:0:0:
320,192,37885,128,0,38123:0:0:0:0:
192,192,38123,1,0,0:0:0:0:
64,192,38123,1,0,0:0:0:0:
448,192,38361,1,0,0:0:0:0:
64,192,38599,1,0,0:0:0:0:
320,192,38599,1,0,0:0:0:0:
192,192,38718,1,0,0:0:0:0:
448,192,38837,1,0,0:0:0:0:
320,192,38956,1,0,0:0:0:0:
192,192,39075,1,0,0:0:0:0:
64,192,39075,1,0,0:0:0:0:
320,192,39313,1,0,0:0:0:0:
448,192,39432,1,0,0:0:0:0:
192,192,39552,1,0,0:0:0:0:
64,192,39552,1,0,0:0:0:0:
320,192,39671,1,0,0:0:0:0:
64,192,39790,1,0,0:0:0:0:
192,192,39909,1,0,0:0:0:0:
320,192,40028,1,0,0:0:0:0:
448,192,40028,1,0,0:0:0:0:
192,192,40266,1,0,0:0:0:0:
64,192,40385,1,0,0:0:0:0:
320,192,40504,1,0,0:0:0:0:
448,192,40504,1,0,0:0:0:0:
192,192,40623,1,0,0:0:0:0:
320,192,40742,1,0,0:0:0:0:
192,192,40980,1,0,0:0:0:0:
64,192,40980,128,0,41218:0:0:0:0:
320,192,41218,128,0,41456:0:0:0:0:
64,192,41456,1,0,0:0:0:0:
192,192,41456,128,0,41694:0:0:0:0:
448,192,41694,128,0,41932:0:0:0:0:
192,192,41932,1,0,0:0:0:0:
320,192,41932,128,0,42171:0:0:0:0:
64,192,42171,1,0,0:0:0:0:
192,192,42290,1,0,0:0:0:0:
448,192,42409,1,0,0:0:0:0:
320,192,42409,1,0,0:0:0:0:
64,192,42528,1,0,0:0:0:0:
192,192,42647,1,0,0:0:0:0:
448,192,42766,1,0,0:0:0:0:
320,192,42885,1,0,0:0:0:0:
64,192,42885,128,0,43123:0:0:0:0:
448,192,43123,128,0,43361:0:0:0:0:
64,192,43361,1,0,0:0:0:0:
192,192,43361,128,0,43599:0:0:0:0:
448,192,43599,1,0,0:0:0:0:
320,192,43599,128,0,43837:0:0:0:0:
64,192,43837,1,0,0:0:0:0:
192,192,43837,1,0,0:0:0:0:
192,192,44075,1,0,0:0:0:0:
320,192,44194,1,0,0:0:0:0:
448,192,44313,1,0,0:0:0:0:
64,192,44432,1,0,0:0:0:0:
192,192,44552,1,0,0:0:0:0:
320,192,44671,1,0,0:0:0:0:
448,192,44790,1,0,0:0:0:0:
320,192,44909,1,0,0:0:0:0:
192,192,45028,1,0,0:0:0:0:
64,192,45147,1,0,0:0:0:0:
448,192,45266,1,0,0:0:0:0:
320,192,45385,1,0,0:0:0:0:
192,192,45504,1,0,0:0:0:0:
320,192,45623,1,0,0:0:0:0:
64,192,45742,1,0,0:0:0:0:
448,192,45742,1,0,0:0:0:0:
320,192,45980,1,0,0:0:0:0:
448,192,46059,1,0,0:0:0:0:
192,192,46139,1,0,0:0:0:0:
320,192,46218,1,0,0:0:0:0:
192,192,46456,1,0,0:0:0:0:
64,192,46536,1,0,0:0:0:0:
320,192,46615,1,0,0:0:0:0:
192,192,46694,1,0,0:0:0:0:
448,192,46932,1,0,0:0:0:0:
64,192,47171,1,0,0:0:0:0:
192,192,47290,1,0,0:0:0:0:
320,192,47409,1,0,0:0:0:0:
192,192,47528,1,0,0:0:0:0:
448,192,47647,1,0,0:0:0:0:
64,192,47647,1,0,0:0:0:0:
320,192,47806,1,0,0:0:0:0:
192,192,47885,1,0,0:0:0:0:
320,192,48044,1,0,0:0:0:0:
64,192,48123,1,0,0:0:0:0:
448,192,48123,1,0,0:0:0:0:
192,192,48282,1,0,0:0:0:0:
320,192,48361,1,0,0:0:0:0:
64,192,48520,1,0,0:0:0:0:
192,192,48599,1,0,0:0:0:0:
448,192,48758,1,0,0:0:0:0:
320,192,48837,1,0,0:0:0:0:
192,192,48996,1,0,0:0:0:0:
448,192,49075,1,0,0:0:0:0:
64,192,49075,1,0,0:0:0:0:
320,192,49234,1,0,0:0:0:0:
192,192,49313,1,0,0:0:0:0:
64,192,49472,1,0,0:0:0:0:
448,192,49552,1,0,0:0:0:0:
64,192,49671,1,0,0:0:0:0:
448,192,49790,1,0,0:0:0:0:
64,192,49909,1,0,0:0:0:0:
448,192,50028,1,0,0:0:0:0:
192,192,50028,1,0,0:0:0:0:
320,192,50147,1,0,0:0:0:0:
192,192,50266,5,0,0:0:0:0:
320,192,50385,1,0,0:0:0:0:
448,192,50504,5,0,0:0:0:0:
64,192,50623,1,0,0:0:0:0:
192,192,50742,1,0,0:0:0:0:
320,192,50861,1,0,0:0:0:0:
192,192,50980,1,0,0:0:0:0:
64,192,50980,1,0,0:0:0:0:
448,192,51099,1,0,0:0:0:0:
320,192,51218,1,0,0:0:0:0:
192,192,51337,1,0,0:0:0:0:
64,192,51456,1,0,0:0:0:0:
448,192,51536,1,0,0:0:0:0:
320,192,51615,1,0,0:0:0:0:
64,192,51694,1,0,0:0:0:0:
192,192,51813,1,0,0:0:0:0:
320,192,51932,1,0,0:0:0:0:
448,192,52012,1,0,0:0:0:0:
64,192,52091,1,0,0:0:0:0:
192,192,52171,1,0,0:0:0:0:
320,192,52250,1,0,0:0:0:0:
64,192,52329,1,0,0:0:0:0:
192,192,52409,1,0,0:0:0:0:
448,192,52488,1,0,0:0:0:0:
320,192,52567,1,0,0:0:0:0:
192,192,52647,1,0,0:0:0:0:
448,192,52726,1,0,0:0:0:0:
320,192,52806,1,0,0:0:0:0:
64,192,52885,1,0,0:0:0:0:
448,192,53004,1,0,0:0:0:0:
192,192,53123,1,0,0:0:0:0:
320,192,53242,1,0,0:0:0:0:
448,192,53361,1,0,0:0:0:0:
192,192,53440,1,0,0:0:0:0:
64,192,53520,1,0,0:0:0:0:
320,192,53599,1,0,0:0:0:0:
192,192,53679,1,0,0:0:0:0:
448,192,53758,1,0,0:0:0:0:
320,192,53837,1,0,0:0:0:0:
64,192,53917,1,0,0:0:0:0:
192,192,53996,1,0,0:0:0:0:
320,192,54075,1,0,0:0:0:0:
448,192,54155,1,0,0:0:0:0:
192,192,54234,1,0,0:0:0:0:
64,192,54313,1,0,0:0:0:0:
448,192,54432,1,0,0:0:0:0:
320,192,54552,1,0,0:0:0:0:
192,192,54631,1,0,0:0:0:0:
320,192,54710,1,0,0:0:0:0:
64,192,54790,1,0,0:0:0:0:
64,192,54909,1,0,0:0:0:0:
448,192,55028,1,0,0:0:0:0:
448,192,55147,1,0,0:0:0:0:
64,192,55266,1,0,0:0:0:0:
320,192,55425,1,0,0:0:0:0:
192,192,55504,1,0,0:0:0:0:
448,192,55663,1,0,0:0:0:0:
320,192,55742,1,0,0:0:0:0:
64,192,55742,1,0,0:0:0:0:
192,192,55901,1,0,0:0:0:0:
448,192,55980,1,0,0:0:0:0:
320,192,56139,1,0,0:0:0:0:
64,192,56218,1,0,0:0:0:0:
192,192,56377,1,0,0:0:0:0:
320,192,56456,1,0,0:0:0:0:
64,192,56615,1,0,0:0:0:0:
448,192,56694,1,0,0:0:0:0:
192,192,56694,1,0,0:0:0:0:
320,192,56853,1,0,0:0:0:0:
192,192,56932,1,0,0:0:0:0:
64,192,57091,1,0,0:0:0:0:
448,192,57171,1,0,0:0:0:0:
320,192,57329,1,0,0:0:0:0:
192,192,57409,1,0,0:0:0:0:
320,192,57567,1,0,0:0:0:0:
448,192,57647,1,0,0:0:0:0:
64,192,57647,1,0,0:0:0:0:
192,192,57806,1,0,0:0:0:0:
320,192,57885,1,0,0:0:0:0:
64,192,58044,1,0,0:0:0:0:
448,192,58123,1,0,0:0:0:0:
320,192,58282,1,0,0:0:0:0:
192,192,58361,1,0,0:0:0:0:
448,192,58520,1,0,0:0:0:0:
320,192,58599,1,0,0:0:0:0:
64,192,58599,1,0,0:0:0:0:
192,192,58758,1,0,0:0:0:0:
320,192,58837,1,0,0:0:0:0:
448,192,58996,1,0,0:0:0:0:
64,192,59075,1,0,0:0:0:0:
192,192,59155,1,0,0:0:0:0:
320,192,59234,1,0,0:0:0:0:
448,192,59313,1,0,0:0:0:0:
64,192,59393,1,0,0:0:0:0:
192,192,59472,1,0,0:0:0:0:
448,192,59552,1,0,0:0:0:0:
320,192,59631,1,0,0:0:0:0:
192,192,59710,1,0,0:0:0:0:
64,192,59790,1,0,0:0:0:0:
320,192,59869,1,0,0:0:0:0:
448,192,59948,1,0,0:0:0:0:
64,192,60028,1,0,0:0:0:0:
192,192,60186,1,0,0:0:0:0:
320,192,60266,1,0,0:0:0:0:
64,192,60385,1,0,0:0:0:0:
192,192,60504,1,0,0:0:0:0:
448,192,60504,1,0,0:0:0:0:
320,192,60623,1,0,0:0:0:0:
192,192,60742,1,0,0:0:0:0:
320,192,60861,1,0,0:0:0:0:
64,192,60980,1,0,0:0:0:0:
448,192,60980,1,0,0:0:0:0:
192,192,61139,1,0,0:0:0:0:
320,192,61218,1,0,0:0:0:0:
64,192,61377,1,0,0:0:0:0:
192,192,61456,1,0,0:0:0:0:
320,192,61694,1,0,0:0:0:0:
448,192,61694,1,0,0:0:0:0:
192,192,61853,1,0,0:0:0:0:
64,192,61932,1,0,0:0:0:0:
320,192,62091,1,0,0:0:0:0:
192,192,62171,1,0,0:0:0:0:
448,192,62329,1,0,0:0:0:0:
320,192,62409,1,0,0:0:0:0:
64,192,62567,1,0,0:0:0:0:
192,192,62647,1,0,0:0:0:0:
448,192,62806,1,0,0:0:0:0:
64,192,62885,1,0,0:0:0:0:
320,192,62885,1,0,0:0:0:0:
192,192,63123,1,0,0:0:0:0:
320,192,63242,1,0,0:0:0:0:
448,192,63361,1,0,0:0:0:0:
64,192,63361,1,0,0:0:0:0:
192,192,63480,1,0,0:0:0:0:
320,192,63599,1,0,0:0:0:0:
192,192,63718,1,0,0:0:0:0:
448,192,63837,1,0,0:0:0:0:
64,192,63837,128,0,64075:0:0:0:0:
320,192,64075,128,0,64313:0:0:0:0:
448,192,64313,1,0,0:0:0:0:
64,192,64313,128,0,64552:0:0:0:0:
320,192,64552,128,0,64790:0:0:0:0:
64,192,64790,1,0,0:0:0:0:
192,192,64790,128,0,65028:0:0:0:0:
448,192,65028,128,0,65266:0:0:0:0:
64,192,65266,1,0,0:0:0:0:
320,192,65266,1,0,0:0:0:0:
192,192,65385,1,0,0:0:0:0:
320,192,65504,1,0,0:0:0:0:
192,192,65623,1,0,0:0:0:0:
64,192,65742,1,0,0:0:0:0:
448,192,65742,128,0,65980:0:0:0:0:
192,192,65980,128,0,66218:0:0:0:0:
448,192,66218,1,0,0:0:0:0:
320,192,66218,128,0,66456:0:0:0:0:
64,192,66456,128,0,66694:0:0:0:0:
448,192,66694,1,0,0:0:0:0:
192,192,66694,1,0,0:0:0:0:
64,192,66853,1,0,0:0:0:0:
320,192,66932,1,0,0:0:0:0:
192,192,67091,1,0,0:0:0:0:
448,192,67171,1,0,0:0:0:0:
320,192,67329,1,0,0:0:0:0:
64,192,67409,1,0,0:0:0:0:
448,192,67567,1,0,0:0:0:0:
192,192,67647,1,0,0:0:0:0:
320,192,67806,1,0,0:0:0:0:
64,192,67885,1,0,0:0:0:0:
192,192,68044,1,0,0:0:0:0:
320,192,68123,1,0,0:0:0:0:
448,192,68282,1,0,0:0:0:0:
64,192,68361,1,0,0:0:0:0:
320,192,68599,1,0,0:0:0:0:
192,192,68599,128,0,68837:0:0:0:0:
448,192,68837,128,0,69075:0:0:0:0:
64,192,69075,128,0,69313:0:0:0:0:
192,192,69075,1,0,0:0:0:0:
320,192,69313,128,0,69552:0:0:0:0:
448,192,69552,128,0,69790:0:0:0:0:
64,192,69552,1,0,0:0:0:0:
192,192,69790,128,0,70028:0:0:0:0:
448,192,70028,1,0,0:0:0:0:
320,192,70028,128,0,70266:0:0:0:0:
64,192,70266,128,0,70504:0:0:0:0:
192,192,70504,1,0,0:0:0:0:
448,192,70504,128,0,70742:0:0:0:0:
64,192,70742,128,0,70861:0:0:0:0:
320,192,70861,128,0,70980:0:0:0:0:
192,192,70980,1,0,0:0:0:0:
64,192,70980,1,0,0:0:0:0:
448,192,71218,1,0,0:0:0:0:
320,192,71456,1,0,0:0:0:0:
64,192,71456,128,0,71694:0:0:0:0:
448,192,71694,128,0,71813:0:0:0:0:
192,192,71813,128,0,71932:0:0:0:0:
448,192,71932,1,0,0:0:0:0:
320,192,71932,1,0,0:0:0:0:
64,192,72171,1,0,0:0:0:0:
320,192,72409,128,0,72647:0:0:0:0:
448,192,72409,1,0,0:0:0:0:
192,192,72647,128,0,72766:0:0:0:0:
448,192,72766,128,0,72885:0:0:0:0:
192,192,72885,1,0,0:0:0:0:
64,192,72885,1,0,0:0:0:0:
320,192,73123,1,0,0:0:0:0:
192,192,73361,128,0,73599:0:0:0:0:
64,192,73361,1,0,0:0:0:0:
320,192,73599,128,0,73718:0:0:0:0:
64,192,73718,128,0,73837:0:0:0:0:
448,192,73837,1,0,0:0:0:0:
192,192,73837,1,0,0:0:0:0:
64,192,73956,1,0,0:0:0:0:
320,192,74075,1,0,0:0:0:0:
192,192,74194,1,0,0:0:0:0:
448,192,74313,1,0,0:0:0:0:
64,192,74313,1,0,0:0:0:0:
320,192,74552,1,0,0:0:0:0:
448,192,74790,1,0,0:0:0:0:
192,192,74790,1,0,0:0:0:0:
64,192,75028,1,0,0:0:0:0:
320,192,75266,1,0,0:0:0:0:
192,192,75504,1,0,0:0:0:0:
64,192,75742,1,0,0:0:0:0:
448,192,75742,1,0,0:0:0:0:
192,192,75861,1,0,0:0:0:0:
320,192,75980,1,0,0:0:0:0:
192,192,76099,1,0,0:0:0:0:
448,192,76218,128,0,76456:0:0:0:0:
64,192,76456,128,0,76694:0:0:0:0:
448,192,76694,128,0,76932:0:0:0:0:
320,192,76694,1,0,0:0:0:0:
64,192,76932,128,0,77171:0:0:0:0:
192,192,77171,128,0,77409:0:0:0:0:
320,192,77409,128,0,77647:0:0:0:0:
64,192,77647,1,0,0:0:0:0:
192,192,77647,128,0,77885:0:0:0:0:
448,192,77885,1,0,0:0:0:0:
320,192,77885,128,0,78123:0:0:0:0:
192,192,78123,1,0,0:0:0:0:
448,192,78123,1,0,0:0:0:0:
64,192,78123,128,0,78361:0:0:0:0:
320,192,78361,1,0,0:0:0:0:
192,192,78480,1,0,0:0:0:0:
64,192,78599,1,0,0:0:0:0:
448,192,78599,128,0,78837:0:0:0:0:
320,192,78837,1,0,0:0:0:0:
448,192,79075,1,0,0:0:0:0:
192,192,79075,128,0,79313:0:0:0:0:
320,192,79313,1,0,0:0:0:0:
192,192,79552,1,0,0:0:0:0:
64,192,79552,128,0,79790:0:0:0:0:
320,192,79790,128,0,80028:0:0:0:0:
448,192,80028,1,0,0:0:0:0:
64,192,80028,128,0,80266:0:0:0:0:
192,192,80266,1,0,0:0:0:0:
320,192,80266,1,0,0:0:0:0:
64,192,80504,1,0,0:0:0:0:
448,192,80504,128,0,80742:0:0:0:0:
192,192,80742,128,0,80980:0:0:0:0:
320,192,80980,1,0,0:0:0:0:
448,192,80980,128,0,81218:0:0:0:0:
64,192,81218,1,0,0:0:0:0:
192,192,81456,1,0,0:0:0:0:
320,192,81456,128,0,81694:0:0:0:0:
448,192,81694,1,0,0:0:0:0:
320,192,81932,1,0,0:0:0:0:
64,192,81932,128,0,82171:0:0:0:0:
192,192,82052,1,0,0:0:0:0:
448,192,82171,1,0,0:0:0:0:
320,192,82290,1,0,0:0:0:0:
64,192,82409,1,0,0:0:0:0:
192,192,82409,128,0,82647:0:0:0:0:
448,192,82647,1,0,0:0:0:0:
64,192,82766,1,0,0:0:0:0:
320,192,82885,128,0,83123:0:0:0:0:
192,192,82885,1,0,0:0:0:0:
64,192,83123,1,0,0:0:0:0:
192,192,83361,1,0,0:0:0:0:
448,192,83361,128,0,83599:0:0:0:0:
320,192,83599,128,0,83837:0:0:0:0:
64,192,83837,1,0,0:0:0:0:
192,192,83837,128,0,85742:0:0:0:0:
320,192,84075,1,0,0:0:0:0:
448,192,84313,1,0,0:0:0:0:
64,192,84313,1,0,0:0:0:0:
320,192,84552,1,0,0:0:0:0:
64,192,84790,1,0,0:0:0:0:
320,192,85028,1,0,0:0:0:0:
448,192,85266,1,0,0:0:0:0:
64,192,85266,1,0,0:0:0:0:
320,192,85504,1,0,0:0:0:0:
64,192,85742,1,0,0:0:0:0:
448,192,85742,128,0,85980:0:0:0:0:
192,192,85980,128,0,86218:0:0:0:0:
64,192,86218,1,0,0:0:0:0:
448,192,86218,128,0,86456:0:0:0:0:
192,192,86456,128,0,86694:0:0:0:0:
448,192,86694,1,0,0:0:0:0:
320,192,86694,128,0,86932:0:0:0:0:
64,192,86932,128,0,87171:0:0:0:0:
448,192,87171,1,0,0:0:0:0:
320,192,87171,128,0,87409:0:0:0:0:
64,192,87409,128,0,87647:0:0:0:0:
320,192,87647,1,0,0:0:0:0:
192,192,87647,128,0,87885:0:0:0:0:
448,192,87885,128,0,88123:0:0:0:0:
64,192,88123,1,0,0:0:0:0:
192,192,88123,128,0,88361:0:0:0:0:
448,192,88361,128,0,88599:0:0:0:0:
64,192,88599,1,0,0:0:0:0:
320,192,88599,128,0,88837:0:0:0:0:
192,192,88837,1,0,0:0:0:0:
448,192,89075,1,0,0:0:0:0:
64,192,89075,1,0,0:0:0:0:
320,192,89313,1,0,0:0:0:0:
192,192,89552,1,0,0:0:0:0:
64,192,89552,128,0,89790:0:0:0:0:
448,192,89790,1,0,0:0:0:0:
320,192,90028,1,0,0:0:0:0:
64,192,90028,128,0,90266:0:0:0:0:
192,192,90266,1,0,0:0:0:0:
320,192,90504,1,0,0:0:0:0:
448,192,90504,128,0,90742:0:0:0:0:
64,192,90742,1,0,0:0:0:0:
192,192,90980,1,0,0:0:0:0:
448,192,90980,128,0,91218:0:0:0:0:
320,192,91218,1,0,0:0:0:0:
64,192,91456,1,0,0:0:0:0:
448,192,91456,1,0,0:0:0:0:
192,192,91615,1,0,0:0:0:0:
320,192,91694,1,0,0:0:0:0:
64,192,91853,1,0,0:0:0:0:
192,192,91932,1,0,0:0:0:0:
320,192,92171,1,0,0:0:0:0:
448,192,92171,1,0,0:0:0:0:
192,192,92329,1,0,0:0:0:0:
64,192,92409,1,0,0:0:0:0:
320,192,92567,1,0,0:0:0:0:
192,192,92647,1,0,0:0:0:0:
448,192,92806,1,0,0:0:0:0:
320,192,92885,1,0,0:0:0:0:
64,192,93044,1,0,0:0:0:0:
192,192,93123,1,0,0:0:0:0:
448,192,93282,1,0,0:0:0:0:
320,192,93361,1,0,0:0:0:0:
64,192,93361,1,0,0:0:0:0:
192,192,93599,1,0,0:0:0:0:
64,192,93837,1,0,0:0:0:0:
448,192,93837,1,0,0:0:0:0:
192,192,93956,1,0,0:0:0:0:
192,192,94194,1,0,0:0:0:0:
448,192,94432,1,0,0:0:0:0:
192,192,94552,1,0,0:0:0:0:
64,192,94790,1,0,0:0:0:0:
448,192,94790,1,0,0:0:0:0:
192,192,94909,1,0,0:0:0:0:
320,192,95028,1,0,0:0:0:0:
192,192,95147,1,0,0:0:0:0:
448,192,95266,1,0,0:0:0:0:
64,192,95266,1,0,0:0:0:0:
320,192,95504,1,0,0:0:0:0:
448,192,95742,1,0,0:0:0:0:
64,192,95742,1,0,0:0:0:0:
320,192,95861,1,0,0:0:0:0:
320,192,96099,1,0,0:0:0:0:
64,192,96337,1,0,0:0:0:0:
320,192,96456,1,0,0:0:0:0:
448,192,96694,1,0,0:0:0:0:
192,192,96694,1,0,0:0:0:0:
64,192,96813,1,0,0:0:0:0:
320,192,96932,1,0,0:0:0:0:
192,192,97052,1,0,0:0:0:0:
64,192,97171,1,0,0:0:0:0:
320,192,97171,1,0,0:0:0:0:
448,192,97409,1,0,0:0:0:0:
64,192,97647,1,0,0:0:0:0:
192,192,97647,1,0,0:0:0:0:
448,192,97766,1,0,0:0:0:0:
320,192,98004,1,0,0:0:0:0:
64,192,98242,1,0,0:0:0:0:
320,192,98361,1,0,0:0:0:0:
64,192,98599,1,0,0:0:0:0:
448,192,98599,1,0,0:0:0:0:
192,192,98718,1,0,0:0:0:0:
320,192,98837,1,0,0:0:0:0:
448,192,99075,1,0,0:0:0:0:
64,192,99075,1,0,0:0:0:0:
192,192,99313,1,0,0:0:0:0:
448,192,99552,1,0,0:0:0:0:
64,192,99552,1,0,0:0:0:0:
192,192,99671,1,0,0:0:0:0:
448,192,99909,1,0,0:0:0:0:
192,192,100147,1,0,0:0:0:0:
320,192,100266,1,0,0:0:0:0:
448,192,100504,1,0,0:0:0:0:
64,192,100504,1,0,0:0:0:0:
320,192,100623,1,0,0:0:0:0:
192,192,100742,1,0,0:0:0:0:
64,192,100980,1,0,0:0:0:0:
448,192,100980,1,0,0:0:0:0:
192,192,101218,1,0,0:0:0:0:
320,192,101337,1,0,0:0:0:0:
64,192,101456,1,0,0:0:0:0:
448,192,101456,1,0,0:0:0:0:
192,192,101575,1,0,0:0:0:0:
320,192,101694,1,0,0:0:0:0:
192,192,101932,1,0,0:0:0:0:
448,192,102171,1,0,0:0:0:0:
320,192,102290,1,0,0:0:0:0:
64,192,102409,1,0,0:0:0:0:
448,192,102409,1,0,0:0:0:0:
192,192,102528,1,0,0:0:0:0:
64,192,102647,1,0,0:0:0:0:
320,192,102885,1,0,0:0:0:0:
448,192,102885,1,0,0:0:0:0:
192,192,103123,1,0,0:0:0:0:
448,192,103361,1,0,0:0:0:0:
64,192,103361,1,0,0:0:0:0:
320,192,103599,1,0,0:0:0:0:
64,192,103837,1,0,0:0:0:0:
192,192,103837,128,0,104075:0:0:0:0:
448,192,104075,128,0,104313:0:0:0:0:
64,192,104313,1,0,0:0:0:0:
192,192,104313,128,0,104552:0:0:0:0:
320,192,104552,128,0,104790:0:0:0:0:
448,192,104790,1,0,0:0:0:0:
64,192,104790,128,0,105028:0:0:0:0:
320,192,105028,1,0,0:0:0:0:
64,192,105266,1,0,0:0:0:0:
192,192,105266,128,0,105504:0:0:0:0:
320,192,105504,1,0,0:0:0:0:
448,192,105742,128,0,105980:0:0:0:0:
64,192,105742,1,0,0:0:0:0:
320,192,105980,128,0,106218:0:0:0:0:
64,192,106218,1,0,0:0:0:0:
192,192,106218,128,0,106456:0:0:0:0:
448,192,106456,128,0,106694:0:0:0:0:
320,192,106694,1,0,0:0:0:0:
192,192,106694,1,0,0:0:0:0:
64,192,106694,1,0,0:0:0:0:
64,192,106932,1,0,0:0:0:0:
320,192,106932,1,0,0:0:0:0:
448,192,107171,1,0,0:0:0:0:
192,192,107171,1,0,0:0:0:0:
448,192,107409,1,0,0:0:0:0:
192,192,107409,1,0,0:0:0:0:
64,192,107647,1,0,0:0:0:0:
320,192,107647,1,0,0:0:0:0:
320,192,107885,1,0,0:0:0:0:
448,192,107885,1,0,0:0:0:0:
192,192,108123,1,0,0:0:0:0:
448,192,108123,1,0,0:0:0:0:
320,192,108361,1,0,0:0:0:0:
64,192,108361,1,0,0:0:0:0:
448,192,108599,1,0,0:0:0:0:
192,192,108599,1,0,0:0:0:0:
64,192,108599,1,0,0:0:0:0:
320,192,108837,1,0,0:0:0:0:
192,192,108956,1,0,0:0:0:0:
64,192,109075,1,0,0:0:0:0:
448,192,109075,1,0,0:0:0:0:
320,192,109194,1,0,0:0:0:0:
192,192,109313,1,0,0:0:0:0:
320,192,109432,1,0,0:0:0:0:
448,192,109552,128,0,109790:0:0:0:0:
64,192,109552,1,0,0:0:0:0:
192,192,109790,128,0,110028:0:0:0:0:
64,192,110028,1,0,0:0:0:0:
448,192,110028,128,0,110266:0:0:0:0:
192,192,110266,128,0,110504:0:0:0:0:
448,192,110504,1,0,0:0:0:0:
320,192,110504,128,0,110742:0:0:0:0:
64,192,110742,128,0,110980:0:0:0:0:
448,192,110980,1,0,0:0:0:0:
192,192,110980,1,0,0:0:0:0:
320,192,111099,1,0,0:0:0:0:
192,192,111218,1,0,0:0:0:0:
320,192,111337,1,0,0:0:0:0:
448,192,111456,1,0,0:0:0:0:
64,192,111456,128,0,111694:0:0:0:0:
320,192,111694,128,0,111932:0:0:0:0:
64,192,111932,1,0,0:0:0:0:
192,192,111932,128,0,112171:0:0:0:0:
448,192,112171,128,0,112409:0:0:0:0:
64,192,112409,1,0,0:0:0:0:
320,192,112409,1,0,0:0:0:0:
448,192,112567,1,0,0:0:0:0:
192,192,112647,1,0,0:0:0:0:
320,192,112806,1,0,0:0:0:0:
64,192,112885,1,0,0:0:0:0:
192,192,113044,1,0,0:0:0:0:
448,192,113123,1,0,0:0:0:0:
64,192,113282,1,0,0:0:0:0:
320,192,113361,1,0,0:0:0:0:
192,192,113520,1,0,0:0:0:0:
448,192,113599,1,0,0:0:0:0:
320,192,113758,1,0,0:0:0:0:
192,192,113837,1,0,0:0:0:0:
64,192,113996,1,0,0:0:0:0:
448,192,114075,1,0,0:0:0:0:
192,192,114234,1,0,0:0:0:0:
320,192,114313,128,0,114552:0:0:0:0:
64,192,114552,128,0,114790:0:0:0:0:
320,192,114790,1,0,0:0:0:0:
448,192,114790,128,0,115028:0:0:0:0:
192,192,115028,128,0,115266:0:0:0:0:
320,192,115266,1,0,0:0:0:0:
64,192,115266,128,0,115504:0:0:0:0:
448,192,115504,128,0,115742:0:0:0:0:
64,192,115742,1,0,0:0:0:0:
320,192,115742,128,0,115980:0:0:0:0:
192,192,115980,128,0,116218:0:0:0:0:
64,192,116218,1,0,0:0:0:0:
448,192,116218,128,0,116456:0:0:0:0:
320,192,116456,1,0,0:0:0:0:
192,192,116575,1,0,0:0:0:0:
64,192,116694,1,0,0:0:0:0:
448,192,116694,1,0,0:0:0:0:
320,192,116813,1,0,0:0:0:0:
192,192,116932,1,0,0:0:0:0:
320,192,117052,1,0,0:0:0:0:
448,192,117171,1,0,0:0:0:0:
64,192,117171,128,0,117409:0:0:0:0:
320,192,117409,128,0,117647:0:0:0:0:
64,192,117647,1,0,0:0:0:0:
192,192,117647,128,0,117885:0:0:0:0:
448,192,117885,128,0,118123:0:0:0:0:
192,192,118123,1,0,0:0:0:0:
64,192,118123,128,0,118361:0:0:0:0:
320,192,118361,128,0,118599:0:0:0:0:
64,192,118599,1,0,0:0:0:0:
448,192,118599,1,0,0:0:0:0:
192,192,118718,1,0,0:0:0:0:
320,192,118837,1,0,0:0:0:0:
64,192,119075,1,0,0:0:0:0:
192,192,119075,128,0,119313:0:0:0:0:
448,192,119313,128,0,119552:0:0:0:0:
64,192,119552,1,0,0:0:0:0:
192,192,119552,128,0,119790:0:0:0:0:
448,192,119790,1,0,0:0:0:0:
320,192,119790,128,0,120028:0:0:0:0:
192,192,120028,1,0,0:0:0:0:
64,192,120028,1,0,0:0:0:0:
448,192,120266,1,0,0:0:0:0:
320,192,120504,1,0,0:0:0:0:
192,192,120504,1,0,0:0:0:0:
64,192,120742,1,0,0:0:0:0:
320,192,120980,1,0,0:0:0:0:
448,192,120980,1,0,0:0:0:0:
192,192,121218,1,0,0:0:0:0:
448,192,121456,1,0,0:0:0:0:
64,192,121456,1,0,0:0:0:0:
320,192,121694,1,0,0:0:0:0:
64,192,121932,1,0,0:0:0:0:
448,192,121932,1,0,0:0:0:0:
192,192,122091,1,0,0:0:0:0:
320,192,122171,1,0,0:0:0:0:
64,192,122329,1,0,0:0:0:0:
192,192,122409,1,0,0:0:0:0:
448,192,122647,1,0,0:0:0:0:
320,192,122647,1,0,0:0:0:0:
192,192,122806,1,0,0:0:0:0:
64,192,122885,1,0,0:0:0:0:
320,192,123044,1,0,0:0:0:0:
192,192,123123,1,0,0:0:0:0:
448,192,123282,1,0,0:0:0:0:
320,192,123361,1,0,0:0:0:0:
64,192,123520,1,0,0:0:0:0:
192,192,123599,1,0,0:0:0:0:
448,192,123758,1,0,0:0:0:0:
64,192,123837,1,0,0:0:0:0:
320,192,123837,1,0,0:0:0:0:
192,192,124075,1,0,0:0:0:0:
64,192,124313,1,0,0:0:0:0:
448,192,124313,1,0,0:0:0:0:
192,192,124432,1,0,0:0:0:0:
448,192,124552,1,0,0:0:0:0:
192,192,124671,1,0,0:0:0:0:
448,192,124790,1,0,0:0:0:0:
320,192,124909,1,0,0:0:0:0:
192,192,125028,1,0,0:0:0:0:
448,192,125266,1,0,0:0:0:0:
64,192,125266,1,0,0:0:0:0:
192,192,125385,1,0,0:0:0:0:
320,192,125504,1,0,0:0:0:0:
192,192,125623,1,0,0:0:0:0:
448,192,125742,1,0,0:0:0:0:
64,192,125980,1,0,0:0:0:0:
320,192,126218,1,0,0:0:0:0:
448,192,126218,1,0,0:0:0:0:
64,192,126337,1,0,0:0:0:0:
320,192,126456,1,0,0:0:0:0:
64,192,126575,1,0,0:0:0:0:
192,192,126694,1,0,0:0:0:0:
320,192,126813,1,0,0:0:0:0:
64,192,126932,1,0,0:0:0:0:
320,192,127171,1,0,0:0:0:0:
448,192,127171,1,0,0:0:0:0:
192,192,127290,1,0,0:0:0:0:
320,192,127409,1,0,0:0:0:0:
64,192,127528,1,0,0:0:0:0:
192,192,127647,1,0,0:0:0:0:
448,192,127885,1,0,0:0:0:0:
64,192,128123,1,0,0:0:0:0:
192,192,128123,1,0,0:0:0:0:
448,192,128242,1,0,0:0:0:0:
192,192,128361,1,0,0:0:0:0:
448,192,128480,1,0,0:0:0:0:
320,192,128599,1,0,0:0:0:0:
192,192,128718,1,0,0:0:0:0:
448,192,128837,1,0,0:0:0:0:
64,192,129075,1,0,0:0:0:0:
192,192,129075,1,0,0:0:0:0:
448,192,129194,1,0,0:0:0:0:
320,192,129313,1,0,0:0:0:0:
192,192,129552,1,0,0:0:0:0:
320,192,129790,1,0,0:0:0:0:
64,192,130028,1,0,0:0:0:0:
448,192,130028,1,0,0:0:0:0:
320,192,130147,1,0,0:0:0:0:
64,192,130266,1,0,0:0:0:0:
320,192,130385,1,0,0:0:0:0:
64,192,130504,1,0,0:0:0:0:
192,192,130623,1,0,0:0:0:0:
320,192,130742,1,0,0:0:0:0:
64,192,130980,1,0,0:0:0:0:
448,192,130980,1,0,0:0:0:0:
320,192,131099,1,0,0:0:0:0:
192,192,131218,1,0,0:0:0:0:
320,192,131337,1,0,0:0:0:0:
64,192,131456,1,0,0:0:0:0:
448,192,131456,1,0,0:0:0:0:
192,192,131694,1,0,0:0:0:0:
320,192,131932,1,0,0:0:0:0:
448,192,131932,1,0,0:0:0:0:
192,192,132052,1,0,0:0:0:0:
192,192,132290,1,0,0:0:0:0:
320,192,132528,1,0,0:0:0:0:
192,192,132647,1,0,0:0:0:0:
64,192,132885,1,0,0:0:0:0:
448,192,132885,1,0,0:0:0:0:
192,192,133004,1,0,0:0:0:0:
320,192,133123,1,0,0:0:0:0:
192,192,133242,1,0,0:0:0:0:
448,192,133361,1,0,0:0:0:0:
320,192,133599,1,0,0:0:0:0:
192,192,133837,1,0,0:0:0:0:
64,192,133837,1,0,0:0:0:0:
320,192,133956,1,0,0:0:0:0:
320,192,134194,1,0,0:0:0:0:
192,192,134432,1,0,0:0:0:0:
320,192,134552,1,0,0:0:0:0:
448,192,134790,1,0,0:0:0:0:
64,192,134790,1,0,0:0:0:0:
320,192,134909,1,0,0:0:0:0:
192,192,135028,1,0,0:0:0:0:
64,192,135266,128,0,137171:0:0:0:0:
448,192,135504,1,0,0:0:0:0:
320,192,135742,1,0,0:0:0:0:
192,192,135742,1,0,0:0:0:0:
448,192,135980,1,0,0:0:0:0:
320,192,136218,1,0,0:0:0:0:
192,192,136456,1,0,0:0:0:0:
448,192,136694,1,0,0:0:0:0:
320,192,136694,1,0,0:0:0:0:
192,192,136932,1,0,0:0:0:0:
320,192,137171,1,0,0:0:0:0:
448,192,137171,1,0,0:0:0:0:
64,192,137409,1,0,0:0:0:0:
192,192,137409,1,0,0:0:0:0:
320,192,137647,1,0,0:0:0:0:
448,192,137647,1,0,0:0:0:0:
64,192,137885,5,0,0:0:0:0:
192,192,137885,1,0,0:0:0:0:
448,192,138123,1,0,0:0:0:0:
320,192,138361,1,0,0:0:0:0:
64,192,138361,1,0,0:0:0:0:
192,192,138599,1,0,0:0:0:0:
448,192,138718,1,0,0:0:0:0:
192,192,138837,1,0,0:0:0:0:
64,192,138837,1,0,0:0:0:0:
448,192,139036,5,0,0:0:0:0:
320,192,139075,128,0,144790:0:0:0:0:
