osu file format v14

[General]
AudioFilename: audio.mp3
AudioLeadIn: 0
PreviewTime: 47647
Countdown: 0
SampleSet: Soft
StackLeniency: 0.2
Mode: 0
LetterboxInBreaks: 0
WidescreenStoryboard: 1

[Editor]
Bookmarks: 9552,32409,47647,62885,78123,93361,100980,108599,123837,139075
DistanceSpacing: 0.6
BeatDivisor: 4
GridSize: 4
TimelineZoom: 2.5

[Metadata]
Title:Paradise
TitleUnicode:Paradise
Artist:Sound Souler
ArtistUnicode:Sound Souler
Creator:DeviousPanda
Version:Ultra
Source:Arcaea
Tags:
BeatmapID:1846504
BeatmapSetID:883312

[Difficulty]
HPDrainRate:5
CircleSize:2.5
OverallDifficulty:9
ApproachRate:9.3
SliderMultiplier:3.59999990463257
SliderTickRate:4

[Events]
//Background and Video events
0,0,"55064306_p0.jpg",0,0
//Break Periods
2,93599,100028
//Storyboard Layer 0 (Background)
//Storyboard Layer 1 (Fail)
//Storyboard Layer 2 (Pass)
//Storyboard Layer 3 (Foreground)
//Storyboard Sound Samples

[TimingPoints]
1933,476.190476190476,4,2,1,60,1,0
9552,-25,4,2,1,60,0,0
17171,-25,4,2,1,80,0,0
47647,-25,4,2,1,95,0,1
62885,-25,4,2,1,85,0,0
78123,-25,4,2,1,70,0,0
100742,-25,4,2,1,60,0,0
108599,-25,4,2,1,85,0,0
123837,-25,4,2,1,45,0,0
131456,-25,4,2,1,25,0,0
139075,-25,4,2,1,20,0,0

[Colours]
Combo1 : 168,255,168
Combo2 : 187,0,0
Combo3 : 255,128,128
Combo4 : 172,17,185
Combo5 : 217,165,237
Combo6 : 0,183,183
Combo7 : 158,244,254
Combo8 : 0,128,0

[HitObjects]
67,384,9552,5,0,0:0:0:0:
300,338,9790,1,0,0:0:0:0:
119,256,10028,5,8,0:0:0:0:
211,269,10147,1,0,0:0:0:0:
21,235,10385,5,0,0:0:0:0:
314,156,10623,101,0,0:0:0:0:
179,175,10742,1,0,0:0:0:0:
209,306,10980,21,8,0:0:0:0:
210,292,11099,1,0,0:0:0:0:
211,281,11218,1,0,0:0:0:0:
211,269,11337,1,0,0:0:0:0:
314,156,11456,69,0,0:0:0:0:
0,88,11694,1,0,0:0:0:0:
252,42,11932,5,8,0:0:0:0:
118,58,12052,1,0,0:0:0:0:
378,21,12290,5,0,0:0:0:0:
200,215,12528,101,0,0:0:0:0:
386,250,12647,1,0,0:0:0:0:
470,79,12885,21,8,0:0:0:0:
472,96,13004,1,0,0:0:0:0:
474,111,13123,1,0,0:0:0:0:
476,128,13242,1,0,0:0:0:0:
386,250,13361,69,0,0:0:0:0:
30,178,13599,1,0,0:0:0:0:
249,293,13837,5,8,0:0:0:0:
113,309,13956,1,0,0:0:0:0:
242,126,14194,5,0,0:0:0:0:
191,367,14432,101,0,0:0:0:0:
290,379,14551,1,0,0:0:0:0:
38,369,14790,21,10,0:0:0:0:
16,371,14909,1,0,0:0:0:0:
0,373,15028,1,0,0:0:0:0:
178,227,15266,69,0,0:0:0:0:
491,287,15504,1,0,0:0:0:0:
439,141,15742,5,8,0:0:0:0:
266,164,15861,1,0,0:0:0:0:
403,0,16099,5,0,0:0:0:0:
403,0,16337,1,0,0:0:0:0:
403,0,16575,1,0,0:0:0:0:
367,211,16813,101,0,0:0:0:0:
492,228,16932,1,0,0:0:0:0:
0,159,17171,5,4,0:3:0:0:
104,139,17409,101,2,0:0:0:0:
110,121,17528,1,2,0:0:0:0:
0,159,17647,1,4,0:3:0:0:
169,218,17885,101,2,0:0:0:0:
175,236,18004,1,2,0:0:0:0:
0,159,18123,1,4,0:3:0:0:
201,82,18361,5,2,0:0:0:0:
208,54,18480,1,2,0:0:0:0:
268,263,18599,101,4,0:3:0:0:
275,290,18718,1,2,0:0:0:0:
99,170,18837,37,2,0:3:0:0:
512,111,19075,101,4,0:3:0:0:
431,176,19313,101,2,0:0:0:0:
410,171,19432,1,2,0:0:0:0:
512,111,19552,1,4,0:3:0:0:
387,36,19790,101,2,0:0:0:0:
366,41,19909,1,2,0:0:0:0:
512,111,20029,1,4,0:3:0:0:
180,130,20266,37,2,0:0:0:0:
434,302,20504,101,4,0:3:0:0:
274,281,20742,5,2,0:0:0:0:
479,384,20980,101,4,0:3:0:0:
434,302,21218,101,2,0:0:0:0:
441,284,21337,1,2,0:0:0:0:
479,384,21456,1,4,0:3:0:0:
512,226,21694,101,2,0:0:0:0:
505,208,21813,1,2,0:0:0:0:
479,384,21932,1,4,0:3:0:0:
441,90,22171,21,2,0:0:0:0:
274,281,22409,5,4,0:3:0:0:
306,145,22647,101,2,0:0:0:0:
166,194,22885,5,4,0:3:0:0:
377,231,23123,85,2,0:0:0:0:
157,201,23242,1,2,0:0:0:0:
316,317,23480,101,2,0:0:0:0:
188,335,23599,1,2,0:0:0:0:
235,86,23837,5,4,0:3:0:0:
266,224,23956,1,2,0:0:0:0:
223,75,24075,1,2,0:0:0:0:
290,384,24313,5,4,0:3:0:0:
364,12,24552,5,2,0:0:0:0:
182,341,24790,69,4,0:3:0:0:
488,300,25028,1,2,0:0:0:0:
257,245,25266,5,4,0:3:0:0:
380,265,25385,1,2,0:0:0:0:
352,145,25623,101,2,0:0:0:0:
301,152,25742,1,4,0:3:0:0:
182,341,25980,5,2,0:0:0:0:
176,317,26099,1,2,0:0:0:0:
33,206,26218,101,4,0:3:0:0:
39,182,26337,1,2,0:0:0:0:
128,79,26456,37,2,0:3:0:0:
73,384,26694,101,4,0:3:0:0:
7,305,26932,101,2,0:0:0:0:
12,285,27052,1,2,0:0:0:0:
73,384,27171,1,4,0:3:0:0:
157,239,27409,101,2,0:0:0:0:
152,219,27529,1,2,0:0:0:0:
73,384,27647,1,4,0:3:0:0:
365,281,27885,37,0,0:0:0:0:
89,106,28123,101,4,0:3:0:0:
263,142,28361,5,0,0:0:0:0:
148,0,28599,101,4,0:3:0:0:
194,323,28837,1,0,0:0:0:0:
196,73,29075,85,4,0:3:0:0:
147,252,29194,1,2,0:0:0:0:
326,207,29432,5,2,0:0:0:0:
310,201,29552,1,4,0:3:0:0:
198,337,29790,101,2,0:0:0:0:
149,158,29909,1,2,0:0:0:0:
76,275,30147,5,2,0:0:0:0:
92,271,30266,1,2,0:0:0:0:
337,375,30504,101,4,0:3:0:0:
202,350,30623,1,2,0:0:0:0:
387,288,30861,5,2,0:0:0:0:
470,273,30980,1,4,0:3:0:0:
292,200,31218,101,2,0:0:0:0:
326,207,31337,1,2,0:0:0:0:
407,140,31575,5,2,0:0:0:0:
390,142,31694,1,2,0:0:0:0:
171,23,31932,21,4,0:3:0:0:
170,42,32052,1,2,0:0:0:0:
168,62,32171,1,2,0:0:0:0:
167,80,32290,1,2,0:0:0:0:
255,221,32409,101,4,0:3:0:0:
93,248,32647,101,2,0:0:0:0:
255,221,32766,1,2,0:0:0:0:
170,288,32885,101,8,0:0:0:0:
196,284,33004,1,2,0:0:0:0:
159,165,33123,5,2,0:0:0:0:
425,239,33361,5,4,0:3:0:0:
12,171,33599,1,0,0:0:0:0:
512,125,33837,5,8,0:0:0:0:
93,248,34075,1,0,0:0:0:0:
265,0,34313,101,4,0:3:0:0:
302,294,34552,101,2,0:0:0:0:
327,150,34671,1,2,0:0:0:0:
386,239,34790,101,8,0:0:0:0:
389,221,34909,1,2,0:0:0:0:
206,322,35028,5,2,0:0:0:0:
225,208,35147,1,2,0:0:0:0:
245,95,35266,1,4,0:3:0:0:
424,332,35504,21,0,0:0:0:0:
63,191,35742,1,8,0:0:0:0:
441,130,35980,1,0,0:0:0:0:
287,217,36218,101,4,0:3:0:0:
118,108,36456,101,2,0:0:0:0:
142,258,36575,1,2,0:0:0:0:
62,179,36694,101,8,0:0:0:0:
65,201,36813,1,2,0:0:0:0:
209,169,36932,5,2,0:0:0:0:
119,27,37171,5,4,0:3:0:0:
30,293,37409,1,0,0:0:0:0:
233,0,37647,5,8,0:0:0:0:
302,340,37885,1,0,0:0:0:0:
164,166,38123,101,4,0:3:0:0:
381,262,38361,101,2,0:0:0:0:
386,282,38480,1,2,0:0:0:0:
401,176,38599,101,8,0:0:0:0:
302,340,38718,5,2,0:0:0:0:
486,311,38837,1,2,0:0:0:0:
295,356,38956,101,2,0:0:0:0:
497,324,39075,1,4,0:3:0:0:
282,78,39313,5,2,0:0:0:0:
277,99,39432,1,2,0:0:0:0:
397,158,39552,101,8,0:0:0:0:
401,176,39671,1,2,0:0:0:0:
207,213,39790,5,2,0:0:0:0:
201,233,39909,1,2,0:0:0:0:
323,370,40028,5,4,0:3:0:0:
123,113,40266,101,2,0:0:0:0:
277,99,40385,1,2,0:0:0:0:
204,166,40504,101,8,0:0:0:0:
73,38,40623,5,2,0:0:0:0:
199,28,40742,1,2,0:0:0:0:
322,19,40861,1,2,0:0:0:0:
207,180,40980,5,4,0:3:0:0:
134,384,41218,1,0,0:0:0:0:
417,317,41456,5,8,0:0:0:0:
322,19,41694,1,0,0:0:0:0:
101,194,41932,101,4,0:3:0:0:
215,301,42171,101,2,0:0:0:0:
36,269,42290,1,2,0:0:0:0:
159,114,42528,21,2,0:0:0:0:
85,384,42766,69,2,0:0:0:0:
357,330,42885,1,4,0:3:0:0:
254,34,43123,21,0,0:0:0:0:
254,34,43361,1,8,0:0:0:0:
254,34,43599,1,0,0:0:0:0:
215,301,43837,5,4,0:3:0:0:
442,202,44075,69,2,0:0:0:0:
423,188,44194,1,2,0:0:0:0:
392,182,44313,1,8,0:0:0:0:
347,195,44432,1,2,0:0:0:0:
314,233,44552,1,2,0:0:0:0:
278,276,44671,1,2,0:0:0:0:
215,301,44790,1,4,0:3:0:0:
136,297,44909,1,2,0:0:0:0:
73,240,45028,1,2,0:0:0:0:
80,153,45147,1,2,0:0:0:0:
156,99,45266,5,8,0:0:0:0:
251,115,45385,101,2,0:0:0:0:
303,193,45504,5,2,0:0:0:0:
396,226,45623,101,2,0:0:0:0:
477,182,45742,21,4,0:3:0:0:
409,66,45980,69,2,0:0:0:0:
412,44,46059,1,2,0:0:0:0:
415,22,46139,1,2,0:0:0:0:
418,0,46218,1,8,0:0:0:0:
295,231,46456,101,2,0:0:0:0:
289,197,46535,1,2,0:0:0:0:
285,163,46615,1,2,0:0:0:0:
280,129,46694,1,4,0:3:0:0:
202,321,46932,53,2,0:0:0:0:
25,137,47171,85,8,0:0:0:0:
157,116,47290,1,2,0:0:0:0:
34,126,47409,5,2,0:0:0:0:
143,111,47528,1,2,0:0:0:0:
80,35,47647,5,6,3:0:0:0:
178,17,47806,37,0,3:0:0:0:
185,0,47885,1,8,3:0:0:0:
254,79,48044,101,0,3:0:0:0:
272,74,48123,1,2,3:0:0:0:
273,185,48282,5,0,3:0:0:0:
256,178,48361,1,8,3:0:0:0:
257,289,48520,101,0,3:0:0:0:
275,284,48599,1,2,3:0:0:0:
344,363,48758,5,0,3:0:0:0:
351,346,48837,1,8,3:0:0:0:
456,343,48996,101,0,3:0:0:0:
448,327,49075,1,2,3:0:0:0:
495,240,49234,5,0,3:0:0:0:
512,244,49313,1,8,3:0:0:0:
458,147,49472,101,0,3:3:0:0:
495,240,49552,5,2,3:0:0:0:
448,327,49671,37,0,3:0:0:0:
351,346,49790,5,8,3:0:0:0:
275,284,49909,101,0,3:0:0:0:
273,185,50028,5,2,3:0:0:0:
254,79,50147,101,0,3:0:0:0:
178,17,50266,5,8,3:0:0:0:
80,35,50385,101,0,3:0:0:0:
30,121,50504,5,2,3:0:0:0:
152,103,50623,1,0,3:0:0:0:
15,140,50742,101,8,3:0:0:0:
172,111,50861,1,0,3:0:0:0:
155,304,50980,5,2,3:0:0:0:
338,334,51099,1,0,3:0:0:0:
141,287,51218,101,8,3:0:0:0:
355,323,51337,1,0,3:0:0:0:
258,376,51456,101,2,3:0:0:0:
239,346,51536,1,2,0:0:0:0:
244,313,51615,1,2,0:0:0:0:
263,289,51694,1,8,3:0:0:0:
244,197,51813,37,0,3:0:0:0:
221,106,51932,53,2,3:0:0:0:
247,71,52012,1,2,0:0:0:0:
240,25,52091,1,2,0:0:0:0:
200,0,52171,1,8,3:0:0:0:
149,3,52250,1,2,0:0:0:0:
118,38,52329,1,2,0:0:0:0:
112,91,52409,5,2,3:0:0:0:
112,109,52488,1,2,0:0:0:0:
114,128,52567,1,2,0:0:0:0:
96,147,52647,101,8,3:0:0:0:
94,174,52726,1,2,0:0:0:0:
93,199,52805,1,2,0:0:0:0:
78,217,52885,21,6,3:0:0:0:
249,257,53004,1,0,3:0:0:0:
93,199,53123,5,8,3:0:0:0:
241,236,53242,1,0,3:0:0:0:
155,326,53361,85,2,3:0:0:0:
178,360,53440,1,2,0:0:0:0:
222,377,53520,1,2,0:0:0:0:
262,376,53599,1,8,3:0:0:0:
308,359,53679,1,2,0:0:0:0:
333,328,53758,1,2,0:0:0:0:
359,310,53837,1,2,3:0:0:0:
398,311,53917,1,2,0:0:0:0:
427,329,53996,1,2,0:0:0:0:
442,359,54075,101,8,3:0:0:0:
439,321,54155,1,2,0:0:0:0:
436,285,54234,1,2,0:0:0:0:
434,249,54313,21,2,3:0:0:0:
258,118,54432,1,0,3:0:0:0:
249,280,54552,101,8,3:0:0:0:
250,262,54631,1,2,0:0:0:0:
251,244,54710,1,2,0:0:0:0:
252,226,54790,1,8,3:0:0:0:
253,208,54869,1,2,0:0:0:0:
254,190,54948,1,2,0:0:0:0:
255,172,55027,1,10,3:0:0:0:
256,154,55107,1,2,0:0:0:0:
257,136,55186,1,2,0:0:0:0:
258,118,55266,37,2,3:0:0:0:
223,28,55425,37,0,3:0:0:0:
212,41,55504,1,8,3:0:0:0:
116,0,55663,101,0,3:0:0:0:
117,17,55742,1,2,3:0:0:0:
39,74,55901,5,0,3:0:0:0:
25,63,55980,1,8,3:0:0:0:
16,173,56139,101,2,3:0:0:0:
33,168,56218,1,0,3:0:0:0:
93,251,56377,5,0,3:0:0:0:
101,234,56456,1,8,3:0:0:0:
204,241,56615,101,0,3:0:0:0:
198,225,56694,1,2,3:0:0:0:
250,146,56853,5,0,3:0:0:0:
267,150,56932,1,8,3:0:0:0:
383,57,57091,101,0,3:0:0:0:
390,73,57171,1,2,3:0:0:0:
407,186,57329,5,0,3:0:0:0:
400,202,57409,1,8,3:0:0:0:
473,0,57568,101,0,3:0:0:0:
466,16,57648,1,2,3:0:0:0:
474,250,57806,5,0,3:0:0:0:
481,266,57886,1,8,3:0:0:0:
481,117,58044,101,0,3:0:0:0:
465,119,58123,1,2,3:0:0:0:
319,135,58282,5,0,3:0:0:0:
303,137,58361,1,8,3:0:0:0:
91,6,58520,101,0,3:0:0:0:
107,8,58599,1,2,3:0:0:0:
373,47,58758,5,0,3:0:0:0:
389,49,58837,1,8,3:0:0:0:
364,206,58996,101,0,3:0:0:0:
368,224,59075,37,2,3:0:0:0:
339,242,59155,1,2,0:0:0:0:
305,244,59234,1,2,0:0:0:0:
273,239,59313,1,8,3:0:0:0:
245,216,59393,1,2,0:0:0:0:
213,186,59472,1,2,0:0:0:0:
158,175,59552,1,2,3:0:0:0:
110,193,59631,1,2,0:0:0:0:
81,231,59710,1,2,0:0:0:0:
74,283,59790,101,8,3:0:0:0:
77,306,59869,1,2,0:0:0:0:
80,327,59948,1,2,0:0:0:0:
82,348,60028,1,2,3:0:0:0:
340,133,60186,101,4,3:0:0:0:
342,114,60266,1,8,3:0:0:0:
298,34,60385,69,8,3:0:0:0:
276,216,60504,85,2,1:0:0:0:
436,201,60623,1,2,1:0:0:0:
264,226,60742,5,2,1:0:0:0:
447,210,60861,1,2,1:0:0:0:
218,115,60980,5,4,1:0:0:0:
348,273,61139,37,0,1:0:0:0:
347,292,61218,1,2,1:0:0:0:
359,128,61377,101,0,1:0:0:0:
358,147,61456,1,2,1:0:0:0:
371,0,61694,85,0,1:0:0:0:
467,64,61853,37,0,1:0:0:0:
484,60,61933,1,2,1:0:0:0:
474,158,62091,101,0,1:0:0:0:
491,178,62171,1,2,1:0:0:0:
411,267,62329,5,0,1:0:0:0:
406,304,62409,1,2,1:0:0:0:
264,288,62567,101,0,1:0:0:0:
229,325,62647,1,2,1:0:0:0:
81,214,62885,85,6,1:0:0:0:
80,214,63123,101,10,0:0:0:0:
267,192,63242,1,2,0:0:0:0:
161,154,63361,101,4,0:3:0:0:
179,152,63480,1,2,0:0:0:0:
35,300,63599,5,8,0:0:0:0:
180,282,63718,1,2,0:0:0:0:
324,267,63837,1,4,0:3:0:0:
75,37,64075,5,8,0:0:0:0:
183,384,64313,1,4,0:3:0:0:
260,32,64552,1,8,0:0:0:0:
0,188,64790,5,4,0:3:0:0:
343,154,65028,1,8,0:0:0:0:
174,115,65266,85,4,0:3:0:0:
151,231,65385,1,2,0:0:0:0:
188,101,65504,101,8,0:0:0:0:
158,249,65623,1,2,0:0:0:0:
85,153,65742,21,4,0:3:0:0:
434,217,65980,1,8,0:0:0:0:
63,163,66218,5,4,0:3:0:0:
449,235,66456,1,8,0:0:0:0:
303,42,66694,101,6,3:0:0:0:
395,17,66853,37,0,3:0:0:0:
400,0,66933,1,8,0:0:0:0:
473,71,67091,101,0,3:0:0:0:
489,64,67171,1,2,3:0:0:0:
481,165,67329,5,0,3:0:0:0:
497,173,67409,1,8,0:0:0:0:
419,250,67567,101,0,3:0:0:0:
414,233,67647,1,2,3:0:0:0:
318,225,67805,5,0,3:0:0:0:
309,240,67885,1,8,0:0:0:0:
211,259,68043,101,0,3:0:0:0:
217,275,68123,1,2,3:0:0:0:
165,362,68282,5,0,3:0:0:0:
149,356,68362,1,8,0:0:0:0:
19,306,68520,101,0,3:0:0:0:
35,312,68600,1,2,3:0:0:0:
121,246,68837,85,8,0:0:0:0:
121,246,69075,1,4,0:3:0:0:
121,246,69313,1,8,0:0:0:0:
193,165,69552,85,4,0:3:0:0:
186,83,69671,1,2,0:0:0:0:
176,0,69790,1,8,0:0:0:0:
166,83,69909,1,2,0:0:0:0:
159,165,70028,1,4,0:3:0:0:
321,116,70266,37,8,0:0:0:0:
40,31,70504,1,4,0:3:0:0:
85,105,70742,85,8,0:0:0:0:
260,54,70861,1,2,0:0:0:0:
166,83,71099,101,2,0:0:0:0:
185,86,71218,1,8,0:0:0:0:
421,115,71456,21,4,0:3:0:0:
512,243,71694,101,8,0:0:0:0:
273,181,71813,1,2,0:0:0:0:
408,215,72051,101,2,0:0:0:0:
378,219,72170,1,8,0:0:0:0:
79,242,72409,21,4,0:3:0:0:
185,86,72647,101,8,0:0:0:0:
228,348,72766,1,2,0:0:0:0:
209,190,73004,101,2,0:0:0:0:
201,238,73123,1,8,0:0:0:0:
509,156,73361,21,4,0:3:0:0:
415,0,73599,101,8,0:0:0:0:
348,312,73718,1,2,0:0:0:0:
359,73,73956,101,2,0:0:0:0:
377,157,74075,1,8,0:0:0:0:
395,241,74194,1,2,0:0:0:0:
294,380,74313,21,4,0:3:0:0:
0,317,74552,1,8,0:0:0:0:
395,241,74790,101,4,0:3:0:0:
178,282,74909,1,2,0:0:0:0:
94,160,75147,101,2,0:0:0:0:
173,177,75266,1,4,0:3:0:0:
254,198,75385,1,2,0:0:0:0:
171,197,75504,1,8,0:0:0:0:
88,196,75623,1,0,0:3:0:0:
10,131,75742,37,4,0:3:0:0:
7,114,75861,1,2,0:0:0:0:
5,99,75980,1,8,0:0:0:0:
2,83,76099,1,2,0:0:0:0:
137,0,76218,101,4,0:3:0:0:
67,289,76456,1,8,0:0:0:0:
439,376,76694,5,4,0:3:0:0:
351,64,76932,1,8,0:0:0:0:
0,384,77171,101,4,0:3:0:0:
512,227,77409,1,8,0:0:0:0:
38,18,77647,1,4,0:3:0:0:
67,289,77885,85,8,0:0:0:0:
81,206,78004,1,2,0:0:0:0:
95,120,78123,1,4,0:3:0:0:
376,237,78361,21,8,0:0:0:0:
319,155,78520,37,2,0:0:0:0:
324,140,78599,1,4,0:3:0:0:
221,150,78837,85,8,0:0:0:0:
152,224,79075,101,4,0:3:0:0:
470,161,79313,1,8,0:0:0:0:
106,142,79552,5,4,0:3:0:0:
512,252,79790,1,8,0:0:0:0:
394,93,80028,101,4,0:3:0:0:
454,162,80186,37,2,0:0:0:0:
470,161,80266,1,8,0:0:0:0:
429,248,80504,69,4,0:3:0:0:
345,288,80742,5,8,0:0:0:0:
263,251,80980,101,4,0:3:0:0:
354,0,81218,1,8,0:0:0:0:
457,327,81456,5,4,0:3:0:0:
404,169,81694,1,8,0:0:0:0:
171,323,81932,101,4,0:3:0:0:
104,267,82091,37,2,0:0:0:0:
87,271,82171,1,8,0:0:0:0:
103,179,82329,101,2,0:0:0:0:
89,169,82409,1,4,0:3:0:0:
169,121,82647,85,8,0:0:0:0:
268,123,82806,37,2,0:0:0:0:
255,135,82886,1,4,0:3:0:0:
312,205,83123,85,8,0:0:0:0:
401,243,83361,101,4,0:3:0:0:
490,223,83599,5,8,0:0:0:0:
512,137,83837,101,4,0:3:0:0:
198,228,84075,1,8,0:0:0:0:
451,211,84313,101,4,0:3:0:0:
266,164,84432,1,2,0:0:0:0:
369,186,84671,101,2,0:0:0:0:
346,193,84790,1,4,0:3:0:0:
25,269,85028,21,8,0:0:0:0:
154,158,85266,101,4,0:3:0:0:
112,355,85385,1,2,0:0:0:0:
136,269,85623,101,2,0:0:0:0:
129,243,85742,1,4,0:3:0:0:
76,35,85980,21,8,0:0:0:0:
29,195,86218,1,4,0:3:0:0:
191,155,86456,1,8,0:0:0:0:
101,127,86694,5,4,0:3:0:0:
422,164,86932,101,8,0:0:0:0:
469,324,87170,1,4,0:3:0:0:
307,284,87408,1,8,0:0:0:0:
397,256,87646,5,4,0:3:0:0:
192,50,87885,101,8,0:0:0:0:
137,321,88123,1,4,0:3:0:0:
397,256,88361,5,8,0:0:0:0:
351,101,88599,1,4,0:3:0:0:
247,193,89075,101,4,0:3:0:0:
247,193,89313,1,8,0:0:0:0:
247,193,89552,1,4,0:3:0:0:
409,37,90028,5,4,0:3:0:0:
240,378,90504,101,4,0:3:0:0:
82,37,90980,5,4,0:3:0:0:
249,140,91456,101,2,1:0:0:0:
340,96,91615,37,0,1:0:0:0:
348,79,91694,1,2,1:0:0:0:
432,137,91853,101,0,1:0:0:0:
450,132,91932,1,2,1:0:0:0:
459,233,92171,85,2,1:0:0:0:
402,316,92330,37,0,1:0:0:0:
403,335,92409,1,2,1:0:0:0:
282,334,92568,101,0,1:0:0:0:
261,352,92647,1,2,1:0:0:0:
146,286,92806,5,0,1:0:0:0:
106,281,92885,1,2,1:0:0:0:
68,158,93044,101,0,1:0:0:0:
36,114,93123,1,2,1:0:0:0:
140,0,93361,85,6,1:0:0:0:
255,188,100742,117,2,0:0:0:0:
255,188,100980,1,4,0:3:0:0:
176,326,101456,5,4,0:3:0:0:
375,118,101932,101,4,0:3:0:0:
99,169,102409,5,4,0:3:0:0:
368,296,102885,101,4,0:3:0:0:
226,50,103361,5,4,0:3:0:0:
176,326,103837,101,4,0:3:0:0:
375,118,104075,1,2,0:0:0:0:
99,169,104313,1,4,0:3:0:0:
368,296,104552,1,2,0:0:0:0:
255,188,104790,5,4,0:3:0:0:
226,50,105028,1,2,0:0:0:0:
166,115,105266,85,4,0:3:0:0:
301,111,105385,1,2,0:0:0:0:
160,130,105504,1,2,0:0:0:0:
416,181,105742,5,4,0:3:0:0:
50,140,105980,1,2,0:0:0:0:
475,102,106218,5,4,0:3:0:0:
0,217,106456,1,2,0:0:0:0:
146,0,106694,101,4,0:3:0:0:
193,384,106932,1,4,0:3:0:0:
350,0,107171,1,4,0:3:0:0:
417,384,107409,1,4,0:3:0:0:
0,384,107647,5,4,0:3:0:0:
512,237,107885,1,4,0:3:0:0:
0,108,108123,1,4,0:3:0:0:
512,0,108361,1,4,0:3:0:0:
256,190,108599,101,6,1:0:0:0:
148,139,108837,101,8,0:0:0:0:
323,88,108956,1,2,0:0:0:0:
210,66,109075,101,4,0:3:0:0:
228,60,109194,1,2,0:0:0:0:
109,233,109313,5,8,0:0:0:0:
256,190,109432,1,2,0:0:0:0:
404,147,109552,1,4,0:3:0:0:
95,33,109790,5,8,0:0:0:0:
289,351,110028,1,4,0:3:0:0:
345,0,110266,1,8,0:0:0:0:
0,182,110504,5,4,0:3:0:0:
512,61,110742,1,8,0:0:0:0:
370,233,110980,85,4,0:3:0:0:
187,203,111099,1,2,0:0:0:0:
385,228,111218,101,8,0:0:0:0:
176,193,111337,1,2,0:0:0:0:
297,113,111456,21,4,0:3:0:0:
348,382,111694,1,8,0:0:0:0:
63,321,111932,5,4,0:3:0:0:
158,0,112171,1,8,0:0:0:0:
414,245,112409,101,2,3:0:0:0:
483,196,112567,37,0,3:0:0:0:
498,202,112647,1,8,0:0:0:0:
489,111,112806,101,0,3:0:0:0:
504,104,112885,1,2,3:0:0:0:
428,51,113043,5,0,3:0:0:0:
432,36,113122,1,8,0:0:0:0:
334,46,113282,101,0,3:0:0:0:
344,60,113361,1,2,3:0:0:0:
277,125,113520,5,0,3:0:0:0:
261,118,113599,1,8,0:0:0:0:
184,167,113758,101,0,3:0:0:0:
178,151,113837,1,2,3:0:0:0:
89,139,113996,5,0,3:0:0:0:
96,124,114075,1,8,0:0:0:0:
67,43,114234,101,0,3:0:0:0:
50,48,114313,1,2,3:0:0:0:
178,27,114552,85,8,0:0:0:0:
178,27,114790,1,4,3:0:0:0:
178,27,115028,1,8,0:0:0:0:
261,118,115266,85,4,0:3:0:0:
256,198,115385,1,2,0:0:0:0:
248,281,115504,1,8,0:0:0:0:
235,199,115623,1,2,0:0:0:0:
227,116,115742,1,4,0:3:0:0:
409,266,115980,37,8,0:0:0:0:
97,199,116218,1,4,0:3:0:0:
320,245,116456,85,8,0:0:0:0:
152,266,116575,1,2,0:0:0:0:
248,147,116813,101,2,0:0:0:0:
215,364,116933,1,8,0:0:0:0:
262,136,117052,5,2,0:0:0:0:
222,380,117171,1,4,0:3:0:0:
77,314,117409,5,8,0:0:0:0:
421,281,117647,1,4,0:3:0:0:
221,0,117885,1,8,0:0:0:0:
255,384,118123,5,4,0:3:0:0:
317,88,118361,1,8,0:0:0:0:
331,343,118599,85,4,0:3:0:0:
256,154,118718,1,2,0:0:0:0:
283,263,118956,101,2,0:0:0:0:
292,242,119075,1,4,0:3:0:0:
474,300,119313,37,8,0:0:0:0:
65,237,119552,1,4,0:3:0:0:
427,118,119790,1,8,0:0:0:0:
199,363,120028,101,4,0:3:0:0:
247,36,120266,1,8,0:0:0:0:
251,293,120504,101,4,0:3:0:0:
194,110,120623,1,2,0:0:0:0:
322,178,120861,101,2,0:0:0:0:
402,173,120980,1,4,0:3:0:0:
485,165,121099,1,2,0:0:0:0:
403,152,121218,1,8,0:0:0:0:
320,144,121337,1,2,0:0:0:0:
247,36,121456,37,4,0:3:0:0:
247,36,121694,1,8,0:0:0:0:
231,384,121932,101,2,1:0:0:0:
127,304,122091,37,0,1:0:0:0:
110,305,122171,1,2,1:0:0:0:
86,207,122329,101,0,1:0:0:0:
74,192,122409,1,2,1:0:0:0:
108,88,122647,85,2,1:0:0:0:
207,28,122806,37,0,1:0:0:0:
226,14,122886,1,2,1:0:0:0:
356,49,123044,101,0,1:0:0:0:
387,54,123124,1,2,1:0:0:0:
426,172,123281,5,0,1:0:0:0:
444,213,123361,1,2,1:0:0:0:
322,334,123519,101,0,1:0:0:0:
294,384,123599,1,2,1:0:0:0:
110,305,123837,85,6,1:0:0:0:
444,213,124075,1,0,0:0:0:0:
229,173,124313,101,4,0:3:0:0:
272,179,124432,1,0,0:0:0:0:
153,98,124671,101,0,0:0:0:0:
137,101,124790,1,4,0:3:0:0:
122,105,124909,1,0,0:0:0:0:
106,109,125028,1,0,0:0:0:0:
194,337,125266,37,4,0:3:0:0:
189,311,125385,1,0,0:0:0:0:
185,285,125504,1,0,0:0:0:0:
181,260,125623,1,0,0:0:0:0:
229,173,125742,101,4,0:3:0:0:
508,257,125980,1,0,0:0:0:0:
414,120,126218,101,4,0:3:0:0:
365,129,126337,1,0,0:0:0:0:
464,40,126575,101,0,0:0:0:0:
480,43,126694,1,4,0:3:0:0:
495,47,126813,1,0,0:0:0:0:
511,51,126932,1,0,0:0:0:0:
111,47,127171,37,4,0:3:0:0:
118,84,127290,1,0,0:0:0:0:
125,118,127409,1,0,0:0:0:0:
131,154,127528,1,0,0:0:0:0:
62,267,127647,101,4,0:3:0:0:
410,162,127885,1,0,0:0:0:0:
195,214,128123,101,4,0:3:0:0:
283,229,128242,1,0,0:0:0:0:
155,317,128480,5,0,0:0:0:0:
260,119,128718,101,0,0:0:0:0:
226,126,128837,1,0,0:0:0:0:
258,17,129075,101,4,0:3:0:0:
275,22,129194,1,0,0:0:0:0:
291,26,129313,1,0,0:0:0:0:
138,36,129552,21,4,0:3:0:0:
48,327,129790,1,0,0:0:0:0:
176,161,130028,101,4,0:3:0:0:
183,211,130147,1,0,0:0:0:0:
35,170,130385,5,0,0:0:0:0:
247,354,130623,101,0,0:0:0:0:
257,286,130742,1,0,0:0:0:0:
461,88,130980,101,4,0:3:0:0:
439,85,131099,1,0,0:0:0:0:
420,83,131218,1,4,0:3:0:0:
400,81,131337,1,0,0:0:0:0:
379,77,131456,21,4,0:0:0:0:
256,139,131694,1,0,0:0:0:0:
349,188,131932,101,8,0:0:0:0:
346,170,132052,1,0,0:0:0:0:
358,279,132290,5,0,0:0:0:0:
298,40,132528,101,0,0:0:0:0:
296,62,132647,1,0,0:0:0:0:
96,239,132885,101,8,0:0:0:0:
112,236,133004,1,0,0:0:0:0:
128,233,133123,1,0,0:0:0:0:
145,232,133242,1,0,0:0:0:0:
160,230,133361,21,0,0:0:0:0:
358,279,133599,1,0,0:0:0:0:
252,296,133837,101,8,0:0:0:0:
227,299,133956,1,0,0:0:0:0:
292,384,134194,5,0,0:0:0:0:
272,195,134432,101,0,0:0:0:0:
297,198,134551,1,0,0:0:0:0:
204,117,134790,101,8,0:0:0:0:
192,119,134909,1,0,0:0:0:0:
181,120,135028,1,0,0:0:0:0:
107,67,135266,21,0,0:0:0:0:
107,67,135742,1,8,0:0:0:0:
107,67,136218,1,0,0:0:0:0:
107,67,136694,1,8,0:0:0:0:
28,205,137171,5,4,0:3:0:0:
269,148,137409,1,4,0:3:0:0:
18,222,137647,101,4,0:3:0:0:
284,158,137885,1,4,0:3:0:0:
171,275,138123,5,8,0:0:0:0:
43,124,138361,85,4,0:3:0:0:
124,98,138480,1,4,0:3:0:0:
205,72,138599,1,4,0:3:0:0:
171,275,138758,53,4,0:3:0:0:
148,267,138837,1,4,0:3:0:0:
50,304,139075,69,4,1:0:0:0:
