osu file format v14

[General]
AudioFilename: audio.mp3
AudioLeadIn: 0
PreviewTime: 47647
Countdown: 0
SampleSet: None
StackLeniency: 0.3
Mode: 0
LetterboxInBreaks: 0
WidescreenStoryboard: 1

[Editor]
Bookmarks: 9552,32409,47647,62885,78123,93361,100980,108599,123837,139075
DistanceSpacing: 1.2
BeatDivisor: 4
GridSize: 4
TimelineZoom: 2.5

[Metadata]
Title:Paradise
TitleUnicode:Paradise
Artist:Sound Souler
ArtistUnicode:Sound Souler
Creator:DeviousPanda
Version:Hard
Source:Arcaea
Tags:
BeatmapID:1858987
BeatmapSetID:883312

[Difficulty]
HPDrainRate:4
CircleSize:3
OverallDifficulty:6
ApproachRate:8
SliderMultiplier:1.99999990463257
SliderTickRate:2

[Events]
//Background and Video events
0,0,"55064306_p0.jpg",0,0
//Break Periods
//Storyboard Layer 0 (Background)
//Storyboard Layer 1 (Fail)
//Storyboard Layer 2 (Pass)
//Storyboard Layer 3 (Foreground)
//Storyboard Sound Samples

[TimingPoints]
1933,476.190476190476,4,2,1,60,1,0
9552,-100,4,2,1,60,0,0
17171,-100,4,2,1,80,0,0
47647,-100,4,2,1,95,0,1
62885,-100,4,2,1,85,0,0
78123,-100,4,2,1,70,0,0
100742,-100,4,2,1,60,0,0
108599,-100,4,2,1,85,0,0
123837,-100,4,2,1,45,0,0
131456,-100,4,2,1,25,0,0
139075,-100,4,2,1,20,0,0
144671,-100,4,2,1,5,0,0

[HitObjects]
0,141,9552,6,0,P|52:159|103:134,1,99.9999952316285
117,46,10028,1,0,0:0:0:0:
122,58,10147,2,0,P|174:40|225:65,1,99.9999952316285
227,159,10623,1,0,0:0:0:0:
225,145,10742,1,0,0:0:0:0:
337,227,10980,5,0,0:0:0:0:
339,208,11099,1,0,0:0:0:0:
341,191,11218,1,0,0:0:0:0:
344,174,11337,1,0,0:0:0:0:
346,158,11456,2,0,P|337:105|298:57,1,99.9999952316285
499,15,11932,1,0,0:0:0:0:
503,27,12052,2,0,P|461:60|439:119,1,99.9999952316285
473,209,12528,1,0,0:0:0:0:
474,194,12647,1,0,0:0:0:0:
249,140,12885,5,0,0:0:0:0:
251,159,13004,1,0,0:0:0:0:
253,176,13123,1,0,0:0:0:0:
256,193,13242,1,0,0:0:0:0:
259,210,13361,5,0,0:0:0:0:
328,322,13599,1,0,0:0:0:0:
155,289,13837,1,0,0:0:0:0:
151,273,13956,2,0,P|163:249|192:219,1,49.9999976158143
259,210,14194,1,0,0:0:0:0:
412,312,14432,5,0,0:0:0:0:
416,296,14551,2,0,P|404:272|375:242,1,49.9999976158143
374,168,14790,2,0,P|386:144|415:114,2,49.9999976158143
328,322,15266,5,0,0:0:0:0:
459,199,15504,1,0,0:0:0:0:
284,84,15742,1,0,0:0:0:0:
289,100,15861,1,0,0:0:0:0:
503,8,16099,5,0,0:0:0:0:
503,8,16337,1,0,0:0:0:0:
503,8,16575,1,0,0:0:0:0:
450,75,16812,5,0,0:0:0:0:
453,93,16932,1,0,0:0:0:0:
502,177,17171,6,0,L|377:166,1,99.9999952316285
390,174,17528,1,0,0:0:0:0:
378,180,17647,1,0,0:0:0:0:
450,75,17885,1,0,0:0:0:0:
441,283,18123,6,0,P|389:305|315:274,1,99.9999952316285
343,286,18480,1,0,0:0:0:0:
339,274,18599,1,0,0:0:0:0:
334,262,18718,1,0,0:0:0:0:
330,249,18837,1,0,0:0:0:0:
312,74,19075,6,0,L|294:178,1,99.9999952316285
284,181,19432,1,0,0:0:0:0:
273,189,19552,2,0,L|286:119,2,49.9999976158143
347,298,20028,5,0,0:0:0:0:
228,321,20266,1,0,0:0:0:0:
144,283,20504,1,0,0:0:0:0:
57,297,20742,1,0,0:0:0:0:
