osu file format v14

[General]
AudioFilename: audio.mp3
AudioLeadIn: 0
PreviewTime: 47647
Countdown: 0
SampleSet: Soft
StackLeniency: 0.3
Mode: 0
LetterboxInBreaks: 0
WidescreenStoryboard: 1

[Editor]
Bookmarks: 9552,32409,47647,62885,78123,93361,100980,108599,123837,139075
DistanceSpacing: 0.6
BeatDivisor: 4
GridSize: 4
TimelineZoom: 2.5

[Metadata]
Title:Paradise
TitleUnicode:Paradise
Artist:Sound Souler
ArtistUnicode:Sound Souler
Creator:DeviousPanda
Version:Expert
Source:Arcaea
Tags:
BeatmapID:1848270
BeatmapSetID:883312

[Difficulty]
HPDrainRate:4.5
CircleSize:4
OverallDifficulty:8
ApproachRate:9
SliderMultiplier:2.39999990463257
SliderTickRate:1

[Events]
//Background and Video events
0,0,"55064306_p0.jpg",0,0
//Break Periods
//Storyboard Layer 0 (Background)
//Storyboard Layer 1 (Fail)
//Storyboard Layer 2 (Pass)
//Storyboard Layer 3 (Foreground)
//Storyboard Sound Samples

[TimingPoints]
1933,476.190476190476,4,2,1,60,1,0
9552,-100,4,2,1,60,0,0
17171,-66.6666666666667,4,2,1,80,0,0
45980,-100,4,2,1,80,0,0
47647,-50,4,2,1,95,0,1
48361,-200,4,2,1,95,0,1
48599,-50,4,2,1,95,0,1
49313,-200,4,2,1,95,0,1
49551,-50,4,2,1,95,0,1
50266,-100,4,2,1,95,0,1
50504,-50,4,2,1,95,0,1
51456,-100,4,2,1,95,0,1
53123,-133.333333333333,4,2,1,95,0,1
53361,-100,4,2,1,95,0,1
55266,-50,4,2,1,95,0,1
55980,-200,4,2,1,95,0,1
56218,-50,4,2,1,95,0,1
56932,-200,4,2,1,95,0,1
57171,-50,4,2,1,95,0,1
58837,-200,4,2,1,95,0,1
59075,-100,4,2,1,95,0,1
60028,-66.6666666666667,4,2,1,95,0,1
60980,-50,4,2,1,95,0,1
61694,-200,4,2,1,95,0,1
61932,-50,4,2,1,95,0,1
62885,-66.6666666666667,4,2,1,85,0,0
66694,-57.1428571428571,4,2,1,85,0,0
67409,-200,4,2,1,85,0,0
67647,-57.1428571428571,4,2,1,85,0,0
68361,-200,4,2,1,85,0,0
68599,-57.1428571428571,4,2,1,85,0,0
78123,-66.6666666666667,4,2,1,70,0,0
100742,-100,4,2,1,60,0,0
108599,-100,4,2,1,85,0,0
123837,-100,4,2,1,45,0,0
131456,-100,4,2,1,25,0,0
139075,-100,4,2,1,20,0,0

[Colours]
Combo1 : 217,165,237
Combo2 : 187,0,0
Combo3 : 255,128,128
Combo4 : 172,17,185

[HitObjects]
10,76,9075,5,0,0:0:0:0:
26,148,9194,1,0,0:0:0:0:
47,219,9313,2,0,L|39:259,3,29.9999988079071
66,207,9552,6,0,P|140:188|202:208,1,119.999995231628
257,318,9909,1,0,0:0:0:0:
206,382,10028,1,8,0:0:0:0:
237,313,10147,2,0,P|237:273|225:237,1,59.9999976158142
256,182,10385,2,0,P|278:162|304:148,1,59.9999976158142
442,300,10623,1,0,0:0:0:0:
378,254,10742,2,0,L|305:246,1,59.9999976158142
66,207,10980,5,8,0:0:0:0:
82,209,11099,1,0,0:0:0:0:
97,212,11218,1,0,0:0:0:0:
113,213,11337,1,0,0:0:0:0:
174,160,11456,6,0,L|150:14,1,119.999995231628
298,0,11813,1,0,0:0:0:0:
321,72,11932,2,0,L|303:157,1,59.9999976158142,8|0,0:0|0:0,0:0:0:0:
330,207,12171,1,0,0:0:0:0:
307,279,12290,2,0,L|325:364,1,59.9999976158142
388,146,12528,1,0,0:0:0:0:
445,200,12647,2,0,P|484:200|524:178,1,59.9999976158142
438,317,12885,5,8,0:0:0:0:
422,313,13004,1,0,0:0:0:0:
409,310,13123,1,0,0:0:0:0:
394,307,13242,1,0,0:0:0:0:
319,337,13361,5,0,0:0:0:0:
373,86,13599,1,0,0:0:0:0:
156,175,13837,5,8,0:0:0:0:
217,219,13956,2,0,P|257:215|289:196,1,59.9999976158142
125,310,14194,2,0,P|130:280|144:254,1,59.9999976158142
116,105,14432,1,0,0:0:0:0:
194,96,14552,2,0,P|217:114|233:139,1,59.9999976158142
125,310,14790,5,8,0:0:0:0:
102,306,14909,1,0,0:0:0:0:
79,302,15028,1,0,0:0:0:0:
319,337,15266,5,0,0:0:0:0:
319,337,15504,6,0,P|313:300|327:261,1,59.9999976158142
409,187,15742,1,8,0:0:0:0:
478,158,15861,2,0,P|448:181|408:189,1,59.9999976158142
254,122,16099,5,0,0:0:0:0:
254,122,16337,1,0,0:0:0:0:
254,122,16575,1,0,0:0:0:0:
334,194,16813,5,0,0:0:0:0:
332,210,16932,1,0,0:0:0:0:
21,292,17171,6,0,P|77:237|178:268,1,179.999999713898,4|2,0:3|0:0,0:0:0:0:
261,47,17528,1,2,0:0:0:0:
182,95,17647,2,0,P|177:137|214:188,1,89.9999998569489,4|0,0:3|0:0,0:0:0:0:
433,235,17885,2,0,L|215:249,2,179.999999713898,2|4|2,0:0|0:3|0:0,0:0:0:0:
358,267,18480,5,2,0:0:0:0:
337,269,18599,1,4,0:3:0:0:
319,270,18718,1,2,0:0:0:0:
254,173,18837,5,2,0:0:0:0:
254,173,19075,6,0,P|249:86|179:18,1,179.999999713898,4|2,0:3|0:0,0:0:0:0:
52,158,19432,1,2,0:0:0:0:
33,79,19552,2,0,P|59:42|148:25,1,89.9999998569489,4|0,0:3|0:0,0:0:0:0:
152,139,19790,2,0,P|147:184|79:243,1,89.9999998569489,2|0,0:0|0:0,0:0:0:0:
5,328,20028,6,0,L|142:309,1,89.9999998569489,4|0,0:3|0:0,0:0:0:0:
281,368,20266,2,0,L|144:349,1,89.9999998569489,2|0,0:0|0:0,0:0:0:0:
19,335,20504,6,0,L|156:316,1,89.9999998569489,4|0,0:3|0:0,0:0:0:0:
268,375,20742,2,0,L|131:356,1,89.9999998569489,2|0,0:0|0:0,0:0:0:0:
52,158,20980,6,0,P|113:241|195:226,1,179.999999713898,4|2,0:3|0:0,0:0:0:0:
352,377,21337,1,2,0:0:0:0:
313,303,21456,2,0,P|258:292|203:325,1,89.9999998569489,4|0,0:3|0:0,0:0:0:0:
138,160,21694,1,2,0:0:0:0:
106,280,21813,1,2,0:0:0:0:
215,151,21932,2,0,P|256:189|261:252,1,89.9999998569489,4|0,0:3|0:0,0:0:0:0:
24,303,22171,2,0,P|26:246|71:201,1,89.9999998569489,2|0,0:0|0:0,0:0:0:0:
347,224,22409,6,0,P|334:278|282:315,1,89.9999998569489,4|0,0:3|0:0,0:0:0:0:
151,88,22647,2,0,P|200:62|262:78,1,89.9999998569489,2|0,0:0|0:0,0:0:0:0:
359,96,22885,5,4,0:3:0:0:
359,96,23123,5,2,0:0:0:0:
259,144,23242,2,0,L|268:250,1,89.9999998569489,2|4,0:0|0:3,0:0:0:0:
69,247,23480,5,2,0:0:0:0:
169,295,23599,2,0,L|159:401,1,89.9999998569489,2|0,0:0|0:0,0:0:0:0:
361,324,23837,5,4,0:3:0:0:
278,334,23956,1,2,0:0:0:0:
351,315,24075,1,2,0:0:0:0:
457,364,24313,5,4,0:3:0:0:
169,295,24552,1,0,0:0:0:0:
327,26,24790,6,0,P|270:114|308:191,1,179.999999713898,4|2,3:0|0:0,0:0:0:0:
203,378,25147,1,2,0:0:0:0:
262,316,25266,2,0,P|261:289|193:210,1,89.9999998569489,4|2,0:3|0:0,0:0:0:0:
70,147,25504,1,2,0:0:0:0:
0,204,25623,2,0,L|199:174,1,179.999999713898,2|2,0:0|0:0,0:0:0:0:
406,244,25980,5,2,0:0:0:0:
385,241,26099,1,2,0:0:0:0:
364,238,26218,1,4,0:3:0:0:
345,235,26337,1,2,0:0:0:0:
293,177,26456,5,2,0:0:0:0:
293,177,26694,6,0,P|257:90|304:7,1,179.999999713898,4|2,0:3|0:0,0:0:0:0:
130,307,27052,1,2,0:0:0:0:
200,265,27171,2,0,P|209:227|164:148,1,89.9999998569489,4|2,0:3|0:0,0:0:0:0:
98,94,27409,1,2,0:0:0:0:
80,97,27528,1,2,0:0:0:0:
1,126,27647,6,0,L|232:96,2,179.999999713898,4|0|4,0:3|0:0|0:3,0:0:0:0:
1,126,28361,1,0,0:0:0:0:
189,339,28599,6,0,P|210:295|199:226,1,89.9999998569489,4|0,0:3|0:0,0:0:0:0:
269,114,28837,2,0,P|267:177|308:218,1,89.9999998569489,2|2,0:0|0:0,0:0:0:0:
455,51,29075,1,4,0:3:0:0:
370,86,29194,2,0,L|158:66,1,179.999999713898,2|2,0:0|0:0,0:0:0:0:
2,127,29552,6,0,L|127:116,1,89.9999998569489,4|2,0:3|0:0,0:0:0:0:
346,248,29790,1,2,0:0:0:0:
280,198,29909,2,0,L|68:218,1,179.999999713898,2|2,0:0|0:0,0:0:0:0:
42,269,30266,5,2,0:0:0:0:
42,269,30504,5,4,0:3:0:0:
100,214,30623,2,0,P|112:160|44:44,1,179.999999713898,2|0,0:0|0:0,0:0:0:0:
212,2,30980,2,0,P|179:35|188:113,1,89.9999998569489,4|2,0:3|0:0,0:0:0:0:
342,343,31218,5,2,0:0:0:0:
284,288,31337,2,0,P|272:234|340:118,1,179.999999713898,2|2,0:0|0:0,0:0:0:0:
172,76,31694,2,0,P|205:109|196:187,1,89.9999998569489,2|0,0:0|0:0,0:0:0:0:
66,309,31932,5,4,0:3:0:0:
82,311,32052,1,2,0:0:0:0:
97,312,32171,1,2,0:0:0:0:
111,313,32290,1,2,0:0:0:0:
187,265,32409,5,4,0:3:0:0:
438,334,32647,5,2,0:0:0:0:
367,285,32766,2,0,L|351:151,1,89.9999998569489,2|8,0:0|0:0,0:0:0:0:
187,265,33004,5,2,0:0:0:0:
258,216,33123,2,0,L|274:82,1,89.9999998569489,2|0,0:0|0:0,0:0:0:0:
354,54,33361,5,4,0:3:0:0:
437,44,33480,1,2,0:0:0:0:
364,63,33599,1,2,0:0:0:0:
260,21,33837,5,8,0:0:0:0:
506,92,34075,1,0,0:0:0:0:
270,296,34313,5,4,0:3:0:0:
270,296,34552,5,2,0:0:0:0:
209,253,34671,2,0,L|120:261,1,89.9999998569489,0|8,0:0|0:0,0:0:0:0:
11,90,34909,5,0,0:0:0:0:
55,160,35028,1,2,0:0:0:0:
101,87,35147,1,0,0:0:0:0:
42,170,35266,6,0,L|156:183,1,89.9999998569489,4|0,0:3|0:0,0:0:0:0:
330,107,35504,2,0,L|216:120,1,89.9999998569489,2|0,0:0|0:0,0:0:0:0:
0,256,35742,6,0,L|114:243,1,89.9999998569489,8|0,0:0|0:0,0:0:0:0:
386,194,35980,2,0,L|272:181,1,89.9999998569489,2|0,0:0|0:0,0:0:0:0:
165,43,36218,5,4,0:3:0:0:
288,0,36456,5,0,0:0:0:0:
355,56,36575,2,0,L|345:149,1,89.9999998569489,2|8,0:0|0:0,0:0:0:0:
165,43,36813,5,2,0:0:0:0:
98,99,36932,2,0,L|108:192,1,89.9999998569489,2|0,0:0|0:0,0:0:0:0:
419,286,37171,6,0,P|382:242|295:233,1,89.9999998569489,4|0,0:3|0:0,0:0:0:0:
98,298,37409,2,0,P|154:287|205:217,1,89.9999998569489
476,141,37647,6,0,P|466:184|477:228,1,89.9999998569489,8|0,0:0|0:0,0:0:0:0:
275,384,37885,2,0,P|238:360|194:355,1,89.9999998569489,2|0,0:0|0:0,0:0:0:0:
250,163,38123,5,4,3:0:0:0:
250,163,38361,5,2,0:0:0:0:
321,91,38480,2,0,L|303:-44,1,89.9999998569489,2|8,0:0|0:0,0:0:0:0:
164,93,38718,5,2,0:0:0:0:
72,70,38837,1,2,0:0:0:0:
138,4,38956,1,2,0:0:0:0:
83,77,39075,6,0,L|67:173,1,89.9999998569489,4|0,0:3|0:0,0:0:0:0:
10,249,39313,5,2,0:0:0:0:
31,266,39432,1,2,0:0:0:0:
66,271,39552,1,8,0:0:0:0:
108,259,39671,1,2,0:0:0:0:
142,226,39790,1,2,0:0:0:0:
187,200,39909,1,2,0:0:0:0:
241,198,40028,6,0,P|286:219|284:363,1,179.999999713898,4|2,0:3|0:0,0:0:0:0:
483,287,40385,1,2,0:0:0:0:
453,213,40504,2,0,P|407:251|399:284,1,89.9999998569489,8|2,0:0|0:0,0:0:0:0:
144,114,40742,5,2,0:0:0:0:
231,103,40861,1,2,0:0:0:0:
321,92,40980,2,0,L|427:106,1,89.9999998569489,4|0,0:3|0:0,0:0:0:0:
241,198,41218,2,0,L|135:212,1,89.9999998569489,2|0,0:0|0:0,0:0:0:0:
387,22,41456,6,0,L|493:8,1,89.9999998569489,8|0,0:0|0:0,0:0:0:0:
174,288,41694,2,0,L|68:274,1,89.9999998569489,2|0,0:0|0:0,0:0:0:0:
32,13,41932,6,0,P|61:96|177:94,1,179.999999713898,4|2,0:3|0:0,0:0:0:0:
312,174,42290,2,0,P|267:129|201:136,1,89.9999998569489,2|8,0:0|0:0,0:0:0:0:
140,352,42528,1,2,0:0:0:0:
84,276,42647,2,0,P|101:237|155:206,1,89.9999998569489,2|0,0:0|0:0,0:0:0:0:
260,384,42885,6,0,L|249:294,1,89.9999998569489,4|2,0:3|0:0,0:0:0:0:
289,100,43123,1,2,0:0:0:0:
333,248,43242,1,2,0:0:0:0:
394,198,43361,2,0,P|342:172|273:193,1,89.9999998569489,8|0,0:0|0:0,0:0:0:0:
228,149,43599,2,0,P|280:175|349:154,1,89.9999998569489,2|0,0:0|0:0,0:0:0:0:
442,59,43837,5,4,0:3:0:0:
442,59,44075,5,2,0:0:0:0:
400,43,44194,1,2,0:0:0:0:
357,29,44313,2,0,L|266:36,1,89.9999998569489,8|2,0:0|0:0,0:0:0:0:
91,198,44552,5,2,0:0:0:0:
159,172,44671,1,2,0:0:0:0:
228,149,44790,2,0,L|343:159,1,89.9999998569489,4|2,0:3|0:0,0:0:0:0:
445,237,45028,5,2,0:0:0:0:
450,256,45147,1,2,0:0:0:0:
455,274,45266,5,8,0:0:0:0:
386,305,45385,1,2,0:0:0:0:
317,272,45504,1,2,0:0:0:0:
298,198,45623,1,2,0:0:0:0:
342,136,45742,1,4,0:3:0:0:
238,253,45980,6,0,L|232:302,3,39.9999984105428,2|2|2|8,0:0|0:0|0:0|0:0,0:0:0:0:
390,344,46456,2,0,L|384:295,3,39.9999984105428,2|2|2|4,0:0|0:0|0:0|0:3,0:0:0:0:
327,219,46932,5,2,0:0:0:0:
389,101,47171,5,8,0:0:0:0:
365,98,47290,1,2,0:0:0:0:
341,95,47409,1,2,0:0:0:0:
317,92,47528,1,2,0:0:0:0:
223,159,47647,6,0,P|237:240|181:295,1,159.999993642171,4|0,3:0|3:0,0:0:0:0:
192,384,47885,2,0,P|114:355|95:279,1,159.999993642171,8|0,3:0|3:0,0:0:0:0:
12,244,48123,2,0,P|75:191|150:212,1,159.999993642171,2|0,3:0|3:0,0:0:0:0:
262,154,48361,6,0,L|221:159,1,39.9999984105428,14|0,3:0|3:0,0:0:0:0:
35,78,48599,6,0,B|71:100|71:100|228:85,1,159.999993642171,2|0,3:0|3:0,0:0:0:0:
317,92,48837,2,0,B|281:70|281:70|124:85,1,159.999993642171,8|0,3:0|3:0,0:0:0:0:
31,90,49075,2,0,B|67:112|67:112|224:97,1,159.999993642171,2|0,3:0|3:0,0:0:0:0:
402,153,49313,6,0,L|362:156,1,39.9999984105428,14|0,3:0|3:0,0:0:0:0:
281,165,49552,5,2,3:0:0:0:
483,146,49671,1,0,3:0:0:0:
438,72,49790,2,0,L|320:83,1,119.999995231629,8|0,3:0|0:0,0:0:0:0:
452,237,50028,5,2,3:0:0:0:
338,227,50147,1,0,0:0:0:0:
359,302,50266,2,0,L|418:306,1,59.9999976158143,8|0,3:0|0:0,0:0:0:0:
256,347,50504,5,2,3:0:0:0:
207,317,50623,1,0,3:0:0:0:
190,266,50742,1,8,3:0:0:0:
209,210,50861,1,0,3:0:0:0:
113,65,50980,5,2,3:0:0:0:
137,136,51099,1,0,3:0:0:0:
124,213,51218,1,8,3:0:0:0:
61,255,51337,1,0,3:0:0:0:
54,368,51456,5,2,3:0:0:0:
64,360,51536,1,2,0:0:0:0:
75,353,51615,1,2,0:0:0:0:
85,345,51694,2,0,L|139:350,2,39.9999984105428,8|2|2,3:0|0:0|0:0,0:0:0:0:
156,257,51932,5,2,3:0:0:0:
170,268,52012,1,2,0:0:0:0:
185,278,52091,1,2,0:0:0:0:
200,289,52171,2,0,L|276:281,2,39.9999984105428,8|2|2,3:0|0:0|0:0,0:0:0:0:
73,243,52409,6,0,P|75:223|97:189,2,39.9999984105428,2|2|2,3:0|0:0|0:0,0:0:0:0:
118,136,52647,2,0,P|116:116|94:82,2,39.9999984105428,8|2|2,3:0|0:0|0:0,0:0:0:0:
46,57,52885,5,2,3:0:0:0:
175,68,53004,1,0,0:0:0:0:
138,2,53123,2,0,L|94:0,1,44.9999999284745,8|0,3:0|0:0,0:0:0:0:
35,142,53361,5,2,3:0:0:0:
23,154,53440,1,2,0:0:0:0:
11,167,53520,1,2,0:0:0:0:
0,179,53599,2,0,L|10:235,2,39.9999984105428,8|2|2,3:0|0:0|0:0,0:0:0:0:
109,229,53837,5,2,3:0:0:0:
117,237,53917,1,2,0:0:0:0:
126,247,53996,1,2,0:0:0:0:
134,255,54075,2,0,L|126:295,2,39.9999984105428,8|2|2,3:0|0:0|0:0,0:0:0:0:
41,359,54313,5,2,3:0:0:0:
202,348,54432,1,0,0:0:0:0:
70,168,54552,5,8,3:0:0:0:
107,157,54631,1,2,0:0:0:0:
144,145,54710,1,2,0:0:0:0:
154,157,54790,6,0,L|148:193,7,29.9999988079071,2|2|2|2|8|2|2|2,3:0|0:0|0:0|0:0|3:0|0:0|0:0|0:0,0:0:0:0:
248,86,55266,6,0,P|231:165|300:213,1,159.999993642171,4|0,3:0|3:0,0:0:0:0:
278,293,55504,2,0,P|354:268|361:184,1,159.999993642171,8|0,3:0|3:0,0:0:0:0:
442,163,55742,2,0,P|382:108|306:144,1,159.999993642171,2|0,3:0|3:0,0:0:0:0:
208,82,55980,6,0,L|249:86,1,39.9999984105428,14|0,3:0|3:0,0:0:0:0:
481,67,56218,6,0,B|424:8|424:8|387:82,1,159.999993642171,2|0,3:0|3:0,0:0:0:0:
406,248,56456,2,0,B|484:228|484:228|439:159,1,159.999993642171,8|0,3:0|3:0,0:0:0:0:
286,92,56694,2,0,B|263:169|263:169|346:165,1,159.999993642171,2|0,3:0|3:0,0:0:0:0:
481,67,56932,6,0,L|428:70,1,39.9999984105428,14|0,3:0|3:0,0:0:0:0:
221,45,57171,6,0,B|185:9|185:9|314:20,1,159.999993642171,2|0,3:0|3:0,0:0:0:0:
360,118,57409,2,0,B|395:82|395:82|267:93,1,159.999993642171,8|0,3:0|3:0,0:0:0:0:
121,156,57647,6,0,B|85:120|85:120|214:131,1,159.999993642171,2|0,3:0|3:0,0:0:0:0:
343,234,57885,2,0,B|378:198|378:198|250:209,1,159.999993642171,8|0,3:0|3:0,0:0:0:0:
36,266,58123,6,0,B|0:230|0:230|129:241,1,159.999993642171,2|0,3:0|3:0,0:0:0:0:
331,347,58361,2,0,B|366:311|366:311|238:322,1,159.999993642171,8|0,3:0|3:0,0:0:0:0:
174,384,58599,6,0,L|193:217,1,159.999993642171,2|0,3:0|3:0,0:0:0:0:
118,116,58837,6,0,L|122:171,1,39.9999984105428,14|0,3:0|3:0,0:0:0:0:
260,162,59075,5,2,3:0:0:0:
275,155,59155,1,2,0:0:0:0:
291,147,59234,1,2,0:0:0:0:
308,140,59313,2,0,L|368:147,2,39.9999984105428,8|2|2,3:0|0:0|0:0,0:0:0:0:
445,239,59552,5,2,3:0:0:0:
432,233,59631,1,2,0:0:0:0:
419,226,59710,1,2,0:0:0:0:
405,221,59790,2,0,L|355:226,2,39.9999984105428,8|2|2,3:0|0:0|0:0,0:0:0:0:
314,290,60028,5,2,3:0:0:0:
390,27,60186,5,0,1:0:0:0:
457,69,60266,2,0,P|470:108|461:160,1,89.9999998569489,0|0,1:0|0:0,0:0:0:0:
396,247,60504,1,2,1:0:0:0:
448,147,60623,1,2,1:0:0:0:
512,231,60742,2,0,P|472:244|421:235,1,89.9999998569489,2|2,1:0|1:0,0:0:0:0:
262,41,60980,6,0,B|303:83|303:83|286:219,1,159.999993642171,6|0,1:0|1:0,0:0:0:0:
330,257,61218,2,0,B|272:271|272:271|162:188,1,159.999993642171,2|0,1:0|1:0,0:0:0:0:
108,207,61456,2,0,B|124:149|124:149|250:96,1,159.999993642171,2|0,1:0|1:0,0:0:0:0:
384,29,61694,6,0,L|335:22,1,39.9999984105428,2|0,1:0|1:0,0:0:0:0:
88,32,61932,6,0,B|45:67|45:67|172:52,1,159.999993642171,2|0,1:0|1:0,0:0:0:0:
277,87,62171,2,0,B|320:122|320:122|193:107,1,159.999993642171,2|0,1:0|1:0,0:0:0:0:
0,151,62409,6,0,B|-43:186|-43:186|84:171,1,159.999993642171,2|0,1:0|1:0,0:0:0:0:
327,210,62647,2,0,B|370:245|370:245|243:230,1,159.999993642171,2|0,1:0|1:0,0:0:0:0:
148,54,62885,6,0,L|165:274,1,179.999999713898,6|8,1:0|0:0,0:0:0:0:
221,364,63242,1,2,0:0:0:0:
155,312,63361,2,0,L|142:174,1,89.9999998569489,4|0,3:0|0:0,0:0:0:0:
174,101,63599,5,10,0:0:0:0:
171,78,63718,1,2,0:0:0:0:
128,0,63837,6,0,B|98:38|98:38|245:20,1,179.999999713898,4|8,3:0|0:0,0:0:0:0:
421,10,64194,1,2,0:0:0:0:
298,69,64313,2,0,B|328:30|328:30|181:48,1,179.999999713898,4|8,3:0|0:0,0:0:0:0:
96,182,64671,1,2,0:0:0:0:
24,118,64790,2,0,L|129:106,1,89.9999998569489,4|0,3:0|0:0,0:0:0:0:
227,81,65028,2,0,L|-5:110,1,179.999999713898,8|4,0:0|3:0,0:0:0:0:
48,243,65385,5,2,0:0:0:0:
62,245,65504,1,8,0:0:0:0:
75,247,65623,1,2,0:0:0:0:
139,292,65742,6,0,B|164:325|164:325|148:226,1,89.9999998569489,4|0,3:0|0:0,0:0:0:0:
118,140,65980,2,0,B|143:107|143:107|127:206,1,89.9999998569489,8|0,0:0|0:0,0:0:0:0:
244,335,66218,6,0,B|282:351|282:351|218:273,1,89.9999998569489,4|0,3:0|0:0,0:0:0:0:
221,79,66456,2,0,B|259:62|259:62|195:140,1,89.9999998569489,8|0,0:0|0:0,0:0:0:0:
483,198,66694,6,0,P|376:172|343:208,1,139.999995772044,4|0,3:0|3:0,0:0:0:0:
284,153,66932,2,0,P|314:258|362:269,1,139.999995772044,8|0,0:0|3:0,0:0:0:0:
345,348,67171,2,0,P|421:268|406:221,1,139.999995772044,4|0,3:0|3:0,0:0:0:0:
478,158,67409,6,0,L|484:210,1,39.9999984105428,8|0,0:0|0:0,0:0:0:0:
475,363,67647,6,0,B|443:340|443:340|277:353,1,139.999995772044,4|0,3:0|0:0,0:0:0:0:
308,277,67885,2,0,B|276:300|276:300|110:287,1,139.999995772044,8|0,0:0|0:0,0:0:0:0:
141,363,68123,2,0,B|109:340|109:340|-57:353,1,139.999995772044,4|0,3:0|0:0,0:0:0:0:
40,268,68361,6,0,L|91:264,1,39.9999984105428,8|0,0:0|0:0,0:0:0:0:
133,205,68599,1,4,3:0:0:0:
213,111,68837,6,0,P|257:206|211:292,1,209.999993658066,8|4,0:0|3:0,0:0:0:0:
440,234,69194,1,2,0:0:0:0:
362,195,69313,2,0,P|326:147|326:102,1,104.999996829033,8|0,0:0|0:0,0:0:0:0:
464,0,69552,5,4,3:0:0:0:
489,9,69671,1,2,0:0:0:0:
512,16,69790,1,8,0:0:0:0:
443,35,69909,1,2,0:0:0:0:
373,51,70028,2,0,L|247:33,1,104.999996829033,4|0,3:0|0:0,0:0:0:0:
362,195,70266,2,0,L|488:177,1,104.999996829033,8|0,0:0|0:0,0:0:0:0:
371,345,70504,6,0,P|336:292|197:313,1,209.999993658066,4|8,3:0|0:0,0:0:0:0:
72,360,70861,1,2,0:0:0:0:
37,262,70980,2,0,P|72:315|211:294,1,209.999993658066,4|8,3:0|0:0,0:0:0:0:
292,96,71337,1,2,0:0:0:0:
298,84,71456,6,0,B|256:41|256:41|243:227,1,209.999993658066,4|8,3:0|0:0,0:0:0:0:
309,344,71813,1,2,0:0:0:0:
193,297,71932,2,0,B|235:340|235:340|248:153,1,209.999993658066,4|8,3:0|0:0,0:0:0:0:
20,121,72290,1,2,0:0:0:0:
8,137,72409,6,0,L|245:101,1,209.999993658066,4|8,3:0|0:0,0:0:0:0:
387,254,72766,1,2,0:0:0:0:
485,190,72885,2,0,L|248:154,1,209.999993658066,4|8,3:0|0:0,0:0:0:0:
158,366,73242,1,2,0:0:0:0:
172,374,73361,6,0,P|219:271|155:183,1,209.999993658066,4|8,3:0|0:0,0:0:0:0:
400,167,73718,1,2,0:0:0:0:
328,75,73837,2,0,P|281:178|313:218,1,104.999996829033,4|0,3:0|0:0,0:0:0:0:
393,277,74075,5,8,0:0:0:0:
411,273,74194,1,2,0:0:0:0:
507,281,74313,6,0,L|279:310,1,209.999993658066,4|8,3:0|0:0,0:0:0:0:
188,141,74671,1,2,0:0:0:0:
220,209,74790,2,0,L|335:226,1,104.999996829033,4|0,3:0|0:0,0:0:0:0:
429,85,75028,1,8,0:0:0:0:
419,105,75147,1,2,0:0:0:0:
409,125,75266,2,0,L|284:139,1,104.999996829033,4|0,3:0|0:0,0:0:0:0:
254,36,75504,2,0,L|369:53,1,104.999996829033,8|0,0:0|0:0,0:0:0:0:
489,252,75742,5,4,3:0:0:0:
457,324,75861,1,2,0:0:0:0:
410,260,75980,1,8,0:0:0:0:
463,333,76099,1,2,0:0:0:0:
493,242,76218,6,0,P|468:170|543:19,1,209.999993658066,4|8,3:0|0:0,0:0:0:0:
293,123,76575,1,2,0:0:0:0:
372,163,76694,2,0,P|385:127|360:56,1,104.999996829033,4|0,3:0|0:0,0:0:0:0:
298,208,76932,2,0,L|315:352,1,104.999996829033,8|0,0:0|0:0,0:0:0:0:
165,336,77171,6,0,L|196:77,2,209.999993658066,4|8|4,3:0|0:0|3:0,0:0:0:0:
82,200,77885,5,8,0:0:0:0:
80,183,78004,1,2,0:0:0:0:
78,167,78123,1,4,3:0:0:0:
361,22,78361,6,0,L|523:32,1,119.999999809265,8|0,0:0|0:0,0:0:0:0:
512,50,78599,2,0,L|327:38,1,179.999999713898,4|8,3:0|0:0,0:0:0:0:
150,130,78956,1,2,0:0:0:0:
195,211,79075,2,0,P|238:177|170:40,1,179.999999713898,4|8,3:0|0:0,0:0:0:0:
409,244,79432,1,2,0:0:0:0:
364,325,79551,2,0,P|321:291|389:154,1,179.999999713898,4|8,3:0|0:0,0:0:0:0:
225,63,79909,5,2,0:0:0:0:
156,103,80028,2,0,L|0:79,1,89.9999998569489,4|0,3:0|0:0,0:0:0:0:
157,201,80266,2,0,L|344:176,1,179.999999713898,8|4,0:0|3:0,0:0:0:0:
512,323,80623,1,0,0:0:0:0:
475,250,80742,2,0,L|339:232,1,89.9999998569489,8|0,0:0|0:0,0:0:0:0:
85,154,80980,6,0,P|79:257|167:292,1,179.999999713898,4|8,3:0|0:0,0:0:0:0:
325,139,81337,1,0,0:0:0:0:
385,238,81456,2,0,P|298:181|224:240,1,179.999999713898,4|8,3:0|0:0,0:0:0:0:
396,384,81813,1,0,0:0:0:0:
321,383,81932,6,0,B|294:347|294:347|309:217,1,119.999999809265,4|0,3:0|0:0,0:0:0:0:
306,249,82171,2,0,B|333:213|333:213|318:83,1,119.999999809265,8|0,0:0|0:0,0:0:0:0:
261,82,82409,2,0,P|344:107|398:36,1,179.999999713898,4|8,3:0|0:0,0:0:0:0:
426,277,82806,5,0,0:0:0:0:
436,263,82885,2,0,P|376:230|301:256,1,119.999999809265,4|0,3:0|0:0,0:0:0:0:
306,249,83123,2,0,P|246:282|171:256,1,119.999999809265,8|0,0:0|0:0,0:0:0:0:
171,200,83361,2,0,L|157:379,2,179.999999713898,4|8|4,3:0|0:0|3:0,0:0:0:0:
171,200,84075,5,0,0:0:0:0:
397,43,84313,1,0,0:0:0:0:
469,114,84432,2,0,P|395:139|304:88,1,179.999999713898
162,29,84790,5,0,0:0:0:0:
271,311,85028,1,0,0:0:0:0:
126,123,85266,1,0,0:0:0:0:
52,173,85385,2,0,L|257:175,1,179.999999713898
317,350,85742,6,0,P|300:312|316:256,1,89.9999998569489
279,92,85980,2,0,P|312:116|326:172,1,89.9999998569489
435,116,86218,2,0,P|429:159|399:192,1,89.9999998569489
492,263,86456,2,0,P|451:280|407:270,1,89.9999998569489
305,259,86694,6,0,P|295:303|313:344,1,89.9999998569489
323,154,86932,2,0,P|310:112|275:86,1,89.9999998569489
395,186,87170,2,0,P|425:153|431:110,1,89.9999998569489
403,264,87408,2,0,P|447:274|488:257,1,89.9999998569489
309,338,87647,6,0,P|292:300|308:244,1,89.9999998569489
483,250,87885,2,0,P|442:267|399:258,1,89.9999998569489
426,103,88123,2,0,P|420:147|391:180,1,89.9999998569489
270,79,88361,2,0,P|305:105|319:148,1,89.9999998569489
217,354,88599,5,0,0:0:0:0:
368,39,88837,1,0,0:0:0:0:
98,208,89075,1,0,0:0:0:0:
177,221,89194,1,0,0:0:0:0:
252,231,89313,2,0,L|374:210,1,89.9999998569489
