osu file format v14

[General]
AudioFilename: audio.mp3
AudioLeadIn: 0
PreviewTime: 65091
Countdown: 0
SampleSet: Normal
StackLeniency: 0.7
Mode: 1
LetterboxInBreaks: 0
WidescreenStoryboard: 0

[Editor]
Bookmarks: 3193,16863,29015,41167,53319,65471,77623,89775,101927,113889
DistanceSpacing: 0.1
BeatDivisor: 4
GridSize: 32
TimelineZoom: 1.9

[Metadata]
Title:Out of Sense
TitleUnicode:Out of Sense
Artist:Sound Souler
ArtistUnicode:Sound Souler
Creator:eiri-
Version:Oni
Source:OverRapid
Tags:Ayyri Trynna Muse Dash Featured Artist FA BMS BOFU2017 Video Game Instrumental Electronic
BeatmapID:2451479
BeatmapSetID:1175331

[Difficulty]
HPDrainRate:5
CircleSize:2
OverallDifficulty:6
ApproachRate:10
SliderMultiplier:1.4
SliderTickRate:1

[Events]
//Background and Video events
0,0,"Out of Sense.jpg",0,5
//Break Periods
//Storyboard Layer 0 (Background)
//Storyboard Layer 1 (Fail)
//Storyboard Layer 2 (Pass)
//Storyboard Layer 3 (Foreground)
//Storyboard Layer 4 (Overlay)
//Storyboard Sound Samples

[TimingPoints]
3193,379.746835443038,4,1,0,100,1,0

[HitObjects]
256,192,3193,5,12,0:0:0:0:
256,192,3382,1,0,0:0:0:0:
256,192,3477,1,0,0:0:0:0:
256,192,3572,1,0,0:0:0:0:
256,192,3762,1,12,0:0:0:0:
256,192,3952,1,0,0:0:0:0:
256,192,4142,1,0,0:0:0:0:
256,192,4332,1,12,0:0:0:0:
256,192,4711,1,0,0:0:0:0:
256,192,4901,1,12,0:0:0:0:
256,192,5091,1,0,0:0:0:0:
256,192,5281,1,0,0:0:0:0:
256,192,5376,1,0,0:0:0:0:
256,192,5471,1,12,0:0:0:0:
256,192,5661,1,0,0:0:0:0:
256,192,5851,1,12,0:0:0:0:
256,192,6041,1,0,0:0:0:0:
256,192,6230,1,12,0:0:0:0:
256,192,6419,1,0,0:0:0:0:
256,192,6514,1,0,0:0:0:0:
256,192,6609,1,0,0:0:0:0:
256,192,6799,1,12,0:0:0:0:
256,192,6989,1,0,0:0:0:0:
256,192,7179,1,0,0:0:0:0:
256,192,7275,1,0,0:0:0:0:
256,192,7369,1,12,0:0:0:0:
256,192,7748,1,0,0:0:0:0:
256,192,7938,1,12,0:0:0:0:
256,192,8128,1,0,0:0:0:0:
256,192,8318,1,0,0:0:0:0:
256,192,8414,1,0,0:0:0:0:
256,192,8508,1,12,0:0:0:0:
256,192,8698,1,0,0:0:0:0:
256,192,8888,1,12,0:0:0:0:
256,192,9078,1,0,0:0:0:0:
256,192,9268,1,12,0:0:0:0:
256,192,9457,1,0,0:0:0:0:
256,192,9552,1,0,0:0:0:0:
256,192,9647,1,0,0:0:0:0:
256,192,9837,1,12,0:0:0:0:
256,192,10027,1,0,0:0:0:0:
256,192,10217,1,0,0:0:0:0:
256,192,10313,1,0,0:0:0:0:
256,192,10407,1,12,0:0:0:0:
256,192,10786,1,0,0:0:0:0:
256,192,10882,1,0,0:0:0:0:
256,192,10976,1,12,0:0:0:0:
256,192,11166,1,0,0:0:0:0:
256,192,11262,1,0,0:0:0:0:
256,192,11356,1,0,0:0:0:0:
256,192,11546,1,12,0:0:0:0:
256,192,11736,1,0,0:0:0:0:
256,192,11832,1,0,0:0:0:0:
256,192,11926,1,12,0:0:0:0:
256,192,12116,1,0,0:0:0:0:
256,192,12306,1,12,0:0:0:0:
256,192,12495,1,0,0:0:0:0:
256,192,12590,1,0,0:0:0:0:
256,192,12685,1,0,0:0:0:0:
256,192,12875,1,12,0:0:0:0:
256,192,13065,1,0,0:0:0:0:
256,192,13255,1,0,0:0:0:0:
256,192,13445,1,12,0:0:0:0:
256,192,13635,1,0,0:0:0:0:
256,192,13824,1,0,0:0:0:0:
256,192,13920,1,0,0:0:0:0:
256,192,14014,1,12,0:0:0:0:
256,192,14204,1,0,0:0:0:0:
256,192,14394,1,0,0:0:0:0:
256,192,14584,1,12,0:0:0:0:
256,192,14774,1,0,0:0:0:0:
256,192,14964,1,12,0:0:0:0:
256,192,15344,8,0,16674,0:0:0:0:
256,192,16863,5,12,0:0:0:0:
256,192,17053,1,8,0:0:0:0:
256,192,17243,1,0,0:0:0:0:
256,192,17433,1,8,0:0:0:0:
256,192,17623,1,0,0:0:0:0:
256,192,17813,1,8,0:0:0:0:
256,192,18003,1,0,0:0:0:0:
256,192,18193,1,8,0:0:0:0:
256,192,18382,1,0,0:0:0:0:
256,192,18572,1,8,0:0:0:0:
256,192,18762,1,0,0:0:0:0:
256,192,18952,1,8,0:0:0:0:
256,192,19142,1,0,0:0:0:0:
256,192,19332,1,8,0:0:0:0:
256,192,19522,1,0,0:0:0:0:
256,192,19711,1,8,0:0:0:0:
256,192,19806,1,8,0:0:0:0:
256,192,19901,1,0,0:0:0:0:
256,192,20091,1,8,0:0:0:0:
256,192,20281,1,0,0:0:0:0:
256,192,20471,1,8,0:0:0:0:
256,192,20661,1,0,0:0:0:0:
256,192,20851,1,8,0:0:0:0:
256,192,21041,1,0,0:0:0:0:
256,192,21230,1,8,0:0:0:0:
256,192,21420,1,0,0:0:0:0:
256,192,21610,1,8,0:0:0:0:
256,192,21800,1,0,0:0:0:0:
256,192,21990,1,8,0:0:0:0:
256,192,22180,1,0,0:0:0:0:
256,192,22465,1,0,0:0:0:0:
256,192,22749,1,0,0:0:0:0:
256,192,22939,1,12,0:0:0:0:
256,192,23129,1,8,0:0:0:0:
256,192,23319,1,0,0:0:0:0:
256,192,23509,1,8,0:0:0:0:
256,192,23699,1,0,0:0:0:0:
256,192,23889,1,8,0:0:0:0:
256,192,24079,1,0,0:0:0:0:
256,192,24268,1,8,0:0:0:0:
256,192,24458,1,0,0:0:0:0:
256,192,24648,1,8,0:0:0:0:
256,192,24838,1,0,0:0:0:0:
256,192,25028,1,8,0:0:0:0:
256,192,25218,1,0,0:0:0:0:
256,192,25408,1,8,0:0:0:0:
256,192,25598,1,0,0:0:0:0:
256,192,25787,1,8,0:0:0:0:
256,192,25882,1,8,0:0:0:0:
256,192,25977,1,0,0:0:0:0:
256,192,26167,1,8,0:0:0:0:
256,192,26357,1,0,0:0:0:0:
256,192,26547,1,8,0:0:0:0:
256,192,26737,1,0,0:0:0:0:
256,192,26927,1,8,0:0:0:0:
256,192,27117,1,0,0:0:0:0:
256,192,27306,1,8,0:0:0:0:
256,192,27496,1,0,0:0:0:0:
256,192,27686,1,8,0:0:0:0:
256,192,27876,1,0,0:0:0:0:
256,192,28066,1,8,0:0:0:0:
256,192,28256,1,0,0:0:0:0:
256,192,28541,1,0,0:0:0:0:
256,192,28730,1,0,0:0:0:0:
256,192,28825,1,0,0:0:0:0:
256,192,29015,1,12,0:0:0:0:
256,192,29205,1,0,0:0:0:0:
256,192,29395,1,0,0:0:0:0:
256,192,29585,1,8,0:0:0:0:
256,192,29774,1,0,0:0:0:0:
256,192,30154,1,0,0:0:0:0:
256,192,30344,1,0,0:0:0:0:
256,192,30534,1,8,0:0:0:0:
256,192,30724,1,0,0:0:0:0:
256,192,30914,1,8,0:0:0:0:
256,192,31009,1,0,0:0:0:0:
256,192,31104,1,8,0:0:0:0:
256,192,31293,1,0,0:0:0:0:
256,192,31483,1,0,0:0:0:0:
256,192,31673,1,8,0:0:0:0:
256,192,31863,1,0,0:0:0:0:
256,192,32053,1,0,0:0:0:0:
256,192,32243,1,0,0:0:0:0:
256,192,32433,1,8,0:0:0:0:
256,192,32623,1,0,0:0:0:0:
256,192,32812,1,8,0:0:0:0:
256,192,33002,1,8,0:0:0:0:
256,192,33192,1,8,0:0:0:0:
256,192,33382,1,0,0:0:0:0:
256,192,33572,1,8,0:0:0:0:
256,192,33667,1,0,0:0:0:0:
256,192,33762,1,8,0:0:0:0:
256,192,33952,1,8,0:0:0:0:
256,192,34142,1,8,0:0:0:0:
256,192,34331,1,0,0:0:0:0:
256,192,34521,1,0,0:0:0:0:
256,192,34617,1,0,0:0:0:0:
256,192,34901,1,0,0:0:0:0:
256,192,35091,1,12,0:0:0:0:
256,192,35281,1,0,0:0:0:0:
256,192,35376,1,0,0:0:0:0:
256,192,35471,1,8,0:0:0:0:
256,192,35661,1,0,0:0:0:0:
256,192,35850,1,8,0:0:0:0:
256,192,36230,1,8,0:0:0:0:
256,192,36420,1,8,0:0:0:0:
256,192,36515,1,8,0:0:0:0:
256,192,36610,1,0,0:0:0:0:
256,192,36800,1,0,0:0:0:0:
256,192,36990,1,8,0:0:0:0:
256,192,37180,1,8,0:0:0:0:
256,192,37369,1,0,0:0:0:0:
256,192,37559,1,8,0:0:0:0:
256,192,37749,1,8,0:0:0:0:
256,192,37844,1,8,0:0:0:0:
256,192,37939,1,8,0:0:0:0:
256,192,38129,1,0,0:0:0:0:
256,192,38319,1,0,0:0:0:0:
256,192,38509,1,8,0:0:0:0:
256,192,38699,1,0,0:0:0:0:
256,192,38888,1,8,0:0:0:0:
256,192,38983,1,0,0:0:0:0:
256,192,39078,1,8,0:0:0:0:
256,192,39268,1,0,0:0:0:0:
256,192,39458,1,8,0:0:0:0:
256,192,39648,1,0,0:0:0:0:
256,192,40028,1,0,0:0:0:0:
256,192,40407,1,12,0:0:0:0:
256,192,40598,1,0,0:0:0:0:
256,192,40693,1,0,0:0:0:0:
256,192,40787,1,12,0:0:0:0:
256,192,41167,1,12,0:0:0:0:
256,192,41547,1,8,0:0:0:0:
256,192,41737,1,0,0:0:0:0:
256,192,41832,1,0,0:0:0:0:
256,192,41927,1,0,0:0:0:0:
256,192,42117,1,8,0:0:0:0:
256,192,42306,1,0,0:0:0:0:
256,192,42496,1,0,0:0:0:0:
256,192,42591,1,0,0:0:0:0:
256,192,42686,1,0,0:0:0:0:
256,192,43066,1,8,0:0:0:0:
256,192,43256,1,0,0:0:0:0:
256,192,43351,1,0,0:0:0:0:
256,192,43446,1,0,0:0:0:0:
256,192,43636,1,8,0:0:0:0:
256,192,43825,1,0,0:0:0:0:
256,192,44015,1,0,0:0:0:0:
256,192,44110,1,0,0:0:0:0:
256,192,44205,1,0,0:0:0:0:
256,192,44585,1,8,0:0:0:0:
256,192,44775,1,0,0:0:0:0:
256,192,44870,1,0,0:0:0:0:
256,192,44965,1,0,0:0:0:0:
256,192,45155,1,8,0:0:0:0:
256,192,45344,1,0,0:0:0:0:
256,192,45534,1,0,0:0:0:0:
256,192,45629,1,0,0:0:0:0:
256,192,45724,1,0,0:0:0:0:
256,192,46104,1,8,0:0:0:0:
256,192,46294,1,0,0:0:0:0:
256,192,46484,1,0,0:0:0:0:
256,192,46674,1,8,0:0:0:0:
256,192,46863,1,0,0:0:0:0:
256,192,47053,1,8,0:0:0:0:
256,192,47243,1,12,0:0:0:0:
256,192,47623,1,8,0:0:0:0:
256,192,47813,1,0,0:0:0:0:
256,192,47908,1,0,0:0:0:0:
256,192,48003,1,0,0:0:0:0:
256,192,48193,1,8,0:0:0:0:
256,192,48572,1,0,0:0:0:0:
256,192,48762,1,0,0:0:0:0:
256,192,49142,1,8,0:0:0:0:
256,192,49332,1,0,0:0:0:0:
256,192,49522,1,0,0:0:0:0:
256,192,49712,1,8,0:0:0:0:
256,192,49901,1,0,0:0:0:0:
256,192,50091,1,0,0:0:0:0:
256,192,50281,1,8,0:0:0:0:
256,192,50661,1,8,0:0:0:0:
256,192,50851,1,0,0:0:0:0:
256,192,51230,1,8,0:0:0:0:
256,192,51420,1,0,0:0:0:0:
256,192,51610,1,0,0:0:0:0:
256,192,51800,1,8,0:0:0:0:
256,192,52180,1,8,0:0:0:0:
256,192,52370,1,0,0:0:0:0:
256,192,52560,1,0,0:0:0:0:
256,192,52749,1,8,0:0:0:0:
256,192,52939,1,0,0:0:0:0:
256,192,53034,1,0,0:0:0:0:
256,192,53129,1,0,0:0:0:0:
256,192,53319,1,12,0:0:0:0:
256,192,53604,1,8,0:0:0:0:
256,192,53699,1,0,0:0:0:0:
256,192,53889,1,0,0:0:0:0:
256,192,54079,1,8,0:0:0:0:
256,192,54174,1,8,0:0:0:0:
256,192,54363,1,0,0:0:0:0:
256,192,54458,1,8,0:0:0:0:
256,192,54648,1,0,0:0:0:0:
256,192,54838,1,0,0:0:0:0:
256,192,55218,1,8,0:0:0:0:
256,192,55408,1,0,0:0:0:0:
256,192,55598,1,8,0:0:0:0:
256,192,55693,1,8,0:0:0:0:
256,192,55882,1,0,0:0:0:0:
256,192,55977,1,8,0:0:0:0:
256,192,56167,1,0,0:0:0:0:
256,192,56357,1,8,0:0:0:0:
256,192,56642,1,8,0:0:0:0:
256,192,56737,1,0,0:0:0:0:
256,192,56927,1,0,0:0:0:0:
256,192,57117,1,8,0:0:0:0:
256,192,57212,1,8,0:0:0:0:
256,192,57401,1,0,0:0:0:0:
256,192,57496,1,8,0:0:0:0:
256,192,57686,1,0,0:0:0:0:
256,192,57876,1,8,0:0:0:0:
256,192,58256,1,0,0:0:0:0:
256,192,58446,1,0,0:0:0:0:
256,192,58636,1,8,0:0:0:0:
256,192,58731,1,8,0:0:0:0:
256,192,58920,1,0,0:0:0:0:
256,192,59015,1,8,0:0:0:0:
256,192,59205,1,0,0:0:0:0:
256,192,59395,1,12,0:0:0:0:
256,192,59680,1,8,0:0:0:0:
256,192,59775,1,0,0:0:0:0:
256,192,59965,1,0,0:0:0:0:
256,192,60155,1,8,0:0:0:0:
256,192,60250,1,8,0:0:0:0:
256,192,60439,1,0,0:0:0:0:
256,192,60534,1,8,0:0:0:0:
256,192,60724,1,0,0:0:0:0:
256,192,60914,1,8,0:0:0:0:
256,192,61199,1,0,0:0:0:0:
256,192,61294,1,8,0:0:0:0:
256,192,61484,1,0,0:0:0:0:
256,192,61674,1,8,0:0:0:0:
256,192,61769,1,8,0:0:0:0:
256,192,61958,1,0,0:0:0:0:
256,192,62053,1,8,0:0:0:0:
256,192,62243,1,0,0:0:0:0:
256,192,62433,1,8,0:0:0:0:
256,192,62528,1,8,0:0:0:0:
256,192,62623,1,0,0:0:0:0:
256,192,62718,1,0,0:0:0:0:
256,192,62813,1,0,0:0:0:0:
256,192,63003,1,0,0:0:0:0:
256,192,63098,1,0,0:0:0:0:
256,192,63193,1,8,0:0:0:0:
256,192,63287,1,8,0:0:0:0:
256,192,63382,1,8,0:0:0:0:
256,192,63572,1,8,0:0:0:0:
256,192,63667,1,8,0:0:0:0:
256,192,63762,1,0,0:0:0:0:
256,192,63857,1,0,0:0:0:0:
256,192,63952,1,12,0:0:0:0:
256,192,64142,1,0,0:0:0:0:
256,192,64237,1,0,0:0:0:0:
256,192,64332,1,8,0:0:0:0:
256,192,64522,1,0,0:0:0:0:
256,192,64617,1,0,0:0:0:0:
256,192,64711,1,8,0:0:0:0:
256,192,64806,1,8,0:0:0:0:
256,192,64901,1,0,0:0:0:0:
256,192,65091,1,4,0:0:0:0:
256,192,65471,1,12,0:0:0:0:
256,192,65661,1,0,0:0:0:0:
256,192,65756,1,0,0:0:0:0:
256,192,65851,1,0,0:0:0:0:
256,192,66041,1,8,0:0:0:0:
256,192,66230,1,0,0:0:0:0:
256,192,66610,1,0,0:0:0:0:
256,192,66800,1,0,0:0:0:0:
256,192,66895,1,0,0:0:0:0:
256,192,66990,1,8,0:0:0:0:
256,192,67180,1,0,0:0:0:0:
256,192,67370,1,8,0:0:0:0:
256,192,67465,1,0,0:0:0:0:
256,192,67560,1,8,0:0:0:0:
256,192,67749,1,0,0:0:0:0:
256,192,67939,1,0,0:0:0:0:
256,192,68129,1,8,0:0:0:0:
256,192,68224,1,8,0:0:0:0:
256,192,68319,1,0,0:0:0:0:
256,192,68509,1,0,0:0:0:0:
256,192,68699,1,0,0:0:0:0:
256,192,68889,1,8,0:0:0:0:
256,192,69079,1,0,0:0:0:0:
256,192,69268,1,8,0:0:0:0:
256,192,69363,1,8,0:0:0:0:
256,192,69458,1,8,0:0:0:0:
256,192,69648,1,8,0:0:0:0:
256,192,69838,1,0,0:0:0:0:
256,192,70028,1,8,0:0:0:0:
256,192,70123,1,0,0:0:0:0:
256,192,70218,1,8,0:0:0:0:
256,192,70408,1,8,0:0:0:0:
256,192,70598,1,8,0:0:0:0:
256,192,70787,1,0,0:0:0:0:
256,192,70977,1,0,0:0:0:0:
256,192,71167,1,8,0:0:0:0:
256,192,71357,1,0,0:0:0:0:
256,192,71547,1,12,0:0:0:0:
256,192,71737,1,0,0:0:0:0:
256,192,71832,1,0,0:0:0:0:
256,192,71927,1,8,0:0:0:0:
256,192,72117,1,0,0:0:0:0:
256,192,72306,1,8,0:0:0:0:
256,192,72686,1,8,0:0:0:0:
256,192,72876,1,8,0:0:0:0:
256,192,72971,1,8,0:0:0:0:
256,192,73066,1,0,0:0:0:0:
256,192,73256,1,0,0:0:0:0:
256,192,73446,1,8,0:0:0:0:
256,192,73541,1,0,0:0:0:0:
256,192,73636,1,8,0:0:0:0:
256,192,73825,1,0,0:0:0:0:
256,192,74015,1,8,0:0:0:0:
256,192,74205,1,8,0:0:0:0:
256,192,74300,1,8,0:0:0:0:
256,192,74395,1,8,0:0:0:0:
256,192,74585,1,0,0:0:0:0:
256,192,74775,1,0,0:0:0:0:
256,192,74965,1,8,0:0:0:0:
256,192,75155,1,0,0:0:0:0:
256,192,75344,1,8,0:0:0:0:
256,192,75439,1,0,0:0:0:0:
256,192,75534,1,8,0:0:0:0:
256,192,75724,1,8,0:0:0:0:
256,192,75914,1,0,0:0:0:0:
256,192,76009,1,8,0:0:0:0:
256,192,76104,1,0,0:0:0:0:
256,192,76294,1,0,0:0:0:0:
256,192,76484,1,8,0:0:0:0:
256,192,76674,1,0,0:0:0:0:
256,192,76863,1,0,0:0:0:0:
256,192,77053,1,8,0:0:0:0:
256,192,77243,1,4,0:0:0:0:
256,192,77623,1,12,0:0:0:0:
256,192,77813,1,0,0:0:0:0:
256,192,78003,1,0,0:0:0:0:
256,192,78193,1,12,0:0:0:0:
256,192,78382,1,0,0:0:0:0:
256,192,78762,1,12,0:0:0:0:
256,192,78952,1,0,0:0:0:0:
256,192,79142,1,0,0:0:0:0:
256,192,79332,1,12,0:0:0:0:
256,192,79522,1,0,0:0:0:0:
256,192,79711,1,0,0:0:0:0:
256,192,79901,1,12,0:0:0:0:
256,192,80091,1,0,0:0:0:0:
256,192,80281,1,12,0:0:0:0:
256,192,80471,1,0,0:0:0:0:
256,192,80661,1,12,0:0:0:0:
256,192,80851,1,0,0:0:0:0:
256,192,81041,1,0,0:0:0:0:
256,192,81230,1,12,0:0:0:0:
256,192,81420,1,0,0:0:0:0:
256,192,81610,1,0,0:0:0:0:
256,192,81800,1,12,0:0:0:0:
256,192,81990,1,0,0:0:0:0:
256,192,82180,1,0,0:0:0:0:
256,192,82370,1,12,0:0:0:0:
256,192,82560,1,0,0:0:0:0:
256,192,82749,1,0,0:0:0:0:
256,192,82939,1,12,0:0:0:0:
256,192,83319,1,12,0:0:0:0:
256,192,83509,1,0,0:0:0:0:
256,192,83699,1,12,0:0:0:0:
256,192,83889,1,0,0:0:0:0:
256,192,84079,1,0,0:0:0:0:
256,192,84268,1,12,0:0:0:0:
256,192,84458,1,0,0:0:0:0:
256,192,84648,1,0,0:0:0:0:
256,192,84838,1,12,0:0:0:0:
256,192,85028,1,0,0:0:0:0:
256,192,85218,1,0,0:0:0:0:
256,192,85408,1,12,0:0:0:0:
256,192,85598,1,0,0:0:0:0:
256,192,85787,1,0,0:0:0:0:
256,192,85977,1,12,0:0:0:0:
256,192,86167,1,0,0:0:0:0:
256,192,86357,1,12,0:0:0:0:
256,192,86547,1,0,0:0:0:0:
256,192,86737,1,12,0:0:0:0:
256,192,86927,1,0,0:0:0:0:
256,192,87117,1,0,0:0:0:0:
256,192,87306,1,12,0:0:0:0:
256,192,87496,1,0,0:0:0:0:
256,192,87686,1,0,0:0:0:0:
256,192,87876,1,12,0:0:0:0:
256,192,88066,1,0,0:0:0:0:
256,192,88256,1,0,0:0:0:0:
256,192,88446,1,12,0:0:0:0:
256,192,88636,1,0,0:0:0:0:
256,192,88825,1,0,0:0:0:0:
256,192,88920,1,0,0:0:0:0:
256,192,89015,1,12,0:0:0:0:
256,192,89205,1,0,0:0:0:0:
256,192,89300,1,0,0:0:0:0:
256,192,89395,1,8,0:0:0:0:
256,192,89490,1,8,0:0:0:0:
256,192,89585,1,0,0:0:0:0:
256,192,89680,1,0,0:0:0:0:
256,192,89775,1,12,0:0:0:0:
256,192,90060,1,0,0:0:0:0:
256,192,90344,1,0,0:0:0:0:
256,192,90534,1,8,0:0:0:0:
256,192,90819,1,8,0:0:0:0:
256,192,91104,1,8,0:0:0:0:
256,192,91294,1,0,0:0:0:0:
256,192,91579,1,0,0:0:0:0:
256,192,91863,1,0,0:0:0:0:
256,192,92053,1,8,0:0:0:0:
256,192,92338,1,8,0:0:0:0:
256,192,92623,1,8,0:0:0:0:
256,192,92813,1,0,0:0:0:0:
256,192,93098,1,0,0:0:0:0:
256,192,93382,1,0,0:0:0:0:
256,192,93572,1,8,0:0:0:0:
256,192,93857,1,8,0:0:0:0:
256,192,94142,1,8,0:0:0:0:
256,192,94332,1,0,0:0:0:0:
256,192,94617,1,0,0:0:0:0:
256,192,94901,1,0,0:0:0:0:
256,192,95091,1,8,0:0:0:0:
256,192,95376,1,8,0:0:0:0:
256,192,95661,1,8,0:0:0:0:
256,192,95851,1,0,0:0:0:0:
256,192,96136,1,0,0:0:0:0:
256,192,96420,1,0,0:0:0:0:
256,192,96610,1,8,0:0:0:0:
256,192,96895,1,8,0:0:0:0:
256,192,97180,1,8,0:0:0:0:
256,192,97370,1,0,0:0:0:0:
256,192,97655,1,0,0:0:0:0:
256,192,97939,1,0,0:0:0:0:
256,192,98129,1,8,0:0:0:0:
256,192,98414,1,8,0:0:0:0:
256,192,98699,1,8,0:0:0:0:
256,192,98889,1,0,0:0:0:0:
256,192,99174,1,0,0:0:0:0:
256,192,99458,1,0,0:0:0:0:
256,192,99648,1,8,0:0:0:0:
256,192,99933,1,8,0:0:0:0:
256,192,100218,1,8,0:0:0:0:
256,192,100408,1,0,0:0:0:0:
256,192,100693,1,8,0:0:0:0:
256,192,100977,1,0,0:0:0:0:
256,192,101167,1,8,0:0:0:0:
256,192,101547,1,8,0:0:0:0:
256,192,101737,1,0,0:0:0:0:
256,192,101927,1,12,0:0:0:0:
256,192,102212,1,8,0:0:0:0:
256,192,102307,1,0,0:0:0:0:
256,192,102497,1,0,0:0:0:0:
256,192,102687,1,8,0:0:0:0:
256,192,102876,1,0,0:0:0:0:
256,192,102971,1,0,0:0:0:0:
256,192,103066,1,8,0:0:0:0:
256,192,103161,1,8,0:0:0:0:
256,192,103256,1,0,0:0:0:0:
256,192,103446,1,8,0:0:0:0:
256,192,103730,1,0,0:0:0:0:
256,192,103826,1,8,0:0:0:0:
256,192,104016,1,0,0:0:0:0:
256,192,104206,1,8,0:0:0:0:
256,192,104395,1,8,0:0:0:0:
256,192,104490,1,8,0:0:0:0:
256,192,104585,1,0,0:0:0:0:
256,192,104680,1,0,0:0:0:0:
256,192,104775,1,0,0:0:0:0:
256,192,104965,1,8,0:0:0:0:
256,192,105250,1,8,0:0:0:0:
256,192,105345,1,0,0:0:0:0:
256,192,105535,1,0,0:0:0:0:
256,192,105724,1,8,0:0:0:0:
256,192,105914,1,0,0:0:0:0:
256,192,106009,1,0,0:0:0:0:
256,192,106104,1,8,0:0:0:0:
256,192,106199,1,8,0:0:0:0:
256,192,106294,1,8,0:0:0:0:
256,192,106484,1,8,0:0:0:0:
256,192,106768,1,0,0:0:0:0:
256,192,106864,1,8,0:0:0:0:
256,192,107054,1,0,0:0:0:0:
256,192,107244,1,0,0:0:0:0:
256,192,107433,1,8,0:0:0:0:
256,192,107528,1,8,0:0:0:0:
256,192,107623,1,0,0:0:0:0:
256,192,107718,1,0,0:0:0:0:
256,192,107813,1,8,0:0:0:0:
256,192,108003,1,12,0:0:0:0:
256,192,108288,1,8,0:0:0:0:
256,192,108383,1,0,0:0:0:0:
256,192,108573,1,0,0:0:0:0:
256,192,108763,1,8,0:0:0:0:
256,192,108952,1,0,0:0:0:0:
256,192,109047,1,0,0:0:0:0:
256,192,109142,1,8,0:0:0:0:
256,192,109237,1,8,0:0:0:0:
256,192,109332,1,0,0:0:0:0:
256,192,109522,1,8,0:0:0:0:
256,192,109807,1,0,0:0:0:0:
256,192,109902,1,8,0:0:0:0:
256,192,110092,1,0,0:0:0:0:
256,192,110282,1,8,0:0:0:0:
256,192,110471,1,8,0:0:0:0:
256,192,110566,1,8,0:0:0:0:
256,192,110661,1,0,0:0:0:0:
256,192,110756,1,0,0:0:0:0:
256,192,110851,1,0,0:0:0:0:
256,192,111041,1,12,0:0:0:0:
256,192,111421,1,8,0:0:0:0:
256,192,111611,1,0,0:0:0:0:
256,192,111801,1,0,0:0:0:0:
256,192,111990,1,0,0:0:0:0:
256,192,112180,1,8,0:0:0:0:
256,192,112275,1,8,0:0:0:0:
256,192,112370,1,8,0:0:0:0:
256,192,112465,1,8,0:0:0:0:
256,192,112560,1,0,0:0:0:0:
256,192,112749,1,8,0:0:0:0:
256,192,112939,1,8,0:0:0:0:
256,192,113129,1,0,0:0:0:0:
256,192,113224,1,8,0:0:0:0:
256,192,113414,1,8,0:0:0:0:
256,192,113604,1,0,0:0:0:0:
256,192,113699,1,8,0:0:0:0:
256,192,113889,1,8,0:0:0:0:
