osu file format v14

[General]
AudioFilename: audio.mp3
AudioLeadIn: 0
PreviewTime: 65091
Countdown: 0
SampleSet: Normal
StackLeniency: 0.7
Mode: 1
LetterboxInBreaks: 0
WidescreenStoryboard: 0

[Editor]
Bookmarks: 3193,16863,29015,41167,53319,65471,77623,89775,101927,113889
DistanceSpacing: 0.1
BeatDivisor: 4
GridSize: 32
TimelineZoom: 1.9

[Metadata]
Title:Out of Sense
TitleUnicode:Out of Sense
Artist:Sound Souler
ArtistUnicode:Sound Souler
Creator:eiri-
Version:Kantan
Source:OverRapid
Tags:Ayyri Trynna Muse Dash Featured Artist FA BMS BOFU2017 Video Game Instrumental Electronic
BeatmapID:2451477
BeatmapSetID:1175331

[Difficulty]
HPDrainRate:8
CircleSize:2
OverallDifficulty:3
ApproachRate:10
SliderMultiplier:1.4
SliderTickRate:1

[Events]
//Background and Video events
0,0,"Out of Sense.jpg",0,5
//Break Periods
//Storyboard Layer 0 (Background)
//Storyboard Layer 1 (Fail)
//Storyboard Layer 2 (Pass)
//Storyboard Layer 3 (Foreground)
//Storyboard Layer 4 (Overlay)
//Storyboard Sound Samples

[TimingPoints]
3193,379.746835443038,4,1,0,100,1,0

[HitObjects]
256,192,3193,5,12,0:0:0:0:
256,192,3762,1,12,0:0:0:0:
256,192,4332,1,12,0:0:0:0:
256,192,4901,1,12,0:0:0:0:
256,192,5471,1,12,0:0:0:0:
256,192,6230,1,12,0:0:0:0:
256,192,6800,1,12,0:0:0:0:
256,192,7370,1,12,0:0:0:0:
256,192,7939,1,12,0:0:0:0:
256,192,8509,1,12,0:0:0:0:
256,192,9268,1,12,0:0:0:0:
256,192,9838,1,12,0:0:0:0:
256,192,10408,1,12,0:0:0:0:
256,192,10977,1,12,0:0:0:0:
256,192,11547,1,12,0:0:0:0:
256,192,12306,1,12,0:0:0:0:
256,192,12876,1,12,0:0:0:0:
256,192,13446,1,12,0:0:0:0:
256,192,14015,1,12,0:0:0:0:
256,192,14585,1,12,0:0:0:0:
256,192,14965,1,12,0:0:0:0:
256,192,16863,1,12,0:0:0:0:
256,192,17243,1,0,0:0:0:0:
256,192,17623,1,8,0:0:0:0:
256,192,18382,1,0,0:0:0:0:
256,192,19142,1,8,0:0:0:0:
256,192,19901,1,0,0:0:0:0:
256,192,21420,1,8,0:0:0:0:
256,192,22180,1,0,0:0:0:0:
256,192,22939,1,12,0:0:0:0:
256,192,23319,1,0,0:0:0:0:
256,192,23699,1,8,0:0:0:0:
256,192,24458,1,0,0:0:0:0:
256,192,25218,1,8,0:0:0:0:
256,192,25977,1,0,0:0:0:0:
256,192,27496,1,8,0:0:0:0:
256,192,28256,1,0,0:0:0:0:
256,192,29015,1,12,0:0:0:0:
256,192,29395,1,0,0:0:0:0:
256,192,29775,1,0,0:0:0:0:
256,192,30534,1,8,0:0:0:0:
256,192,31294,1,0,0:0:0:0:
256,192,32053,1,0,0:0:0:0:
256,192,32433,1,8,0:0:0:0:
256,192,32813,1,8,0:0:0:0:
256,192,33193,1,0,0:0:0:0:
256,192,33572,1,8,0:0:0:0:
256,192,35091,1,12,0:0:0:0:
256,192,35471,1,0,0:0:0:0:
256,192,35851,1,8,0:0:0:0:
256,192,36610,1,0,0:0:0:0:
256,192,37370,1,8,0:0:0:0:
256,192,38129,1,0,0:0:0:0:
256,192,38889,1,8,0:0:0:0:
256,192,39268,1,8,0:0:0:0:
256,192,39648,1,0,0:0:0:0:
256,192,40408,1,12,0:0:0:0:
256,192,41167,1,12,0:0:0:0:
256,192,42117,1,8,0:0:0:0:
256,192,42686,1,0,0:0:0:0:
256,192,43636,1,8,0:0:0:0:
256,192,44205,1,0,0:0:0:0:
256,192,45155,1,8,0:0:0:0:
256,192,45724,1,0,0:0:0:0:
256,192,46674,1,8,0:0:0:0:
256,192,47243,1,12,0:0:0:0:
256,192,48193,1,8,0:0:0:0:
256,192,48762,1,0,0:0:0:0:
256,192,49711,1,8,0:0:0:0:
256,192,50281,1,0,0:0:0:0:
256,192,51230,1,8,0:0:0:0:
256,192,51800,1,0,0:0:0:0:
256,192,52180,1,8,0:0:0:0:
256,192,53319,1,12,0:0:0:0:
256,192,53699,1,0,0:0:0:0:
256,192,54458,1,8,0:0:0:0:
256,192,54838,1,0,0:0:0:0:
256,192,55218,1,0,0:0:0:0:
256,192,55977,1,8,0:0:0:0:
256,192,56357,1,0,0:0:0:0:
256,192,57496,1,8,0:0:0:0:
256,192,57876,1,0,0:0:0:0:
256,192,58256,1,0,0:0:0:0:
256,192,59015,1,8,0:0:0:0:
256,192,59395,1,12,0:0:0:0:
256,192,59775,1,0,0:0:0:0:
256,192,60534,1,8,0:0:0:0:
256,192,60914,1,0,0:0:0:0:
256,192,61294,1,0,0:0:0:0:
256,192,62053,1,8,0:0:0:0:
256,192,62433,1,8,0:0:0:0:
256,192,63003,1,0,0:0:0:0:
256,192,63572,1,0,0:0:0:0:
256,192,63952,1,12,0:0:0:0:
256,192,65471,1,12,0:0:0:0:
256,192,65851,1,0,0:0:0:0:
256,192,66230,1,0,0:0:0:0:
256,192,66990,1,8,0:0:0:0:
256,192,67749,1,0,0:0:0:0:
256,192,68509,1,0,0:0:0:0:
256,192,68889,1,8,0:0:0:0:
256,192,69268,1,8,0:0:0:0:
256,192,69648,1,0,0:0:0:0:
256,192,70028,1,8,0:0:0:0:
256,192,71547,1,12,0:0:0:0:
256,192,71927,1,0,0:0:0:0:
256,192,72306,1,8,0:0:0:0:
256,192,73066,1,0,0:0:0:0:
256,192,73825,1,8,0:0:0:0:
256,192,74585,1,0,0:0:0:0:
256,192,75344,1,8,0:0:0:0:
256,192,75724,1,8,0:0:0:0:
256,192,76104,1,0,0:0:0:0:
256,192,77623,1,12,0:0:0:0:
256,192,78193,1,12,0:0:0:0:
256,192,78762,1,12,0:0:0:0:
256,192,79332,1,12,0:0:0:0:
256,192,79901,1,12,0:0:0:0:
256,192,80661,1,12,0:0:0:0:
256,192,81230,1,12,0:0:0:0:
256,192,81800,1,12,0:0:0:0:
256,192,82370,1,12,0:0:0:0:
256,192,82939,1,12,0:0:0:0:
256,192,83699,1,12,0:0:0:0:
256,192,84268,1,12,0:0:0:0:
256,192,84838,1,12,0:0:0:0:
256,192,85408,1,12,0:0:0:0:
256,192,85977,1,12,0:0:0:0:
256,192,86737,1,12,0:0:0:0:
256,192,87306,1,12,0:0:0:0:
256,192,87876,1,12,0:0:0:0:
256,192,88446,1,12,0:0:0:0:
256,192,89015,1,12,0:0:0:0:
256,192,89775,1,12,0:0:0:0:
256,192,91294,1,0,0:0:0:0:
256,192,92053,1,8,0:0:0:0:
256,192,92813,1,0,0:0:0:0:
256,192,93572,1,0,0:0:0:0:
256,192,94332,1,0,0:0:0:0:
256,192,95091,1,8,0:0:0:0:
256,192,95851,1,0,0:0:0:0:
256,192,97370,1,0,0:0:0:0:
256,192,98129,1,8,0:0:0:0:
256,192,98889,1,0,0:0:0:0:
256,192,99648,1,0,0:0:0:0:
256,192,100408,1,0,0:0:0:0:
256,192,101927,1,12,0:0:0:0:
256,192,102496,1,0,0:0:0:0:
256,192,103066,1,8,0:0:0:0:
256,192,103446,1,0,0:0:0:0:
256,192,104585,1,8,0:0:0:0:
256,192,104965,1,0,0:0:0:0:
256,192,105534,1,0,0:0:0:0:
256,192,106104,1,8,0:0:0:0:
256,192,106484,1,0,0:0:0:0:
256,192,107053,1,0,0:0:0:0:
256,192,107623,1,8,0:0:0:0:
256,192,108003,1,12,0:0:0:0:
256,192,109142,1,8,0:0:0:0:
256,192,109522,1,0,0:0:0:0:
256,192,110091,1,0,0:0:0:0:
256,192,110661,1,8,0:0:0:0:
256,192,111041,1,12,0:0:0:0:
256,192,111420,1,0,0:0:0:0:
256,192,111800,1,0,0:0:0:0:
256,192,112560,1,0,0:0:0:0:
256,192,112939,1,8,0:0:0:0:
256,192,113889,1,8,0:0:0:0:
