osu file format v14

[General]
AudioFilename: audio.mp3
AudioLeadIn: 0
PreviewTime: 79438
Countdown: 0
SampleSet: Soft
StackLeniency: 0.7
Mode: 0
LetterboxInBreaks: 0
WidescreenStoryboard: 0

[Editor]
Bookmarks: 1438,13438,25438,37438,49438,61438,73438,79438,91438,103438,115438,127438,139438
DistanceSpacing: 1.2
BeatDivisor: 4
GridSize: 32
TimelineZoom: 1.3

[Metadata]
Title:Gloom After Death
TitleUnicode:Gloom After Death
Artist:Sound Souler
ArtistUnicode:Sound Souler
Creator:eiri-
Version:Normal
Source:OverRapid
Tags:Ayyri Instrumental Video Game Downtempo
BeatmapID:2055516
BeatmapSetID:980331

[Difficulty]
HPDrainRate:4
CircleSize:3
OverallDifficulty:4
ApproachRate:5
SliderMultiplier:1
SliderTickRate:1

[Events]
//Background and Video events
0,0,"Gloom After Death.jpg",0,0
//Break Periods
//Storyboard Layer 0 (Background)
//Storyboard Layer 1 (Fail)
//Storyboard Layer 2 (Pass)
//Storyboard Layer 3 (Foreground)
//Storyboard Layer 4 (Overlay)
//Storyboard Sound Samples

[TimingPoints]
1438,750,4,2,1,30,1,0
13438,-80,4,2,1,40,0,0
25438,-66.6666666666667,4,2,1,50,0,0
37438,-57.1428571428571,4,2,1,75,0,0
49438,-80,4,2,1,50,0,0
61438,-100,4,2,1,40,0,0
73438,-100,4,2,1,80,0,0
76438,-100,4,2,1,50,0,0
79438,-44.4444444444445,4,2,1,85,0,1
79625,-44.4444444444445,4,2,1,85,0,0
82438,-44.4444444444445,4,2,1,85,0,1
82625,-44.4444444444445,4,2,1,85,0,0
85438,-44.4444444444445,4,2,1,85,0,1
85625,-44.4444444444445,4,2,1,85,0,0
88438,-44.4444444444445,4,2,1,85,0,1
88625,-44.4444444444445,4,2,1,85,0,0
91438,-44.4444444444445,4,2,1,85,0,1
91625,-44.4444444444445,4,2,1,85,0,0
94438,-44.4444444444445,4,2,1,85,0,1
94625,-44.4444444444445,4,2,1,85,0,0
97438,-44.4444444444445,4,2,1,85,0,1
97625,-44.4444444444445,4,2,1,85,0,0
100438,-44.4444444444445,4,2,1,85,0,1
100625,-44.4444444444445,4,2,1,85,0,0
103438,-50,4,2,1,85,0,1
103625,-50,4,2,1,75,0,0
127438,-66.6666666666667,4,2,1,60,0,0
136438,-66.6666666666667,4,2,1,50,0,0
137188,-66.6666666666667,4,2,1,40,0,0
137938,-66.6666666666667,4,2,1,30,0,0
138688,-66.6666666666667,4,2,1,40,0,0
139063,-66.6666666666667,4,2,1,50,0,0
139438,-66.6666666666667,4,2,1,80,0,0

[Colours]
Combo1 : 245,216,250
Combo2 : 169,239,199
Combo3 : 181,240,237
Combo4 : 205,166,238

[HitObjects]
394,289,1438,5,2,0:0:0:0:
394,289,2938,2,0,L|386:206,2,75,2|0|0,0:0|0:0|0:0,0:0:0:0:
345,365,4438,1,2,0:0:0:0:
345,365,7438,5,2,0:0:0:0:
345,365,8938,2,0,P|395:346|436:345,2,75,2|0|0,0:0|0:0|0:0,0:0:0:0:
257,343,10438,1,2,0:0:0:0:
257,343,13438,6,0,L|252:280,1,62.5,2|0,1:2|0:0,0:0:0:0:
249,230,14000,1,0,0:0:0:0:
249,230,14188,1,2,0:0:0:0:
111,289,14750,1,2,0:0:0:0:
111,289,16438,6,0,P|87:236|85:159,1,125,2|0,1:2|0:0,0:0:0:0:
83,169,19438,6,0,L|219:160,1,125,2|0,1:2|0:0,0:0:0:0:
286,98,20563,1,2,0:0:0:0:
377,383,21688,1,2,0:0:0:0:
481,212,22438,6,0,B|412:202|412:202|398:247|398:247|195:269,1,312.5,2|2,1:2|0:0,0:0:0:0:
117,217,24688,1,2,0:0:0:0:
45,287,25063,1,2,0:0:0:0:
3,174,25438,6,0,L|17:66,1,75.0000028610231,6|0,1:2|0:0,0:0:0:0:
24,48,26000,1,0,0:0:0:0:
24,48,26188,2,0,P|92:37|116:37,1,75.0000028610231,2|2,1:2|0:0,0:0:0:0:
202,52,26938,1,2,1:2:0:0:
164,149,27313,1,2,0:0:0:0:
239,221,27688,2,0,L|229:317,1,75.0000028610231,2|2,1:2|0:0,0:0:0:0:
228,348,28250,1,2,0:0:0:0:
228,348,28438,6,0,L|328:340,1,75.0000028610231,2|2,1:2|0:0,0:0:0:0:
404,369,29188,1,2,1:2:0:0:
458,279,29563,1,2,0:0:0:0:
396,194,29938,2,0,L|405:100,1,75.0000028610231,2|0,1:2|0:0,0:0:0:0:
401,66,30500,2,0,L|307:75,1,75.0000028610231,2|0,0:0|0:0,0:0:0:0:
273,80,31063,1,2,0:0:0:0:
205,160,31438,6,0,P|153:141|111:115,1,75.0000028610231,2|2,1:2|0:0,0:0:0:0:
47,74,32188,2,0,L|42:177,1,75.0000028610231,2|2,1:2|0:0,0:0:0:0:
24,197,32750,1,2,0:0:0:0:
24,197,32938,2,0,P|62:230|80:264,1,75.0000028610231,2|2,1:2|0:0,0:0:0:0:
100,296,33500,2,0,P|145:275|184:273,1,75.0000028610231,2|0,0:0|0:0,0:0:0:0:
222,280,34063,1,2,0:0:0:0:
302,212,34438,6,0,L|288:46,1,150.000005722046,2|2,1:2|1:2,0:0:0:0:
390,93,35563,1,2,0:0:0:0:
492,72,35938,2,0,P|485:125|481:182,1,75.0000028610231,2|0,1:2|0:0,0:0:0:0:
501,195,36500,2,0,P|508:248|512:305,1,75.0000028610231,2|0,0:0|0:0,0:0:0:0:
496,320,37063,1,2,0:0:0:0:
380,279,37438,6,0,P|316:298|254:339,1,131.250001251698,6|0,1:2|1:0,0:0:0:0:
215,373,38188,1,10,0:0:0:0:
131,283,38563,1,2,1:2:0:0:
24,343,38938,1,2,1:2:0:0:
24,343,39125,2,0,L|6:234,1,87.500000834465,8|2,0:0|1:2,0:0:0:0:
21,195,39688,1,10,0:0:0:0:
131,248,40063,2,0,L|141:182,1,43.7500004172325,2|10,1:2|0:0,0:0:0:0:
150,144,40438,6,0,P|202:146|272:207,1,131.250001251698,2|2,1:2|1:2,0:0:0:0:
287,248,41188,1,10,0:0:0:0:
230,356,41563,1,2,1:2:0:0:
350,376,41938,2,0,P|404:364|444:333,1,87.500000834465,2|0,1:2|0:0,0:0:0:0:
465,296,42500,2,0,P|413:274|379:237,1,87.500000834465,2|0,1:2|0:0,0:0:0:0:
363,198,43063,1,2,1:2:0:0:
363,198,43250,1,2,1:2:0:0:
363,198,43438,6,0,L|222:183,1,131.250001251698,6|0,1:2|1:0,0:0:0:0:
182,219,44188,1,10,0:0:0:0:
152,100,44563,1,2,1:2:0:0:
259,42,44938,6,0,P|295:45|318:57,1,43.7500004172325,2|0,0:0|1:2,0:0:0:0:
353,81,45313,1,10,0:0:0:0:
470,46,45688,1,2,1:2:0:0:
496,165,46063,2,0,L|440:176,1,43.7500004172325,2|8,1:2|0:0,0:0:0:0:
409,216,46438,2,0,L|353:205,1,43.7500004172325,2|8,1:2|0:0,0:0:0:0:
310,234,46813,1,2,1:2:0:0:
201,177,47188,5,10,0:0:0:0:
137,281,47563,2,0,L|74:274,1,43.7500004172325,2|8,1:2|0:0,0:0:0:0:
32,268,47938,2,0,P|20:230|19:197,1,43.7500004172325,2|10,1:2|0:0,0:0:0:0:
30,165,48313,1,10,0:0:0:0:
127,90,48688,2,0,L|118:9,2,65.6250006258488,10|10|10,0:0|0:0|0:0,0:0:0:0:
165,122,49438,5,6,1:2:0:0:
262,142,49813,1,0,0:0:0:0:
337,76,50188,2,0,L|410:81,1,62.5,2|0,0:0|0:0,0:0:0:0:
471,149,50938,2,0,L|480:251,2,93.75,2|2|2,0:0|0:0|0:0,0:0:0:0:
399,80,52438,5,2,0:0:0:0:
320,141,52813,2,0,L|247:137,1,62.5,2|2,0:0|0:0,0:0:0:0:
157,131,53563,1,2,0:0:0:0:
157,131,53750,1,2,0:0:0:0:
157,131,53938,2,0,P|145:79|144:50,1,62.5,2|2,0:0|0:0,0:0:0:0:
58,17,54688,2,0,P|46:69|45:98,1,62.5,2|2,0:0|0:0,0:0:0:0:
49,178,55438,5,2,0:0:0:0:
119,249,55813,1,0,0:0:0:0:
203,194,56188,2,0,L|276:188,1,62.5,2|0,0:0|0:0,0:0:0:0:
365,182,56938,2,0,P|412:158|461:157,2,93.75,2|2|2,0:0|0:0|0:0,0:0:0:0:
304,262,58438,5,2,0:0:0:0:
233,191,58813,2,0,L|157:188,1,62.5,2|2,0:0|0:0,0:0:0:0:
97,257,59563,1,2,0:0:0:0:
97,257,59750,1,2,0:0:0:0:
97,257,59938,2,0,L|21:260,1,62.5,2|2,0:0|0:0,0:0:0:0:
75,350,60688,2,0,L|151:353,1,62.5,2|2,0:0|0:0,0:0:0:0:
224,328,61438,5,6,0:0:0:0:
399,369,62188,1,2,0:0:0:0:
386,189,62938,2,0,L|395:100,2,75,2|2|2,0:0|0:0|0:0,0:0:0:0:
433,265,64438,5,2,0:0:0:0:
262,206,65188,1,2,0:0:0:0:
186,369,65938,2,0,L|122:366,1,50,2|2,0:0|0:0,0:0:0:0:
112,279,66688,2,0,L|176:282,1,50,2|2,0:0|0:0,0:0:0:0:
205,270,67250,1,2,0:0:0:0:
205,270,67438,5,2,0:0:0:0:
181,91,68188,1,2,0:0:0:0:
353,142,68938,2,0,L|437:136,2,75,2|2|2,0:0|0:0|0:0,0:0:0:0:
294,210,70438,5,2,0:0:0:0:
398,356,71188,1,2,0:0:0:0:
506,212,71938,2,0,L|500:152,1,50,2|2,0:0|0:0,0:0:0:0:
414,137,72688,2,0,L|420:77,1,50,2|2,0:0|0:0,0:0:0:0:
483,24,73438,5,2,1:2:0:0:
256,192,76438,12,0,78688,0:0:0:0:
483,24,79438,6,0,P|418:44|309:54,1,168.750006437302,6|2,1:2|1:2,0:0:0:0:
261,49,80188,1,10,0:0:0:0:
155,10,80563,1,2,1:2:0:0:
82,96,80938,1,2,1:2:0:0:
149,186,81313,2,0,L|143:262,1,56.2500021457673,2|0,1:2|0:0,0:0:0:0:
120,293,81688,2,0,L|56:285,2,56.2500021457673,10|2|2,0:0|0:0|1:2,0:0:0:0:
159,333,82250,1,10,0:0:0:0:
159,333,82438,6,0,P|228:306|350:315,1,168.750006437302,2|0,1:2|1:0,0:0:0:0:
373,328,83188,1,10,0:0:0:0:
360,216,83563,1,2,1:2:0:0:
429,127,83938,2,0,L|435:47,1,56.2500021457673,2|10,1:2|0:0,0:0:0:0:
336,12,84500,2,0,L|330:92,1,56.2500021457673,2|10,1:2|0:0,0:0:0:0:
233,123,85063,1,2,1:2:0:0:
233,123,85250,1,2,1:2:0:0:
233,123,85438,6,0,B|185:119|185:119|148:160|148:160|71:172,1,168.750006437302,2|2,1:2|1:2,0:0:0:0:
44,210,86188,1,10,0:0:0:0:
117,294,86563,1,0,1:0:0:0:
213,236,86938,1,2,1:2:0:0:
322,263,87313,2,0,L|398:250,1,56.2500021457673,2|0,1:2|0:0,0:0:0:0:
421,217,87688,2,0,L|413:153,2,56.2500021457673,10|2|2,0:0|0:0|1:2,0:0:0:0:
467,248,88250,1,10,0:0:0:0:
467,248,88438,6,0,P|444:320|351:378,1,168.750006437302,2|0,1:2|1:0,0:0:0:0:
314,370,89188,1,10,0:0:0:0:
241,284,89563,1,2,1:2:0:0:
136,326,89938,2,0,L|130:246,1,56.2500021457673,2|10,1:2|0:0,0:0:0:0:
217,196,90500,2,0,L|223:276,1,56.2500021457673,2|10,1:2|0:0,0:0:0:0:
326,293,91063,1,2,1:2:0:0:
326,293,91250,1,2,1:2:0:0:
326,293,91438,6,0,B|354:247|354:247|334:114,1,168.750006437302,6|2,1:2|1:2,0:0:0:0:
327,77,92188,1,10,0:0:0:0:
227,25,92563,1,0,1:0:0:0:
131,84,92938,1,2,1:2:0:0:
227,143,93313,2,0,L|223:222,1,56.2500021457673,2|0,1:2|0:0,0:0:0:0:
243,252,93688,2,0,P|282:236|301:234,2,56.2500021457673,10|2|2,0:0|0:0|1:2,0:0:0:0:
213,299,94250,1,10,0:0:0:0:
213,299,94438,6,0,P|141:316|29:299,1,168.750006437302,2|0,1:2|1:0,0:0:0:0:
3,271,95188,1,10,0:0:0:0:
83,192,95563,1,2,1:2:0:0:
15,102,95938,2,0,L|5:34,1,56.2500021457673,2|10,1:2|0:0,0:0:0:0:
113,9,96500,2,0,L|123:77,1,56.2500021457673,2|10,1:2|0:0,0:0:0:0:
148,174,97063,1,2,1:2:0:0:
148,174,97250,1,2,1:2:0:0:
148,174,97438,6,0,P|194:224|242:323,1,168.750006437302,2|2,1:2|1:2,0:0:0:0:
242,369,98188,1,10,0:0:0:0:
346,326,98563,1,0,1:0:0:0:
448,371,98938,2,0,L|515:360,1,56.2500021457673,2|2,1:2|1:2,0:0:0:0:
504,305,99313,2,0,P|467:252|379:230,1,112.500004291535,10|2,0:0|1:2,0:0:0:0:
312,222,100063,2,0,L|301:155,1,56.2500021457673,2|10,1:2|0:0,0:0:0:0:
298,110,100438,6,0,L|364:94,2,56.2500021457673,2|10|2,1:2|0:0|1:2,0:0:0:0:
247,8,101188,1,10,0:0:0:0:
136,29,101563,2,0,L|145:99,1,56.2500021457673,2|10,1:2|0:0,0:0:0:0:
179,128,101938,2,0,L|170:198,1,56.2500021457673,2|10,1:2|0:0,0:0:0:0:
166,239,102313,1,10,0:0:0:0:
200,346,102688,2,0,L|296:356,2,84.3750032186509,10|10|10,0:0|0:0|0:0,0:0:0:0:
148,376,103438,5,6,1:2:0:0:
54,300,103813,2,0,L|48:248,1,50,2|2,0:0|1:2,0:0:0:0:
42,190,104188,2,0,P|79:141|131:135,1,100,10|0,0:0|1:0,0:0:0:0:
173,140,104750,1,2,0:0:0:0:
173,140,104938,2,0,L|179:88,1,50,2|0,1:2|0:0,0:0:0:0:
184,30,105313,1,0,1:0:0:0:
283,87,105688,2,0,P|347:97|419:91,1,100,10|2,0:0|1:2,0:0:0:0:
441,88,106250,1,10,0:0:0:0:
441,88,106438,6,0,L|427:214,1,100,2|0,1:2|0:0,0:0:0:0:
444,245,107000,1,0,1:0:0:0:
444,245,107188,1,10,0:0:0:0:
352,322,107563,1,2,1:2:0:0:
256,248,107938,2,0,L|191:244,1,50,2|10,1:2|0:0,0:0:0:0:
103,307,108500,2,0,L|38:303,1,50,2|10,1:2|0:0,0:0:0:0:
12,190,109063,1,2,1:2:0:0:
12,190,109250,1,2,1:2:0:0:
12,190,109438,6,0,P|67:152|168:135,1,150,2|2,1:2|1:2,0:0:0:0:
206,144,110188,1,8,0:0:0:0:
252,33,110563,1,2,1:2:0:0:
362,79,110938,2,0,L|484:66,1,100,2|0,1:2|1:0,0:0:0:0:
414,178,111688,2,0,L|292:191,1,100,10|2,0:0|1:2,0:0:0:0:
256,201,112250,1,10,0:0:0:0:
256,201,112438,6,0,P|230:286|237:324,1,100,2|2,1:2|1:2,0:0:0:0:
246,353,113000,1,2,1:2:0:0:
246,353,113188,1,10,0:0:0:0:
360,316,113563,1,2,1:2:0:0:
474,351,113938,2,0,L|481:275,1,50,2|10,1:2|0:0,0:0:0:0:
416,198,114500,2,0,L|409:122,1,50,2|10,1:2|0:0,0:0:0:0:
483,51,115063,1,2,1:2:0:0:
483,51,115250,1,2,1:2:0:0:
483,51,115438,6,0,P|421:62|320:26,1,150,2|2,1:2|1:2,0:0:0:0:
287,7,116188,2,0,P|315:61|321:122,1,100,10|0,0:0|1:0,0:0:0:0:
302,155,116750,1,2,0:0:0:0:
302,155,116938,2,0,L|250:149,1,50,0|0,1:0|0:0,0:0:0:0:
192,144,117313,1,0,1:0:0:0:
116,50,117688,2,0,P|52:40|-20:46,1,100,10|0,0:0|1:0,0:0:0:0:
25,99,118250,1,10,0:0:0:0:
25,99,118438,6,0,L|39:225,1,100,2|0,1:2|0:0,0:0:0:0:
22,256,119000,1,0,1:0:0:0:
22,256,119188,1,10,0:0:0:0:
133,300,119563,1,2,1:2:0:0:
208,206,119938,2,0,L|273:202,1,50,2|10,1:2|0:0,0:0:0:0:
368,246,120500,2,0,L|433:242,1,50,2|10,1:2|0:0,0:0:0:0:
480,140,121063,1,2,1:2:0:0:
480,140,121250,1,2,1:2:0:0:
480,140,121438,6,0,P|417:94|318:101,1,150,2|0,1:2|1:0,0:0:0:0:
297,124,122188,1,10,0:0:0:0:
348,232,122563,1,2,1:2:0:0:
270,324,122938,2,0,L|208:336,2,50,2|2|10,1:2|1:2|0:0,0:0:0:0:
210,219,123688,2,0,L|79:193,1,100,0|2,1:0|1:2,0:0:0:0:
53,185,124250,1,10,0:0:0:0:
53,185,124438,6,0,L|42:103,1,50,2|10,1:2|0:0,0:0:0:0:
62,77,124813,1,2,1:2:0:0:
165,16,125188,1,10,0:0:0:0:
229,117,125563,1,2,1:2:0:0:
307,26,125938,2,0,L|383:19,1,50,2|10,1:2|0:0,0:0:0:0:
408,52,126313,1,10,0:0:0:0:
408,52,126500,1,2,1:2:0:0:
408,52,126688,2,0,P|397:107|384:146,2,75,10|10|10,0:0|0:0|0:0,0:0:0:0:
459,43,127438,6,0,P|490:89|502:133,1,75.0000028610231,6|2,1:2|0:0,0:0:0:0:
512,157,128000,1,0,0:0:0:0:
512,157,128188,1,2,0:0:0:0:
457,304,128750,1,2,0:0:0:0:
210,217,129688,1,2,0:0:0:0:
74,297,130250,1,2,0:0:0:0:
74,297,130438,6,0,L|47:178,1,112.500004291535,2|0,0:0|0:0,0:0:0:0:
38,135,131188,2,0,P|77:115|119:114,1,75.0000028610231,0|2,0:0|0:0,0:0:0:0:
199,162,131938,2,0,P|231:180|268:184,1,75.0000028610231,0|0,0:0|0:0,0:0:0:0:
372,171,132688,1,2,0:0:0:0:
419,77,133063,2,0,L|409:17,1,37.5000014305115,2|0,0:0|0:0,0:0:0:0:
368,10,133438,6,0,P|318:33|281:63,1,75.0000028610231,2|0,0:0|0:0,0:0:0:0:
265,81,134000,1,0,0:0:0:0:
265,81,134188,2,0,L|160:72,1,75.0000028610231,0|2,0:0|0:0,0:0:0:0:
85,69,134938,2,0,P|90:130|100:166,1,75.0000028610231,2|0,0:0|0:0,0:0:0:0:
137,238,135688,2,0,P|172:224|208:217,1,75.0000028610231,2|0,0:0|0:0,0:0:0:0:
312,227,136438,6,0,P|295:164|288:69,1,150.000005722046,2|2,0:0|0:0,0:0:0:0:
372,17,137563,1,0,0:0:0:0:
452,84,137938,2,0,L|432:247,1,150.000005722046,2|2,0:0|0:0,0:0:0:0:
328,223,139063,1,0,0:0:0:0:
279,316,139438,5,6,1:2:0:0:
