osu file format v14

[General]
AudioFilename: audio.mp3
AudioLeadIn: 0
PreviewTime: 79438
Countdown: 0
SampleSet: Soft
StackLeniency: 0.5
Mode: 0
LetterboxInBreaks: 0
WidescreenStoryboard: 1

[Editor]
Bookmarks: 1438,13438,25438,37438,49438,61438,73438,79438,91438,103438,115438,127438,139438
DistanceSpacing: 1.3
BeatDivisor: 4
GridSize: 32
TimelineZoom: 1.3

[Metadata]
Title:Gloom After Death
TitleUnicode:Gloom After Death
Artist:Sound Souler
ArtistUnicode:Sound Souler
Creator:eiri-
Version:Insane
Source:OverRapid
Tags:Ayyri Instrumental Video Game Downtempo
BeatmapID:2241291
BeatmapSetID:980331

[Difficulty]
HPDrainRate:5
CircleSize:4
OverallDifficulty:7.5
ApproachRate:8
SliderMultiplier:1.3
SliderTickRate:1

[Events]
//Background and Video events
0,0,"Gloom After Death.jpg",0,0
//Break Periods
//Storyboard Layer 0 (Background)
//Storyboard Layer 1 (Fail)
//Storyboard Layer 2 (Pass)
//Storyboard Layer 3 (Foreground)
//Storyboard Layer 4 (Overlay)
//Storyboard Sound Samples

[TimingPoints]
1438,750,4,2,1,30,1,0
13438,-80,4,2,1,40,0,0
25438,-66.6666666666667,4,2,1,50,0,0
37438,-57.1428571428571,4,2,1,75,0,0
49438,-80,4,2,1,50,0,0
61438,-100,4,2,1,40,0,0
73438,-400,4,2,1,80,0,0
73625,-400,4,2,1,5,0,0
76438,-400,4,2,1,50,0,0
79438,-44.4444444444445,4,2,1,85,0,1
79625,-44.4444444444445,4,2,1,85,0,0
82438,-44.4444444444445,4,2,1,85,0,1
82625,-44.4444444444445,4,2,1,85,0,0
85438,-44.4444444444445,4,2,1,85,0,1
85625,-44.4444444444445,4,2,1,85,0,0
88438,-44.4444444444445,4,2,1,85,0,1
88625,-44.4444444444445,4,2,1,85,0,0
91438,-44.4444444444445,4,2,1,85,0,1
91625,-44.4444444444445,4,2,1,85,0,0
94438,-44.4444444444445,4,2,1,85,0,1
94625,-44.4444444444445,4,2,1,85,0,0
97438,-44.4444444444445,4,2,1,85,0,1
97625,-44.4444444444445,4,2,1,85,0,0
100438,-44.4444444444445,4,2,1,85,0,1
100625,-44.4444444444445,4,2,1,85,0,0
103438,-50,4,2,1,85,0,1
103625,-50,4,2,1,75,0,0
127438,-66.6666666666667,4,2,1,60,0,0
136438,-66.6666666666667,4,2,1,50,0,0
137188,-66.6666666666667,4,2,1,40,0,0
137938,-66.6666666666667,4,2,1,30,0,0
138688,-66.6666666666667,4,2,1,40,0,0
139063,-66.6666666666667,4,2,1,50,0,0
139438,-66.6666666666667,4,2,1,80,0,0

[Colours]
Combo1 : 238,189,247
Combo2 : 130,232,173
Combo3 : 146,233,228
Combo4 : 205,166,238

[HitObjects]
416,320,1438,5,2,0:0:0:0:
413,294,2938,2,0,P|420:234|432:186,2,97.5,2|0|0,0:0|0:0|0:0,0:0:0:0:
494,370,4438,1,2,0:0:0:0:
494,370,7438,5,2,0:0:0:0:
470,349,8938,2,0,L|364:361,2,97.5,2|0|0,0:0|0:0|0:0,0:0:0:0:
508,265,10438,1,2,0:0:0:0:
508,265,13438,6,0,L|499:194,1,40.625,2|0,1:2|0:0,0:0:0:0:
485,126,13813,1,0,0:0:0:0:
442,152,14000,1,0,0:0:0:0:
366,121,14188,1,2,0:0:0:0:
269,200,14750,1,2,0:0:0:0:
269,200,16438,6,0,P|318:216|413:234,1,121.875,2|0,1:2|0:0,0:0:0:0:
470,211,17188,1,0,0:0:0:0:
470,211,19438,6,0,L|448:76,1,121.875,2|0,1:2|0:0,0:0:0:0:
455,42,20188,1,0,0:0:0:0:
320,96,20563,1,2,0:0:0:0:
344,19,21688,1,2,0:0:0:0:
344,19,22438,6,0,B|365:51|365:51|352:132,1,101.5625,2|2,1:2|0:0,0:0:0:0:
331,243,23188,1,2,0:0:0:0:
208,191,23469,6,0,L|216:236,1,40.625,2|2,0:0|0:0,0:0:0:0:
200,276,23844,1,2,0:0:0:0:
67,212,24125,5,2,0:0:0:0:
86,163,24313,1,2,0:0:0:0:
115,333,24688,5,2,0:0:0:0:
131,323,25063,1,2,0:0:0:0:
147,313,25438,6,0,P|218:333|272:341,1,97.50000371933,6|0,1:2|0:0,0:0:0:0:
325,307,26000,1,0,0:0:0:0:
320,266,26188,2,0,L|329:209,1,48.750001859665,2|0,1:2|0:0,0:0:0:0:
467,168,26563,1,2,0:0:0:0:
467,168,26750,1,2,0:0:0:0:
467,168,26938,6,0,L|446:109,1,48.750001859665,2|0,1:2|0:0,0:0:0:0:
334,35,27313,2,0,L|313:94,1,48.750001859665,2|0,0:0|0:0,0:0:0:0:
260,218,27688,1,2,1:2:0:0:
260,218,27875,1,0,0:0:0:0:
208,143,28063,1,2,0:0:0:0:
133,195,28250,1,2,0:0:0:0:
211,308,28438,6,0,P|156:339|107:353,1,97.50000371933,2|2,1:2|0:0,0:0:0:0:
21,309,29000,1,2,0:0:0:0:
31,285,29188,2,0,P|57:263|90:249,1,48.750001859665,2|0,1:2|0:0,0:0:0:0:
107,154,29563,2,0,P|136:170|161:197,1,48.750001859665,2|2,0:0|0:0,0:0:0:0:
36,244,29938,6,0,L|22:178,1,48.750001859665,2|0,1:2|0:0,0:0:0:0:
42,277,30313,1,0,0:0:0:0:
157,132,30500,6,0,L|147:180,1,48.750001859665,2|0,0:0|1:0,0:0:0:0:
141,213,30875,1,0,0:0:0:0:
65,77,31063,6,0,L|51:11,1,48.750001859665,2|0,0:0|0:0,0:0:0:0:
86,174,31438,5,2,1:2:0:0:
121,149,31625,1,0,0:0:0:0:
200,190,31813,2,0,L|190:265,1,48.750001859665,2|2,0:0|0:0,0:0:0:0:
174,352,32188,1,2,1:2:0:0:
164,319,32375,2,0,L|87:331,2,48.750001859665,2|0|0,0:0|0:0|0:0,0:0:0:0:
281,229,32938,6,0,L|358:241,1,48.750001859665,2|0,1:2|0:0,0:0:0:0:
269,261,33313,1,2,0:0:0:0:
260,146,33500,2,0,L|270:63,1,48.750001859665,2|0,0:0|1:0,0:0:0:0:
272,0,33875,1,0,0:0:0:0:
347,43,34063,1,2,0:0:0:0:
251,103,34250,1,2,0:0:0:0:
133,46,34438,6,0,L|147:148,1,97.50000371933,2|2,1:2|0:0,0:0:0:0:
117,245,35000,1,2,0:0:0:0:
117,245,35188,2,0,P|156:227|186:224,1,48.750001859665,2|0,1:2|0:0,0:0:0:0:
101,384,35563,2,0,P|77:376|56:364,1,48.750001859665,2|2,0:0|0:0,0:0:0:0:
236,321,35938,6,0,L|228:377,1,48.750001859665,2|0,1:2|0:0,0:0:0:0:
221,296,36313,1,0,0:0:0:0:
341,242,36500,6,0,L|349:298,1,48.750001859665,2|0,0:0|1:0,0:0:0:0:
356,217,36875,1,0,0:0:0:0:
225,148,37063,6,0,L|217:204,1,48.750001859665,2|0,0:0|0:0,0:0:0:0:
391,74,37438,6,0,B|368:120|368:120|281:109,1,113.750001084805,6|0,1:2|0:0,0:0:0:0:
189,96,38000,1,0,1:0:0:0:
340,27,38188,2,0,L|350:93,1,56.8750005424023,10|0,0:0|0:0,0:0:0:0:
376,222,38563,1,2,1:2:0:0:
387,199,38750,1,0,0:0:0:0:
265,235,38938,5,2,1:2:0:0:
452,283,39125,2,0,L|442:349,1,56.8750005424023,8|2,0:0|0:0,0:0:0:0:
365,245,39500,1,2,1:2:0:0:
499,147,39688,2,0,L|509:213,1,56.8750005424023,10|0,0:0|0:0,0:0:0:0:
416,101,40063,1,2,1:2:0:0:
374,217,40250,1,10,0:0:0:0:
426,73,40438,6,0,B|341:90|341:90|325:39,1,113.750001084805,2|2,1:2|0:0,0:0:0:0:
382,1,41000,1,2,1:2:0:0:
305,169,41188,2,0,L|216:159,1,56.8750005424023,10|0,0:0|0:0,0:0:0:0:
126,151,41563,1,2,1:2:0:0:
150,186,41750,1,0,0:0:0:0:
86,267,41938,6,0,L|76:190,1,56.8750005424023,2|8,1:2|0:0,0:0:0:0:
155,328,42313,1,0,0:0:0:0:
177,178,42500,6,0,L|187:101,1,56.8750005424023,2|8,1:2|0:0,0:0:0:0:
108,239,42875,1,0,0:0:0:0:
270,289,43063,1,2,1:2:0:0:
270,289,43250,1,2,1:2:0:0:
301,196,43438,6,0,L|159:225,1,113.750001084805,6|0,1:2|0:0,0:0:0:0:
259,280,44000,1,0,1:0:0:0:
281,115,44188,2,0,L|291:38,1,56.8750005424023,10|0,0:0|0:0,0:0:0:0:
278,155,44563,1,2,1:2:0:0:
243,133,44750,1,0,0:0:0:0:
177,178,44938,5,2,0:0:0:0:
68,147,45125,1,0,1:2:0:0:
264,92,45313,2,0,L|274:15,1,56.8750005424023,10|2,0:0|0:0,0:0:0:0:
166,95,45688,2,0,L|176:172,1,56.8750005424023,2|0,1:2|0:0,0:0:0:0:
153,6,46063,5,2,1:2:0:0:
65,113,46250,1,8,0:0:0:0:
146,19,46438,5,2,1:2:0:0:
58,126,46625,1,8,0:0:0:0:
139,32,46813,5,2,1:2:0:0:
202,84,47000,1,2,0:0:0:0:
357,35,47188,2,0,L|456:53,1,56.8750005424023,10|0,0:0|0:0,0:0:0:0:
436,216,47563,5,2,1:2:0:0:
413,65,47750,1,8,0:0:0:0:
436,235,47938,5,2,1:2:0:0:
413,84,48125,1,10,0:0:0:0:
355,142,48313,1,10,0:0:0:0:
494,177,48500,1,0,1:0:0:0:
349,323,48688,5,10,0:0:0:0:
357,290,48969,5,10,0:0:0:0:
349,257,49250,5,10,0:0:0:0:
268,287,49438,5,6,1:2:0:0:
439,256,49813,1,0,0:0:0:0:
391,176,50188,2,0,L|400:114,1,40.625,2|0,0:0|0:0,0:0:0:0:
319,74,50563,2,0,L|310:136,1,40.625,2|2,0:0|0:0,0:0:0:0:
290,249,50938,2,0,L|430:218,2,121.875,2|2|2,0:0|0:0|0:0,0:0:0:0:
134,209,52438,5,2,0:0:0:0:
144,170,52813,2,0,L|134:113,1,40.625,2|0,0:0|0:0,0:0:0:0:
119,33,53188,1,2,0:0:0:0:
151,40,53375,1,0,0:0:0:0:
231,80,53563,1,2,0:0:0:0:
263,73,53750,1,2,0:0:0:0:
273,86,53938,6,0,L|268:146,1,40.625,2|0,0:0|0:0,0:0:0:0:
221,218,54313,2,0,L|226:278,1,40.625,2|2,0:0|0:0,0:0:0:0:
237,376,54688,1,2,0:0:0:0:
237,376,54875,1,0,0:0:0:0:
303,325,55063,1,2,0:0:0:0:
200,289,55250,1,2,0:0:0:0:
85,372,55438,5,2,0:0:0:0:
95,344,55813,2,0,L|83:281,1,40.625,0|0,0:0|0:0,0:0:0:0:
68,199,56188,1,2,0:0:0:0:
100,215,56375,1,0,0:0:0:0:
182,208,56563,1,2,0:0:0:0:
235,146,56750,1,2,0:0:0:0:
227,110,56938,2,0,P|168:94|89:103,2,121.875,2|2|2,0:0|0:0|0:0,0:0:0:0:
345,205,58438,5,2,0:0:0:0:
412,131,58813,1,2,0:0:0:0:
412,131,59000,1,0,0:0:0:0:
412,131,59188,2,0,L|418:69,1,40.625,2|0,0:0|0:0,0:0:0:0:
331,40,59563,2,0,L|337:-22,1,40.625,2|2,0:0|0:0,0:0:0:0:
324,117,59938,5,2,0:0:0:0:
298,145,60125,1,0,0:0:0:0:
237,99,60313,1,2,0:0:0:0:
268,125,60500,1,2,0:0:0:0:
213,210,60688,1,2,0:0:0:0:
242,299,60875,1,0,0:0:0:0:
245,184,61063,1,2,0:0:0:0:
201,317,61250,1,2,0:0:0:0:
268,373,61438,5,6,0:0:0:0:
380,319,62188,1,2,0:0:0:0:
445,359,62563,1,0,0:0:0:0:
491,269,62938,2,0,P|448:296|404:351,2,97.5,2|2|2,0:0|0:0|0:0,0:0:0:0:
486,289,64438,5,2,0:0:0:0:
347,213,65188,1,2,0:0:0:0:
422,162,65563,1,0,0:0:0:0:
501,207,65938,2,0,L|511:155,1,32.5,2|0,0:0|0:0,0:0:0:0:
498,132,66313,1,2,0:0:0:0:
344,131,66688,2,0,L|334:79,1,32.5,2|0,0:0|0:0,0:0:0:0:
347,56,67063,1,2,0:0:0:0:
347,56,67250,1,2,0:0:0:0:
341,80,67438,5,2,0:0:0:0:
186,49,68188,1,2,0:0:0:0:
203,132,68563,1,0,0:0:0:0:
125,215,68938,2,0,L|24:206,2,97.5,2|2|2,0:0|0:0|0:0,0:0:0:0:
171,276,70438,5,2,0:0:0:0:
352,192,71188,1,2,0:0:0:0:
307,261,71563,1,0,0:0:0:0:
205,180,71938,2,0,L|220:125,1,32.5,2|0,0:0|0:0,0:0:0:0:
241,61,72313,1,2,0:0:0:0:
241,61,72688,2,0,L|184:66,1,32.5,2|0,0:0|0:0,0:0:0:0:
117,75,73063,1,2,0:0:0:0:
111,108,73250,1,2,0:0:0:0:
124,134,73438,6,0,L|115:236,1,97.5,2|0,1:2|0:0,0:0:0:0:
256,192,76438,12,0,79063,0:0:0:0:
256,192,79438,5,6,1:2:0:0:
299,263,79625,2,0,L|278:106,1,146.250005578995,0|2,1:0|1:2,0:0:0:0:
306,31,80188,1,10,0:0:0:0:
284,108,80375,1,2,0:0:0:0:
320,0,80563,1,2,1:2:0:0:
320,0,80938,6,0,L|396:13,1,73.1250027894975,2|0,1:2|0:0,0:0:0:0:
233,53,81313,1,2,1:2:0:0:
452,90,81688,1,10,0:0:0:0:
371,115,81875,1,2,0:0:0:0:
398,241,82063,1,2,1:2:0:0:
479,216,82250,1,10,0:0:0:0:
402,82,82438,6,0,L|375:311,1,219.375008368492,2|0,1:2|1:0,0:0:0:0:
363,151,83188,1,10,0:0:0:0:
366,186,83375,1,2,0:0:0:0:
378,331,83563,1,2,1:2:0:0:
461,246,83938,5,2,1:2:0:0:
276,193,84125,1,10,0:0:0:0:
279,224,84500,5,2,1:2:0:0:
464,171,84687,1,10,0:0:0:0:
445,368,85063,5,2,1:2:0:0:
445,368,85250,1,2,1:2:0:0:
492,289,85438,6,0,P|429:346|281:352,1,219.375008368492,2|2,1:2|1:2,0:0:0:0:
199,302,86188,1,10,0:0:0:0:
398,241,86563,1,0,1:0:0:0:
289,377,86938,1,2,1:2:0:0:
321,135,87313,1,2,1:2:0:0:
501,309,87688,5,10,0:0:0:0:
483,209,87875,1,2,0:0:0:0:
358,240,88063,1,2,1:2:0:0:
376,339,88250,1,10,0:0:0:0:
496,184,88438,6,0,B|483:141|434:130|434:130|408:208|331:203,1,219.375008368492,2|0,1:2|1:0,0:0:0:0:
229,168,89188,1,10,0:0:0:0:
262,146,89375,1,2,0:0:0:0:
305,287,89563,1,2,1:2:0:0:
314,72,89938,5,2,1:2:0:0:
170,31,90125,1,10,0:0:0:0:
197,45,90500,5,2,1:2:0:0:
341,4,90687,1,10,0:0:0:0:
338,186,91063,5,2,1:2:0:0:
338,186,91250,1,2,1:2:0:0:
350,151,91438,5,6,1:2:0:0:
300,72,91625,2,0,L|317:260,1,146.250005578995,0|2,1:0|1:2,0:0:0:0:
327,342,92188,1,10,0:0:0:0:
344,162,92563,1,0,1:0:0:0:
160,203,92938,1,2,1:2:0:0:
190,167,93313,2,0,L|97:178,1,73.1250027894975,2|0,1:2|0:0,0:0:0:0:
19,121,93688,5,10,0:0:0:0:
39,46,93875,1,2,0:0:0:0:
193,75,94063,5,2,1:2:0:0:
173,0,94250,1,10,0:0:0:0:
145,156,94438,6,0,B|232:195|232:195|368:157,1,219.375008368492,2|0,1:2|1:0,0:0:0:0:
455,119,95188,1,10,0:0:0:0:
365,83,95375,1,2,0:0:0:0:
337,239,95563,1,2,1:2:0:0:
351,161,95938,5,2,1:2:0:0:
320,20,96125,1,10,0:0:0:0:
342,59,96500,5,2,1:2:0:0:
311,200,96687,1,10,0:0:0:0:
145,156,97063,5,2,1:2:0:0:
145,156,97250,1,2,1:2:0:0:
202,91,97438,6,0,P|163:178|145:313,1,219.375008368492,2|2,1:2|1:2,0:0:0:0:
204,380,98188,1,10,0:0:0:0:
133,188,98563,1,0,1:0:0:0:
262,210,98938,5,2,1:2:0:0:
228,121,99125,1,2,1:2:0:0:
76,244,99313,1,10,0:0:0:0:
296,299,99688,1,2,1:2:0:0:
310,212,100063,5,2,1:2:0:0:
193,334,100250,1,10,0:0:0:0:
219,241,100438,5,2,1:2:0:0:
321,316,100625,2,0,B|413:301,1,73.1250027894975,10|2,0:0|1:2,0:0:0:0:
393,304,101188,1,10,0:0:0:0:
469,360,101563,5,2,1:2:0:0:
410,178,101750,1,10,0:0:0:0:
459,332,101938,5,2,1:2:0:0:
492,135,102125,1,10,0:0:0:0:
492,135,102313,1,10,0:0:0:0:
375,159,102500,1,2,1:2:0:0:
476,260,102688,5,10,0:0:0:0:
443,254,102969,5,10,0:0:0:0:
414,272,103250,5,10,0:0:0:0:
459,332,103438,6,0,L|485:226,2,65,6|2|2,1:2|0:0|0:0,0:0:0:0:
447,375,104000,1,2,1:2:0:0:
410,178,104188,2,0,P|342:203|244:219,1,130,10|0,0:0|1:0,0:0:0:0:
190,188,104750,1,2,0:0:0:0:
282,121,104938,5,2,1:2:0:0:
253,295,105313,1,0,1:0:0:0:
204,80,105688,1,10,0:0:0:0:
376,177,106063,1,2,1:2:0:0:
293,203,106250,1,10,0:0:0:0:
418,273,106438,6,0,P|415:163|388:77,1,195,2|0,1:2|1:0,0:0:0:0:
329,3,107188,1,10,0:0:0:0:
321,34,107375,1,2,0:0:0:0:
203,70,107563,1,2,1:2:0:0:
246,293,107938,5,2,1:2:0:0:
267,138,108125,1,10,0:0:0:0:
279,170,108500,5,2,1:2:0:0:
300,325,108687,1,10,0:0:0:0:
466,271,108969,5,2,0:0:0:0:
459,288,109063,1,2,1:2:0:0:
360,232,109250,1,2,1:2:0:0:
277,364,109438,6,0,B|216:323|216:323|271:173,1,195,2|2,1:2|1:2,0:0:0:0:
405,146,110188,1,8,0:0:0:0:
168,107,110563,1,2,1:2:0:0:
323,79,110938,1,2,1:2:0:0:
250,174,111313,1,0,1:0:0:0:
283,0,111688,5,10,0:0:0:0:
183,141,112063,1,2,1:2:0:0:
168,57,112250,1,10,0:0:0:0:
309,99,112438,6,0,B|316:156|316:156|280:198|280:198|292:310,1,195,2|0,1:2|1:0,0:0:0:0:
301,384,113188,1,10,0:0:0:0:
325,355,113375,1,2,0:0:0:0:
275,264,113563,1,2,1:2:0:0:
97,341,113938,5,2,1:2:0:0:
126,173,114125,1,10,0:0:0:0:
133,210,114500,5,2,1:2:0:0:
162,378,114687,1,10,0:0:0:0:
420,338,115063,5,2,1:2:0:0:
420,338,115250,1,2,1:2:0:0:
401,240,115438,6,0,L|413:317,2,65,2|2|2,1:2|0:0|0:0,0:0:0:0:
417,194,116000,1,2,1:2:0:0:
350,101,116188,2,0,P|398:150|436:43,1,195,10|2,0:0|0:0,0:0:0:0:
340,54,116938,1,0,1:0:0:0:
501,200,117313,1,0,1:0:0:0:
274,265,117688,1,10,0:0:0:0:
312,129,118063,1,0,1:0:0:0:
211,55,118250,1,10,0:0:0:0:
211,55,118438,6,0,B|231:87|231:87|213:252,1,195,2|0,1:2|1:0,0:0:0:0:
189,168,119188,1,10,0:0:0:0:
198,183,119375,1,2,0:0:0:0:
330,160,119563,1,2,1:2:0:0:
80,137,119938,5,2,1:2:0:0:
129,0,120125,1,10,0:0:0:0:
149,46,120500,5,2,1:2:0:0:
198,183,120687,1,10,0:0:0:0:
55,123,121063,5,2,1:2:0:0:
55,123,121250,1,2,1:2:0:0:
131,85,121438,6,0,P|79:146|50:261,1,195,2|0,1:2|1:0,0:0:0:0:
168,195,122188,1,10,0:0:0:0:
202,383,122563,1,2,1:2:0:0:
295,286,122938,1,2,1:2:0:0:
266,250,123125,1,2,1:2:0:0:
159,298,123313,1,10,0:0:0:0:
378,370,123688,5,0,1:0:0:0:
322,173,124063,1,2,1:2:0:0:
298,264,124250,1,10,0:0:0:0:
271,105,124438,5,2,1:2:0:0:
422,34,124625,1,10,0:0:0:0:
393,101,124813,1,2,1:2:0:0:
157,34,125188,5,10,0:0:0:0:
216,247,125563,1,2,1:2:0:0:
271,105,125750,1,10,0:0:0:0:
230,221,125938,1,2,1:2:0:0:
356,198,126125,5,10,0:0:0:0:
356,198,126313,1,10,0:0:0:0:
374,303,126500,1,2,1:2:0:0:
512,278,126688,5,10,0:0:0:0:
483,264,126969,5,10,0:0:0:0:
454,278,127250,5,10,0:0:0:0:
485,345,127438,6,0,L|500:259,1,48.750001859665,6|2,1:2|0:0,0:0:0:0:
468,192,127813,1,2,0:0:0:0:
468,192,128000,1,0,0:0:0:0:
448,233,128188,1,2,0:0:0:0:
433,85,128750,1,2,0:0:0:0:
433,85,129688,2,0,P|381:127|273:131,1,146.250005578995,2|2,0:0|0:0,0:0:0:0:
213,108,130438,5,2,0:0:0:0:
304,138,131563,1,2,0:0:0:0:
213,108,132688,5,2,0:0:0:0:
298,152,133063,1,2,0:0:0:0:
274,278,133438,1,2,0:0:0:0:
307,128,134188,5,0,0:0:0:0:
209,146,134563,1,2,0:0:0:0:
398,218,134938,1,2,0:0:0:0:
323,148,135313,1,0,0:0:0:0:
268,300,135688,2,0,L|149:314,1,97.50000371933,2|0,0:0|0:0,0:0:0:0:
71,255,136438,6,0,P|153:259|197:362,1,195.00000743866,2|2,0:0|0:0,0:0:0:0:
199,384,137563,1,0,0:0:0:0:
199,384,137938,2,0,P|319:365|420:322,1,195.00000743866,2|2,0:0|0:0,0:0:0:0:
457,281,139063,1,0,0:0:0:0:
311,242,139438,5,6,1:2:0:0:
