osu file format v14

[General]
AudioFilename: audio.mp3
AudioLeadIn: 0
PreviewTime: 79438
Countdown: 0
SampleSet: Soft
StackLeniency: 0.7
Mode: 0
LetterboxInBreaks: 0
WidescreenStoryboard: 0

[Editor]
Bookmarks: 1438,13438,25438,37438,49438,61438,73438,79438,91438,103438,115438,127438,139438
DistanceSpacing: 1.4
BeatDivisor: 4
GridSize: 32
TimelineZoom: 1.3

[Metadata]
Title:Gloom After Death
TitleUnicode:Gloom After Death
Artist:Sound Souler
ArtistUnicode:Sound Souler
Creator:eiri-
Version:Hard
Source:OverRapid
Tags:Ayyri Instrumental Video Game Downtempo
BeatmapID:2126467
BeatmapSetID:980331

[Difficulty]
HPDrainRate:4.5
CircleSize:3.5
OverallDifficulty:6
ApproachRate:7
SliderMultiplier:1.2
SliderTickRate:1

[Events]
//Background and Video events
0,0,"Gloom After Death.jpg",0,0
//Break Periods
//Storyboard Layer 0 (Background)
//Storyboard Layer 1 (Fail)
//Storyboard Layer 2 (Pass)
//Storyboard Layer 3 (Foreground)
//Storyboard Layer 4 (Overlay)
//Storyboard Sound Samples

[TimingPoints]
1438,750,4,2,1,30,1,0
13438,-80,4,2,1,40,0,0
25438,-66.6666666666667,4,2,1,50,0,0
37438,-57.1428571428571,4,2,1,75,0,0
49438,-80,4,2,1,50,0,0
61438,-100,4,2,1,40,0,0
73438,-100,4,2,1,80,0,0
76438,-100,4,2,1,50,0,0
79438,-44.4444444444445,4,2,1,85,0,1
79625,-44.4444444444445,4,2,1,85,0,0
82438,-44.4444444444445,4,2,1,85,0,1
82625,-44.4444444444445,4,2,1,85,0,0
85438,-44.4444444444445,4,2,1,85,0,1
85625,-44.4444444444445,4,2,1,85,0,0
88438,-44.4444444444445,4,2,1,85,0,1
88625,-44.4444444444445,4,2,1,85,0,0
91438,-44.4444444444445,4,2,1,85,0,1
91625,-44.4444444444445,4,2,1,85,0,0
94438,-44.4444444444445,4,2,1,85,0,1
94625,-44.4444444444445,4,2,1,85,0,0
97438,-44.4444444444445,4,2,1,85,0,1
97625,-44.4444444444445,4,2,1,85,0,0
100438,-44.4444444444445,4,2,1,85,0,1
100625,-44.4444444444445,4,2,1,85,0,0
103438,-50,4,2,1,85,0,1
103625,-50,4,2,1,75,0,0
127438,-66.6666666666667,4,2,1,60,0,0
136438,-66.6666666666667,4,2,1,50,0,0
137188,-66.6666666666667,4,2,1,40,0,0
137938,-66.6666666666667,4,2,1,30,0,0
138688,-66.6666666666667,4,2,1,40,0,0
139063,-66.6666666666667,4,2,1,50,0,0
139438,-66.6666666666667,4,2,1,80,0,0

[Colours]
Combo1 : 238,189,247
Combo2 : 130,232,173
Combo3 : 146,233,228
Combo4 : 205,166,238

[HitObjects]
435,319,1438,5,2,0:0:0:0:
435,319,2938,2,0,P|453:276|455:217,2,90,2|0|0,0:0|0:0|0:0,0:0:0:0:
355,383,4438,1,2,0:0:0:0:
355,383,7438,5,2,0:0:0:0:
355,383,8938,2,0,L|242:378,2,90,2|0|0,0:0|0:0|0:0,0:0:0:0:
448,340,10438,1,2,0:0:0:0:
448,340,13438,6,0,L|459:246,1,75,2|0,1:2|0:0,0:0:0:0:
468,210,14000,1,0,0:0:0:0:
468,210,14188,1,2,0:0:0:0:
304,250,14750,1,2,0:0:0:0:
304,250,16438,6,0,L|137:260,1,150,2|0,1:2|0:0,0:0:0:0:
154,258,19438,6,0,P|122:205|133:95,1,150,2|0,1:2|0:0,0:0:0:0:
175,19,20563,1,2,0:0:0:0:
480,160,21688,1,2,0:0:0:0:
480,160,22438,6,0,B|454:147|454:147|386:165,1,93.75,2|2,1:2|0:0,0:0:0:0:
312,192,23188,2,0,L|250:188,1,56.25,2|2,0:0|0:0,0:0:0:0:
199,184,23656,2,0,L|208:234,1,37.5,2|2,0:0|0:0,0:0:0:0:
230,317,24125,1,2,0:0:0:0:
230,317,24313,1,2,0:0:0:0:
120,289,24688,1,2,0:0:0:0:
28,354,25063,1,2,0:0:0:0:
5,194,25438,6,0,L|97:205,1,90.0000034332277,6|0,1:2|0:0,0:0:0:0:
155,189,26000,1,0,0:0:0:0:
155,189,26188,2,0,L|212:212,1,45.0000017166138,2|0,1:2|0:0,0:0:0:0:
253,177,26563,2,0,L|310:154,1,45.0000017166138,2|2,0:0|0:0,0:0:0:0:
356,148,26938,1,2,1:2:0:0:
356,148,27125,1,0,0:0:0:0:
356,148,27313,2,0,L|342:266,1,90.0000034332277,2|2,0:0|1:2,0:0:0:0:
383,357,28063,1,2,0:0:0:0:
383,357,28250,1,2,0:0:0:0:
383,357,28438,6,0,P|432:348|478:304,1,90.0000034332277,2|2,1:2|0:0,0:0:0:0:
496,270,29000,1,2,0:0:0:0:
496,270,29188,2,0,L|507:210,1,45.0000017166138,2|0,1:2|0:0,0:0:0:0:
486,165,29563,2,0,L|475:105,1,45.0000017166138,2|2,0:0|0:0,0:0:0:0:
490,58,29938,6,0,P|436:46|369:56,1,90.0000034332277,2|0,1:2|0:0,0:0:0:0:
345,75,30500,2,0,P|291:87|224:77,1,90.0000034332277,2|0,0:0|0:0,0:0:0:0:
196,63,31063,1,2,0:0:0:0:
134,173,31438,6,0,L|16:184,1,90.0000034332277,2|2,1:2|0:0,0:0:0:0:
7,232,32000,1,2,0:0:0:0:
7,232,32188,2,0,P|25:265|29:278,1,45.0000017166138,2|2,1:2|0:0,0:0:0:0:
14,333,32563,1,2,0:0:0:0:
14,333,32750,1,2,0:0:0:0:
14,333,32938,6,0,P|82:325|123:335,1,90.0000034332277,2|2,1:2|0:0,0:0:0:0:
159,355,33500,1,2,0:0:0:0:
279,318,33875,1,0,0:0:0:0:
279,318,34063,2,0,L|268:240,1,45.0000017166138,2|2,0:0|0:0,0:0:0:0:
266,210,34438,6,0,L|369:233,1,90.0000034332277,2|2,1:2|0:0,0:0:0:0:
414,246,35000,1,2,0:0:0:0:
414,246,35188,2,0,L|407:184,1,45.0000017166138,2|0,1:2|0:0,0:0:0:0:
402,138,35563,2,0,L|464:131,1,45.0000017166138,2|2,0:0|0:0,0:0:0:0:
509,130,35938,6,0,P|524:200|517:229,1,90.0000034332277,2|0,1:2|0:0,0:0:0:0:
479,264,36500,2,0,P|436:249|392:252,1,90.0000034332277,2|0,0:0|0:0,0:0:0:0:
335,281,37063,1,2,0:0:0:0:
204,212,37438,6,0,L|78:228,1,105.000001001358,6|0,1:2|0:0,0:0:0:0:
25,199,38000,1,0,1:0:0:0:
25,199,38188,2,0,L|44:122,1,52.500000500679,10|0,0:0|0:0,0:0:0:0:
62,73,38563,1,2,1:2:0:0:
183,172,38938,1,2,1:2:0:0:
183,172,39125,1,8,0:0:0:0:
327,108,39500,1,2,1:2:0:0:
327,108,39688,2,0,L|312:223,1,105.000001001358,10|2,0:0|1:2,0:0:0:0:
332,294,40250,1,10,0:0:0:0:
332,294,40438,6,0,L|469:315,1,105.000001001358,2|2,1:2|0:0,0:0:0:0:
505,267,41000,1,2,1:2:0:0:
505,267,41188,2,0,L|515:200,1,52.500000500679,10|0,0:0|0:0,0:0:0:0:
466,150,41563,1,2,1:2:0:0:
488,20,41938,5,2,1:2:0:0:
488,20,42125,2,0,L|399:38,1,52.500000500679,8|0,0:0|0:0,0:0:0:0:
376,81,42500,1,2,1:2:0:0:
376,81,42687,2,0,L|287:63,1,52.500000500679,8|0,0:0|0:0,0:0:0:0:
261,21,43063,1,2,1:2:0:0:
261,21,43250,1,2,1:2:0:0:
261,21,43438,6,0,L|274:153,1,105.000001001358,6|0,1:2|0:0,0:0:0:0:
236,199,44000,1,0,1:0:0:0:
236,199,44188,2,0,P|180:173|111:173,2,105.000001001358,10|2|2,0:0|1:2|0:0,0:0:0:0:
278,274,45125,1,0,1:2:0:0:
278,274,45313,6,0,L|265:371,1,52.500000500679,10|2,0:0|0:0,0:0:0:0:
194,308,45688,2,0,L|207:211,1,52.500000500679,2|0,1:2|0:0,0:0:0:0:
214,178,46063,1,2,1:2:0:0:
214,178,46250,2,0,P|165:148|144:142,1,52.500000500679,8|2,0:0|1:2,0:0:0:0:
111,202,46625,2,0,P|62:232|41:238,1,52.500000500679,8|2,0:0|1:2,0:0:0:0:
26,77,47188,6,0,L|93:88,1,52.500000500679,10|0,0:0|0:0,0:0:0:0:
150,54,47563,1,2,1:2:0:0:
150,54,47750,2,0,L|217:43,1,52.500000500679,8|2,0:0|1:2,0:0:0:0:
268,100,48125,1,10,0:0:0:0:
268,100,48312,2,0,L|279:167,1,52.500000500679,10|0,0:0|1:0,0:0:0:0:
292,229,48688,5,10,0:0:0:0:
391,165,48969,5,10,0:0:0:0:
440,278,49250,5,10,0:0:0:0:
440,278,49438,5,6,1:2:0:0:
396,381,49813,1,0,0:0:0:0:
295,331,50188,2,0,L|189:340,1,75,2|2,0:0|0:0,0:0:0:0:
164,345,50750,1,2,0:0:0:0:
164,345,50938,2,0,L|178:219,2,112.5,2|2|2,0:0|0:0|0:0,0:0:0:0:
55,374,52438,5,2,0:0:0:0:
12,269,52813,2,0,P|48:240|88:227,1,75,2|2,0:0|0:0,0:0:0:0:
130,224,53375,1,2,0:0:0:0:
130,224,53563,2,0,L|145:162,1,37.5,2|2,0:0|0:0,0:0:0:0:
151,132,53938,2,0,L|239:117,1,75,2|2,0:0|0:0,0:0:0:0:
335,98,54688,1,2,0:0:0:0:
248,26,55063,1,2,0:0:0:0:
248,26,55250,1,2,0:0:0:0:
248,26,55438,5,2,0:0:0:0:
198,127,55813,1,0,0:0:0:0:
260,220,56188,2,0,L|250:313,1,75,2|2,0:0|0:0,0:0:0:0:
247,350,56750,1,2,0:0:0:0:
247,350,56938,2,0,L|127:338,2,112.5,2|2|2,0:0|0:0|0:0,0:0:0:0:
348,304,58438,5,2,0:0:0:0:
304,200,58813,2,0,L|403:191,1,75,2|2,0:0|0:0,0:0:0:0:
434,189,59375,1,0,0:0:0:0:
434,189,59563,2,0,L|444:127,1,37.5,2|2,0:0|0:0,0:0:0:0:
466,102,59938,2,0,L|451:14,1,75,2|2,0:0|0:0,0:0:0:0:
349,70,60688,1,2,0:0:0:0:
401,169,61063,1,2,0:0:0:0:
401,169,61250,1,2,0:0:0:0:
401,169,61438,5,6,0:0:0:0:
243,256,62188,1,2,0:0:0:0:
166,208,62563,1,0,0:0:0:0:
101,270,62938,2,0,L|4:282,2,90,2|2|2,0:0|0:0|0:0,0:0:0:0:
166,332,64438,5,2,0:0:0:0:
331,262,65188,1,2,0:0:0:0:
283,338,65563,1,0,0:0:0:0:
236,260,65938,2,0,L|245:208,2,30,2|0|2,0:0|0:0|0:0,0:0:0:0:
154,221,66688,2,0,L|145:169,2,30,2|0|2,0:0|0:0|0:0,0:0:0:0:
96,289,67438,5,2,0:0:0:0:
251,197,68188,1,2,0:0:0:0:
170,156,68563,1,0,0:0:0:0:
220,81,68938,2,0,L|333:71,2,90,2|2|2,0:0|0:0|0:0,0:0:0:0:
170,156,70438,5,2,0:0:0:0:
322,252,71188,1,2,0:0:0:0:
402,212,71563,1,0,0:0:0:0:
476,262,71938,2,0,L|520:258,2,30,2|0|2,0:0|0:0|0:0,0:0:0:0:
411,324,72688,2,0,L|367:320,2,30,2|0|2,0:0|0:0|0:0,0:0:0:0:
480,380,73438,5,2,1:2:0:0:
256,192,76438,12,0,78688,0:0:0:0:
480,380,79438,5,6,1:2:0:0:
480,380,79625,2,0,B|498:340|498:340|480:243,1,135.000005149842,0|2,1:0|1:2,0:0:0:0:
460,171,80188,1,10,0:0:0:0:
305,220,80563,1,2,1:2:0:0:
195,100,80938,2,0,L|190:173,1,67.5000025749208,2|0,1:2|0:0,0:0:0:0:
182,248,81313,1,2,1:2:0:0:
39,170,81688,2,0,L|44:97,1,67.5000025749208,10|2,0:0|0:0,0:0:0:0:
53,22,82063,1,2,1:2:0:0:
53,22,82250,1,10,0:0:0:0:
53,22,82438,6,0,B|157:-7|157:101|247:105,1,202.500007724762,2|0,1:2|1:0,0:0:0:0:
306,83,83188,1,10,0:0:0:0:
188,193,83563,1,2,1:2:0:0:
240,346,83938,1,2,1:2:0:0:
240,346,84125,2,0,P|309:358|392:365,1,135.000005149842,10|2,0:0|1:2,0:0:0:0:
454,352,84688,1,10,0:0:0:0:
407,196,85063,1,2,1:2:0:0:
407,196,85250,1,2,1:2:0:0:
407,196,85438,6,0,B|351:170|351:170|260:207|260:207|208:202,1,202.500007724762,2|2,1:2|1:2,0:0:0:0:
138,186,86188,1,10,0:0:0:0:
235,56,86563,1,0,1:0:0:0:
74,37,86938,1,2,1:2:0:0:
235,56,87313,2,0,L|336:48,1,67.5000025749208,2|0,1:2|0:0,0:0:0:0:
387,56,87688,1,10,0:0:0:0:
387,56,87875,1,2,0:0:0:0:
387,56,88063,2,0,L|375:147,1,67.5000025749208,2|10,1:2|0:0,0:0:0:0:
361,202,88438,6,0,P|285:232|163:179,1,202.500007724762,2|0,1:2|1:0,0:0:0:0:
125,129,89188,2,0,L|27:124,2,67.5000025749208,10|2|2,0:0|0:0|1:2,0:0:0:0:
256,32,89938,1,2,1:2:0:0:
256,32,90125,2,0,L|401:23,1,135.000005149842,10|2,0:0|1:2,0:0:0:0:
471,18,90688,1,10,0:0:0:0:
414,169,91063,1,2,1:2:0:0:
414,169,91250,1,2,1:2:0:0:
414,169,91438,6,0,B|448:126|448:126|458:285,1,202.500007724762,6|2,1:2|1:2,0:0:0:0:
466,354,92188,1,10,0:0:0:0:
314,296,92563,1,0,1:0:0:0:
168,366,92938,2,0,L|83:360,1,67.5000025749208,2|0,1:2|0:0,0:0:0:0:
19,354,93313,1,2,1:2:0:0:
112,221,93688,1,10,0:0:0:0:
112,221,93875,1,2,0:0:0:0:
112,221,94063,2,0,L|96:140,1,67.5000025749208,2|10,1:2|0:0,0:0:0:0:
84,74,94438,6,0,B|158:54|158:54|309:118,1,202.500007724762,2|0,1:2|1:0,0:0:0:0:
348,135,95188,2,0,L|363:48,2,67.5000025749208,10|2|2,0:0|0:0|1:2,0:0:0:0:
319,294,95938,1,2,1:2:0:0:
319,294,96125,2,0,L|166:315,1,135.000005149842,10|2,0:0|1:2,0:0:0:0:
106,292,96688,1,10,0:0:0:0:
198,166,97063,1,2,1:2:0:0:
198,166,97250,1,2,1:2:0:0:
198,166,97438,6,0,P|280:191|317:301,1,202.500007724762,2|2,1:2|1:2,0:0:0:0:
303,373,98188,1,10,0:0:0:0:
459,330,98563,1,0,1:0:0:0:
419,172,98938,2,0,L|432:72,1,67.5000025749208,2|2,1:2|1:2,0:0:0:0:
437,24,99313,1,10,0:0:0:0:
283,75,99688,2,0,L|175:62,1,67.5000025749208,2|0,1:2|0:0,0:0:0:0:
135,58,100063,2,0,L|148:124,1,67.5000025749208,2|10,1:2|0:0,0:0:0:0:
165,207,100438,5,2,1:2:0:0:
165,207,100625,2,0,L|36:183,1,67.5000025749208,10|2,0:0|1:2,0:0:0:0:
36,343,101188,1,10,0:0:0:0:
194,311,101563,1,2,1:2:0:0:
194,311,101750,2,0,L|288:295,1,67.5000025749208,10|2,0:0|1:2,0:0:0:0:
341,289,102125,1,10,0:0:0:0:
315,204,102313,2,0,L|336:118,1,67.5000025749208,10|2,0:0|1:2,0:0:0:0:
354,53,102688,5,10,0:0:0:0:
234,39,102969,5,10,0:0:0:0:
203,155,103250,5,10,0:0:0:0:
203,155,103438,6,0,L|115:147,2,60,6|2|2,1:2|0:0|0:0,0:0:0:0:
230,74,104000,1,2,1:2:0:0:
300,120,104188,2,0,L|431:108,1,120,10|2,0:0|1:2,0:0:0:0:
503,98,104750,1,2,0:0:0:0:
480,179,104938,1,2,1:2:0:0:
500,345,105313,1,0,1:0:0:0:
332,374,105688,2,0,P|275:312|277:256,1,120,10|2,0:0|1:2,0:0:0:0:
289,197,106250,1,10,0:0:0:0:
207,219,106438,6,0,L|48:205,1,120,2|0,1:2|0:0,0:0:0:0:
34,143,107000,1,0,1:0:0:0:
90,80,107188,2,0,L|78:17,1,60,10|2,0:0|0:0,0:0:0:0:
161,34,107563,2,0,L|173:97,1,60,2|0,1:2|0:0,0:0:0:0:
190,175,107938,1,2,1:2:0:0:
269,149,108125,1,10,0:0:0:0:
250,315,108500,1,2,1:2:0:0:
314,260,108688,2,0,L|418:252,2,90,10|2|2,0:0|0:0|1:2,0:0:0:0:
250,204,109438,6,0,B|298:166|298:166|457:181,1,180,2|2,1:2|1:2,0:0:0:0:
499,191,110188,1,8,0:0:0:0:
472,25,110563,1,2,1:2:0:0:
311,75,110938,2,0,L|162:59,1,120,2|0,1:2|1:0,0:0:0:0:
24,42,111688,1,10,0:0:0:0:
85,198,112063,1,2,1:2:0:0:
136,131,112250,1,10,0:0:0:0:
207,175,112438,6,0,L|356:191,1,120,2|0,1:2|0:0,0:0:0:0:
409,200,113000,1,0,1:0:0:0:
383,280,113188,2,0,L|392:355,1,60,10|2,0:0|0:0,0:0:0:0:
307,353,113563,2,0,L|298:278,1,60,2|0,1:2|0:0,0:0:0:0:
291,209,113938,1,2,1:2:0:0:
211,236,114125,2,0,L|228:104,1,120,10|2,0:0|1:2,0:0:0:0:
240,33,114688,1,10,0:0:0:0:
79,82,115063,1,2,1:2:0:0:
138,140,115250,1,2,1:2:0:0:
86,206,115438,6,0,L|24:200,2,60,2|2|2,1:2|0:0|0:0,0:0:0:0:
149,260,116000,1,2,1:2:0:0:
104,331,116188,2,0,L|241:317,1,120,10|0,0:0|1:0,0:0:0:0:
291,366,116750,1,2,0:0:0:0:
358,315,116938,1,0,1:0:0:0:
249,186,117313,1,0,1:0:0:0:
408,133,117688,1,10,0:0:0:0:
288,15,118063,1,0,1:0:0:0:
218,61,118250,1,10,0:0:0:0:
141,24,118438,6,0,L|0:37,1,120,2|0,1:2|0:0,0:0:0:0:
86,87,119000,1,0,1:0:0:0:
38,156,119188,2,0,L|50:253,1,60,10|2,0:0|0:0,0:0:0:0:
59,298,119563,1,2,1:2:0:0:
205,215,119938,1,2,1:2:0:0:
260,278,120125,2,0,P|328:317|384:323,1,120,10|2,0:0|1:2,0:0:0:0:
452,315,120688,1,10,0:0:0:0:
364,171,121063,1,2,1:2:0:0:
423,111,121250,1,2,1:2:0:0:
488,164,121438,6,0,L|501:381,1,180,2|0,1:2|1:0,0:0:0:0:
448,276,122188,1,10,0:0:0:0:
304,362,122563,1,2,1:2:0:0:
164,269,122938,2,0,L|99:277,1,60,2|2,1:2|1:2,0:0:0:0:
21,288,123313,1,10,0:0:0:0:
39,120,123688,2,0,L|192:137,1,120,0|2,1:0|1:2,0:0:0:0:
227,86,124250,1,10,0:0:0:0:
300,126,124438,6,0,L|314:53,1,60,2|10,1:2|0:0,0:0:0:0:
381,113,124813,2,0,L|367:186,1,60,2|0,1:2|0:0,0:0:0:0:
346,252,125188,1,10,0:0:0:0:
188,193,125563,1,2,1:2:0:0:
154,269,125750,2,0,L|81:255,1,60,10|2,0:0|1:2,0:0:0:0:
12,239,126125,1,10,0:0:0:0:
40,159,126313,2,0,L|25:77,1,60,10|2,0:0|1:2,0:0:0:0:
16,16,126688,5,10,0:0:0:0:
123,81,126969,5,10,0:0:0:0:
234,23,127250,5,10,0:0:0:0:
234,23,127438,6,0,L|341:13,1,90.0000034332277,6|2,1:2|0:0,0:0:0:0:
382,11,128000,1,0,0:0:0:0:
382,11,128188,1,2,0:0:0:0:
314,172,128750,1,2,0:0:0:0:
314,172,129688,2,0,L|306:315,1,135.000005149841,2|2,0:0|0:0,0:0:0:0:
303,365,130438,5,2,0:0:0:0:
194,321,130813,2,0,L|135:327,1,45.0000017166138,0|0,0:0|0:0,0:0:0:0:
90,332,131188,2,0,L|110:205,1,90.0000034332277,0|2,0:0|0:0,0:0:0:0:
127,128,131938,1,0,0:0:0:0:
88,17,132313,2,0,L|-31:11,2,90.0000034332277,0|2|2,0:0|0:0|0:0,0:0:0:0:
204,24,133438,6,0,P|263:56|332:77,1,135.000005149841,2|0,0:0|0:0,0:0:0:0:
386,78,134188,1,0,0:0:0:0:
494,35,134563,1,2,0:0:0:0:
486,151,134938,2,0,L|505:277,1,90.0000034332277,2|0,0:0|0:0,0:0:0:0:
503,356,135688,2,0,P|454:312|357:296,1,135.000005149841,2|0,0:0|0:0,0:0:0:0:
331,308,136438,5,2,0:0:0:0:
359,194,136813,1,0,0:0:0:0:
242,200,137188,2,0,L|131:193,1,90.0000034332277,2|0,0:0|0:0,0:0:0:0:
141,311,137938,2,0,L|252:318,1,90.0000034332277,2|0,0:0|0:0,0:0:0:0:
337,266,138688,2,0,L|448:273,1,90.0000034332277,2|0,0:0|0:0,0:0:0:0:
378,378,139438,5,6,1:2:0:0:
