osu file format v14

[General]
AudioFilename: audio.mp3
AudioLeadIn: 0
PreviewTime: 79438
Countdown: 0
SampleSet: Soft
StackLeniency: 0.7
Mode: 0
LetterboxInBreaks: 0
WidescreenStoryboard: 0

[Editor]
Bookmarks: 1438,13438,25438,37438,49438,61438,73438,79438,91438,103438,115438,127438,139438
DistanceSpacing: 1.3
BeatDivisor: 4
GridSize: 32
TimelineZoom: 1.3

[Metadata]
Title:Gloom After Death
TitleUnicode:Gloom After Death
Artist:Sound Souler
ArtistUnicode:Sound Souler
Creator:eiri-
Version:Expert
Source:OverRapid
Tags:Ayyri Instrumental Video Game Downtempo
BeatmapID:2051545
BeatmapSetID:980331

[Difficulty]
HPDrainRate:5
CircleSize:5
OverallDifficulty:8
ApproachRate:8.5
SliderMultiplier:1.4
SliderTickRate:1

[Events]
//Background and Video events
0,0,"Gloom After Death.jpg",0,0
//Break Periods
//Storyboard Layer 0 (Background)
//Storyboard Layer 1 (Fail)
//Storyboard Layer 2 (Pass)
//Storyboard Layer 3 (Foreground)
//Storyboard Layer 4 (Overlay)
//Storyboard Sound Samples

[TimingPoints]
1438,750,4,2,1,30,1,0
13438,-80,4,2,1,40,0,0
25438,-66.6666666666667,4,2,1,50,0,0
37438,-57.1428571428571,4,2,1,75,0,0
49438,-80,4,2,1,50,0,0
61438,-100,4,2,1,40,0,0
73438,-1000,4,2,1,80,0,0
73625,-1000,4,2,1,5,0,0
76438,-1000,4,2,1,50,0,0
79438,-44.4444444444445,4,2,1,85,0,1
79625,-44.4444444444445,4,2,1,85,0,0
82438,-44.4444444444445,4,2,1,85,0,1
82625,-44.4444444444445,4,2,1,85,0,0
85438,-44.4444444444445,4,2,1,85,0,1
85625,-44.4444444444445,4,2,1,85,0,0
88438,-44.4444444444445,4,2,1,85,0,1
88625,-44.4444444444445,4,2,1,85,0,0
91438,-44.4444444444445,4,2,1,85,0,1
91625,-44.4444444444445,4,2,1,85,0,0
94438,-44.4444444444445,4,2,1,85,0,1
94625,-44.4444444444445,4,2,1,85,0,0
97438,-44.4444444444445,4,2,1,85,0,1
97625,-44.4444444444445,4,2,1,85,0,0
100438,-44.4444444444445,4,2,1,85,0,1
100625,-44.4444444444445,4,2,1,85,0,0
103438,-50,4,2,1,85,0,1
103625,-50,4,2,1,75,0,0
127438,-66.6666666666667,4,2,1,60,0,0
136438,-66.6666666666667,4,2,1,50,0,0
137188,-66.6666666666667,4,2,1,40,0,0
137938,-66.6666666666667,4,2,1,30,0,0
138688,-66.6666666666667,4,2,1,40,0,0
139063,-66.6666666666667,4,2,1,50,0,0
139438,-66.6666666666667,4,2,1,80,0,0

[Colours]
Combo1 : 238,189,247
Combo2 : 130,232,173
Combo3 : 146,233,228
Combo4 : 205,166,238

[HitObjects]
358,305,1438,5,2,0:0:0:0:
368,321,2938,2,0,P|414:302|484:305,2,105,2|0|0,0:0|0:0|0:0,0:0:0:0:
259,304,4438,1,2,0:0:0:0:
259,304,7438,5,2,0:0:0:0:
250,326,8938,2,0,L|134:317,2,105,2|0|0,0:0|0:0|0:0,0:0:0:0:
337,384,10438,1,2,0:0:0:0:
337,384,13438,6,0,L|331:312,1,43.75,2|0,1:2|0:0,0:0:0:0:
326,246,13813,1,0,0:0:0:0:
363,255,14000,1,0,0:0:0:0:
420,305,14188,1,2,0:0:0:0:
476,270,14750,1,2,0:0:0:0:
476,270,16438,6,0,B|392:245|421:317|329:296,1,131.25,2|0,1:2|0:0,0:0:0:0:
292,273,17188,1,0,0:0:0:0:
292,273,19438,6,0,L|277:109,1,131.25,2|0,1:2|0:0,0:0:0:0:
300,78,20188,1,0,0:0:0:0:
167,36,20563,1,2,0:0:0:0:
136,97,21688,1,2,0:0:0:0:
136,97,22438,6,0,L|19:106,1,109.375,2|2,1:2|0:0,0:0:0:0:
38,115,23188,1,2,0:0:0:0:
12,207,23469,5,2,0:0:0:0:
31,233,23656,1,2,0:0:0:0:
19,302,23844,1,2,0:0:0:0:
19,302,24125,5,2,0:0:0:0:
29,337,24313,1,2,0:0:0:0:
41,266,24688,5,2,0:0:0:0:
122,305,25063,1,2,0:0:0:0:
295,206,25438,6,0,P|359:194|407:299,1,157.500006008148,6|0,1:2|0:0,0:0:0:0:
485,245,26188,1,2,1:2:0:0:
493,231,26375,1,0,0:0:0:0:
496,165,26563,1,2,0:0:0:0:
461,103,26750,1,2,0:0:0:0:
509,16,26938,6,0,L|441:8,1,52.5000020027161,2|0,1:2|0:0,0:0:0:0:
380,55,27313,1,2,0:0:0:0:
322,26,27500,1,0,0:0:0:0:
213,72,27688,2,0,P|222:105|224:132,1,52.5000020027161,2|0,1:2|0:0,0:0:0:0:
203,201,28063,1,2,0:0:0:0:
143,169,28250,1,2,0:0:0:0:
25,226,28438,6,0,L|18:301,1,52.5000020027161,2|0,1:2|0:0,0:0:0:0:
83,332,28813,1,2,0:0:0:0:
113,326,29000,1,2,0:0:0:0:
179,382,29188,1,2,1:2:0:0:
215,320,29375,1,0,0:0:0:0:
179,258,29563,1,2,0:0:0:0:
143,320,29750,1,2,0:0:0:0:
260,251,29938,6,0,L|328:242,1,52.5000020027161,2|0,1:2|0:0,0:0:0:0:
179,258,30313,1,0,0:0:0:0:
292,270,30500,6,0,L|360:279,1,52.5000020027161,2|0,0:0|1:0,0:0:0:0:
179,258,30875,1,0,0:0:0:0:
324,251,31063,6,0,L|392:242,1,52.5000020027161,2|0,0:0|0:0,0:0:0:0:
179,258,31438,5,2,1:2:0:0:
191,238,31625,1,0,0:0:0:0:
149,175,31813,1,2,0:0:0:0:
247,152,32000,1,2,0:0:0:0:
200,74,32188,1,2,1:2:0:0:
121,97,32375,2,0,L|117:31,2,52.5000020027161,2|0|0,0:0|0:0|0:0,0:0:0:0:
261,175,32938,6,0,L|257:241,1,52.5000020027161,2|0,1:2|0:0,0:0:0:0:
250,319,33313,1,2,0:0:0:0:
256,246,33500,6,0,L|260:194,1,52.5000020027161,2|0,0:0|1:0,0:0:0:0:
250,319,33875,1,0,0:0:0:0:
277,315,34063,1,2,0:0:0:0:
345,354,34250,1,2,0:0:0:0:
431,282,34438,6,0,P|460:276|493:278,1,52.5000020027161,2|0,1:2|0:0,0:0:0:0:
468,361,34813,1,2,0:0:0:0:
468,361,35000,1,2,0:0:0:0:
400,291,35188,6,0,L|411:208,1,52.5000020027161,2|0,1:2|0:0,0:0:0:0:
421,145,35563,1,2,0:0:0:0:
397,128,35750,1,2,0:0:0:0:
309,188,35938,6,0,P|265:197|231:194,1,52.5000020027161,2|0,1:2|0:0,0:0:0:0:
166,176,36313,1,0,0:0:0:0:
250,274,36500,6,0,P|216:251|196:228,1,52.5000020027161,2|0,0:0|1:0,0:0:0:0:
166,176,36875,1,0,0:0:0:0:
138,288,37063,6,0,P|137:252|144:225,1,52.5000020027161,2|0,0:0|0:0,0:0:0:0:
153,109,37438,6,0,B|195:107|195:107|221:135|221:135|285:134,1,122.500001168251,6|0,1:2|0:0,0:0:0:0:
354,130,38000,1,0,1:0:0:0:
337,320,38188,1,10,0:0:0:0:
374,313,38375,1,0,0:0:0:0:
441,373,38563,1,2,1:2:0:0:
489,329,38750,1,0,0:0:0:0:
379,354,38938,5,2,1:2:0:0:
464,235,39125,1,8,0:0:0:0:
460,205,39313,1,2,0:0:0:0:
476,325,39500,1,2,1:2:0:0:
287,214,39688,2,0,L|208:211,1,61.2500005841255,10|0,0:0|0:0,0:0:0:0:
359,179,40063,1,2,1:2:0:0:
276,225,40250,1,10,0:0:0:0:
314,284,40438,5,2,1:2:0:0:
311,296,40625,1,0,0:0:0:0:
334,367,40813,1,2,0:0:0:0:
241,348,41000,1,2,1:2:0:0:
410,310,41188,1,10,0:0:0:0:
403,380,41375,1,0,0:0:0:0:
334,367,41563,1,2,1:2:0:0:
424,346,41750,1,0,0:0:0:0:
221,272,41938,6,0,L|228:171,1,61.2500005841255,2|8,1:2|0:0,0:0:0:0:
254,371,42313,1,0,0:0:0:0:
247,243,42500,6,0,L|240:142,1,61.2500005841255,2|8,1:2|0:0,0:0:0:0:
254,371,42875,1,0,0:0:0:0:
226,211,43063,5,2,1:2:0:0:
230,149,43250,1,2,1:2:0:0:
286,57,43438,6,0,L|165:71,1,122.500001168251,6|0,1:2|0:0,0:0:0:0:
113,29,44000,1,0,1:0:0:0:
167,201,44188,1,10,0:0:0:0:
143,195,44375,1,0,0:0:0:0:
63,281,44563,1,2,1:2:0:0:
87,275,44750,1,0,0:0:0:0:
0,245,44938,5,2,0:0:0:0:
77,296,45125,1,0,1:2:0:0:
100,129,45313,1,10,0:0:0:0:
161,98,45500,1,2,0:0:0:0:
241,149,45688,2,0,L|314:140,1,61.2500005841255,2|0,1:2|0:0,0:0:0:0:
395,133,46063,5,2,1:2:0:0:
227,95,46250,1,8,0:0:0:0:
393,66,46438,5,2,1:2:0:0:
187,156,46625,1,8,0:0:0:0:
362,6,46813,5,2,1:2:0:0:
393,66,47000,1,2,0:0:0:0:
327,239,47188,1,10,0:0:0:0:
267,208,47375,1,0,0:0:0:0:
208,283,47563,5,2,1:2:0:0:
404,274,47750,1,8,0:0:0:0:
182,351,47938,5,2,1:2:0:0:
402,208,48125,1,10,0:0:0:0:
208,283,48313,5,10,0:0:0:0:
267,208,48500,1,0,1:0:0:0:
304,342,48688,5,10,0:0:0:0:
278,247,48969,5,10,0:0:0:0:
222,302,49250,5,10,0:0:0:0:
65,263,49438,5,6,1:2:0:0:
222,302,49813,1,0,0:0:0:0:
145,312,50188,1,2,0:0:0:0:
157,287,50375,1,0,0:0:0:0:
145,262,50563,1,2,0:0:0:0:
151,250,50750,1,2,0:0:0:0:
138,172,50938,2,0,B|179:154|179:154|275:165,2,131.25,2|2|2,0:0|0:0|0:0,0:0:0:0:
185,338,52438,5,2,0:0:0:0:
303,288,52813,2,0,L|294:223,1,43.75,2|0,0:0|0:0,0:0:0:0:
285,144,53188,1,2,0:0:0:0:
303,165,53375,1,0,0:0:0:0:
337,174,53563,1,2,0:0:0:0:
347,171,53750,1,2,0:0:0:0:
352,166,53938,6,0,L|344:233,1,43.75,2|0,0:0|0:0,0:0:0:0:
400,110,54313,2,0,L|392:43,1,43.75,2|2,0:0|0:0,0:0:0:0:
451,155,54688,1,2,0:0:0:0:
458,153,54875,1,0,0:0:0:0:
476,172,55063,1,2,0:0:0:0:
512,152,55250,1,2,0:0:0:0:
477,274,55438,5,2,0:0:0:0:
348,209,55813,1,0,0:0:0:0:
260,354,56188,1,2,0:0:0:0:
229,325,56375,1,0,0:0:0:0:
197,329,56563,1,2,0:0:0:0:
183,342,56750,1,2,0:0:0:0:
142,281,56938,2,0,P|102:256|9:267,2,131.25,2|2|2,0:0|0:0|0:0,0:0:0:0:
141,177,58438,5,2,0:0:0:0:
265,249,58813,1,2,0:0:0:0:
274,232,59000,1,0,0:0:0:0:
284,195,59188,2,0,L|276:122,1,43.75,2|0,0:0|0:0,0:0:0:0:
354,111,59563,2,0,L|359:155,1,43.75,2|2,0:0|0:0,0:0:0:0:
345,22,59938,5,2,0:0:0:0:
336,28,60125,1,0,0:0:0:0:
264,57,60313,1,2,0:0:0:0:
205,28,60500,1,2,0:0:0:0:
120,84,60688,1,2,0:0:0:0:
118,71,60875,1,0,0:0:0:0:
95,179,61063,1,2,0:0:0:0:
93,192,61250,1,2,0:0:0:0:
192,177,61438,5,6,0:0:0:0:
172,321,62188,1,2,0:0:0:0:
277,255,62563,1,0,0:0:0:0:
341,310,62938,2,0,L|465:304,2,105,2|2|2,0:0|0:0|0:0,0:0:0:0:
265,244,64438,5,2,0:0:0:0:
315,113,65188,1,2,0:0:0:0:
347,191,65563,1,0,0:0:0:0:
183,154,65938,2,0,L|239:137,1,35,2|0,0:0|0:0,0:0:0:0:
315,113,66313,1,2,0:0:0:0:
332,282,66688,2,0,L|276:265,1,35,2|0,0:0|0:0,0:0:0:0:
200,241,67063,1,2,0:0:0:0:
215,235,67250,1,2,0:0:0:0:
372,207,67438,5,2,0:0:0:0:
237,156,68188,1,2,0:0:0:0:
200,241,68563,1,0,0:0:0:0:
106,185,68938,2,0,P|62:169|-12:178,2,105,2|2|2,0:0|0:0|0:0,0:0:0:0:
211,258,70438,5,2,0:0:0:0:
372,207,71188,1,2,0:0:0:0:
271,181,71563,1,0,0:0:0:0:
306,323,71938,2,0,L|362:306,1,35,2|0,0:0|0:0,0:0:0:0:
438,282,72313,1,2,0:0:0:0:
245,264,72688,2,0,L|187:253,1,35,2|0,0:0|0:0,0:0:0:0:
108,239,73063,1,2,0:0:0:0:
142,183,73250,1,2,0:0:0:0:
116,36,73438,6,0,L|114:80,1,42,2|0,1:2|0:0,0:0:0:0:
256,192,76438,12,0,79063,0:0:0:0:
256,192,79438,5,6,1:2:0:0:
224,128,79625,2,0,B|275:123|275:123|316:153|316:153|383:148,1,157.500006008148,0|2,1:0|1:2,0:0:0:0:
456,109,80188,1,10,0:0:0:0:
451,130,80375,1,2,0:0:0:0:
440,20,80563,1,2,1:2:0:0:
445,41,80938,6,0,L|355:34,1,78.7500030040742,2|0,1:2|0:0,0:0:0:0:
287,99,81313,1,2,1:2:0:0:
54,36,81688,5,10,0:0:0:0:
124,6,81875,1,2,0:0:0:0:
93,112,82063,1,2,1:2:0:0:
41,21,82250,1,10,0:0:0:0:
241,120,82438,6,0,B|353:77|330:168|487:161,1,236.250009012223,2|0,1:2|1:0,0:0:0:0:
291,191,83188,1,10,0:0:0:0:
298,207,83375,1,2,0:0:0:0:
436,63,83563,1,2,1:2:0:0:
443,79,83938,5,2,1:2:0:0:
277,57,84125,1,10,0:0:0:0:
270,73,84500,5,2,1:2:0:0:
436,53,84687,1,10,0:0:0:0:
374,25,85063,5,2,1:2:0:0:
360,109,85250,1,2,1:2:0:0:
417,298,85438,6,0,P|357:226|214:221,1,236.250009012223,2|2,1:2|1:2,0:0:0:0:
162,258,86188,1,10,0:0:0:0:
214,111,86563,1,0,1:0:0:0:
241,321,86938,1,2,1:2:0:0:
179,274,87313,1,2,1:2:0:0:
56,375,87688,5,10,0:0:0:0:
129,362,87875,1,2,0:0:0:0:
42,238,88063,1,2,1:2:0:0:
115,225,88250,1,10,0:0:0:0:
275,336,88438,6,0,B|324:269|326:176|197:153|201:265,1,236.250009012223,2|0,1:2|1:0,0:0:0:0:
380,207,89188,1,10,0:0:0:0:
373,225,89375,1,2,0:0:0:0:
360,100,89563,1,2,1:2:0:0:
367,118,89938,5,2,1:2:0:0:
445,112,90125,1,10,0:0:0:0:
285,237,90500,5,2,1:2:0:0:
206,231,90687,1,10,0:0:0:0:
48,67,91063,5,2,1:2:0:0:
112,63,91250,1,2,1:2:0:0:
306,9,91438,5,6,1:2:0:0:
345,74,91625,2,0,B|289:79|289:79|248:54|248:54|151:63,1,157.500006008148,0|2,1:0|1:2,0:0:0:0:
112,63,92188,1,10,0:0:0:0:
198,196,92563,1,0,1:0:0:0:
195,59,92938,1,2,1:2:0:0:
108,191,93313,2,0,L|197:183,1,78.7500030040742,2|0,1:2|0:0,0:0:0:0:
299,244,93688,5,10,0:0:0:0:
311,161,93875,1,2,0:0:0:0:
156,83,94063,5,2,1:2:0:0:
144,0,94250,1,10,0:0:0:0:
136,275,94438,6,0,P|243:274|283:156,1,236.250009012223,2|0,1:2|1:0,0:0:0:0:
264,88,95188,1,10,0:0:0:0:
261,101,95375,1,2,0:0:0:0:
423,68,95563,1,2,1:2:0:0:
420,86,95938,5,2,1:2:0:0:
287,65,96125,1,10,0:0:0:0:
358,140,96500,5,2,1:2:0:0:
491,119,96687,1,10,0:0:0:0:
287,65,97063,5,2,1:2:0:0:
273,149,97250,1,2,1:2:0:0:
341,342,97438,6,0,B|428:373|502:327|502:327|481:297|396:308,1,236.250009012223,2|2,1:2|1:2,0:0:0:0:
476,230,98188,1,10,0:0:0:0:
273,149,98563,1,0,1:0:0:0:
213,377,98938,5,2,1:2:0:0:
204,303,99125,1,2,1:2:0:0:
35,360,99313,1,10,0:0:0:0:
204,303,99688,5,2,1:2:0:0:
57,353,100063,1,2,1:2:0:0:
341,342,100250,1,10,0:0:0:0:
310,214,100438,5,2,1:2:0:0:
189,318,100625,1,10,0:0:0:0:
243,364,100813,1,2,1:2:0:0:
205,62,101188,1,10,0:0:0:0:
193,314,101563,5,2,1:2:0:0:
170,121,101750,1,10,0:0:0:0:
119,281,101938,5,2,1:2:0:0:
235,124,102125,1,10,0:0:0:0:
113,151,102313,1,10,0:0:0:0:
170,121,102500,1,2,1:2:0:0:
290,159,102688,5,10,0:0:0:0:
315,251,102969,5,10,0:0:0:0:
367,198,103250,5,10,0:0:0:0:
220,210,103438,6,0,L|140:203,2,70,6|2|2,1:2|0:0|0:0,0:0:0:0:
302,266,104000,1,2,1:2:0:0:
360,98,104188,2,0,P|447:113|461:214,1,140,10|0,0:0|1:0,0:0:0:0:
476,252,104750,1,2,0:0:0:0:
488,141,104938,5,2,1:2:0:0:
510,353,105313,1,0,1:0:0:0:
511,72,105688,1,10,0:0:0:0:
476,252,106063,1,2,1:2:0:0:
511,72,106250,1,10,0:0:0:0:
443,23,106438,6,0,P|342:0|187:51,1,210,2|0,1:2|1:0,0:0:0:0:
168,77,107188,1,10,0:0:0:0:
178,84,107375,1,2,0:0:0:0:
33,64,107563,1,2,1:2:0:0:
239,20,107938,5,2,1:2:0:0:
222,211,108125,1,10,0:0:0:0:
289,84,108500,5,2,1:2:0:0:
306,275,108688,1,10,0:0:0:0:
335,199,108969,5,2,0:0:0:0:
339,206,109063,1,2,1:2:0:0:
465,170,109250,1,2,1:2:0:0:
417,282,109438,6,0,P|490:252|445:117,1,210,2|2,1:2|1:2,0:0:0:0:
418,84,110188,1,8,0:0:0:0:
417,282,110563,1,2,1:2:0:0:
418,84,110938,1,2,1:2:0:0:
481,136,111313,1,0,1:0:0:0:
204,104,111688,5,10,0:0:0:0:
212,121,112063,1,2,1:2:0:0:
230,0,112250,1,10,0:0:0:0:
245,199,112438,6,0,P|151:183|2:206,1,210,2|0,1:2|1:0,0:0:0:0:
105,219,113188,1,10,0:0:0:0:
102,232,113375,1,2,0:0:0:0:
82,77,113563,1,2,1:2:0:0:
144,110,113938,5,2,1:2:0:0:
299,81,114125,1,10,0:0:0:0:
303,111,114500,5,2,1:2:0:0:
148,82,114687,1,10,0:0:0:0:
282,50,115063,5,2,1:2:0:0:
301,129,115250,1,2,1:2:0:0:
262,303,115438,6,0,L|361:292,2,70,2|2|2,1:2|0:0|0:0,0:0:0:0:
174,271,116000,1,2,1:2:0:0:
398,143,116188,2,0,B|428:176|428:176|408:296,1,140,10|0,0:0|1:0,0:0:0:0:
394,351,116750,1,2,0:0:0:0:
262,303,116938,5,0,1:0:0:0:
412,270,117313,1,0,1:0:0:0:
174,271,117688,1,10,0:0:0:0:
262,303,118063,1,0,1:0:0:0:
248,149,118250,1,10,0:0:0:0:
248,149,118438,6,0,B|368:172|316:57|471:119,1,210,2|0,1:2|1:0,0:0:0:0:
512,156,119188,1,10,0:0:0:0:
509,168,119375,1,2,0:0:0:0:
481,32,119563,1,2,1:2:0:0:
405,206,119938,5,2,1:2:0:0:
180,161,120125,1,10,0:0:0:0:
176,174,120500,5,2,1:2:0:0:
401,127,120687,1,10,0:0:0:0:
380,335,121063,5,2,1:2:0:0:
321,300,121250,1,2,1:2:0:0:
215,358,121438,6,0,P|107:348|-9:331,1,210,2|0,1:2|1:0,0:0:0:0:
84,330,122188,1,10,0:0:0:0:
44,150,122563,1,2,1:2:0:0:
20,255,122938,1,2,1:2:0:0:
27,266,123125,1,2,1:2:0:0:
200,211,123313,1,10,0:0:0:0:
44,150,123688,5,0,1:0:0:0:
269,118,124063,1,2,1:2:0:0:
222,26,124250,1,10,0:0:0:0:
187,236,124438,6,0,L|127:226,1,35,2|0,1:2|0:0,0:0:0:0:
395,136,124625,1,10,0:0:0:0:
269,118,124813,1,2,1:2:0:0:
274,132,125188,5,10,0:0:0:0:
237,331,125563,1,2,1:2:0:0:
281,157,125750,1,10,0:0:0:0:
187,236,125938,1,2,1:2:0:0:
418,203,126125,5,10,0:0:0:0:
155,244,126313,1,10,0:0:0:0:
234,299,126500,1,2,1:2:0:0:
207,47,126688,5,10,0:0:0:0:
183,141,126969,5,10,0:0:0:0:
121,108,127250,5,10,0:0:0:0:
72,212,127438,6,0,L|2:207,1,52.5000020027161,6|2,1:2|0:0,0:0:0:0:
124,174,127813,1,2,0:0:0:0:
143,195,128000,1,0,0:0:0:0:
126,298,128188,1,2,0:0:0:0:
191,269,128750,1,2,0:0:0:0:
191,269,129688,2,0,P|270:263|341:323,1,157.500006008148,2|2,0:0|0:0,0:0:0:0:
355,371,130438,5,2,0:0:0:0:
331,306,131563,1,2,0:0:0:0:
355,371,132688,5,2,0:0:0:0:
379,359,133063,1,2,0:0:0:0:
422,373,133438,1,2,0:0:0:0:
355,371,134188,5,0,0:0:0:0:
367,284,134563,1,2,0:0:0:0:
186,296,134938,1,2,0:0:0:0:
203,182,135313,1,0,0:0:0:0:
191,269,135688,2,0,L|61:257,1,105.000004005432,2|0,0:0|0:0,0:0:0:0:
86,259,136438,6,0,P|150:237|254:332,1,210.000008010865,2|2,0:0|0:0,0:0:0:0:
251,318,137563,1,0,0:0:0:0:
320,365,137938,2,0,P|245:349|103:371,1,210.000008010865,2|2,0:0|0:0,0:0:0:0:
114,366,139063,1,0,0:0:0:0:
401,303,139438,5,6,1:2:0:0:
