osu file format v14

[General]
AudioFilename: audio.mp3
AudioLeadIn: 0
PreviewTime: 79924
Countdown: 0
SampleSet: Normal
StackLeniency: 0.2
Mode: 1
LetterboxInBreaks: 0
WidescreenStoryboard: 0

[Editor]
DistanceSpacing: 0.1
BeatDivisor: 12
GridSize: 32
TimelineZoom: 1.3

[Metadata]
Title:Gloom After Death
TitleUnicode:Gloom After Death
Artist:Sound Souler
ArtistUnicode:Sound Souler
Creator:Axer
Version:Posthumous
Source:osu!
Tags:eiri- ayyri vulkin instrumental electronic featured artist fa mappers' guild mg overrapid downtempo
BeatmapID:2438127
BeatmapSetID:1168535

[Difficulty]
HPDrainRate:6
CircleSize:2
OverallDifficulty:5
ApproachRate:10
SliderMultiplier:1.4
SliderTickRate:1

[Events]
//Background and Video events
0,0,"when_you_cant_draw_shit_lmao.png",0,-10
//Break Periods
//Storyboard Layer 0 (Background)
//Storyboard Layer 1 (Fail)
//Storyboard Layer 2 (Pass)
//Storyboard Layer 3 (Foreground)
//Storyboard Layer 4 (Overlay)
//Storyboard Sound Samples

[TimingPoints]
1924,750,4,1,0,20,1,0
1924,-100,4,1,0,20,0,0
13924,-90.9090909090909,4,1,0,35,0,0
25924,-83.3333333333333,4,1,0,50,0,0
50111,-100,4,1,0,35,0,0
61736,-83.3333333333333,4,1,0,50,0,0
62111,-100,4,1,0,35,0,0
79924,-80,4,1,0,80,0,1
127924,-80,4,1,0,80,0,0
128299,-90.9090909090909,4,1,0,35,0,0
131674,-100,4,1,0,20,0,0
139736,-80,4,1,0,100,0,0

[HitObjects]
256,192,1924,5,0,0:0:0:0:
256,192,3424,1,0,0:0:0:0:
256,192,3986,1,8,0:0:0:0:
256,192,4549,1,8,0:0:0:0:
256,192,4924,1,0,0:0:0:0:
256,192,7924,1,8,0:0:0:0:
256,192,9424,1,8,0:0:0:0:
256,192,9986,1,8,0:0:0:0:
256,192,10549,1,0,0:0:0:0:
256,192,10924,1,0,0:0:0:0:
256,192,13924,1,0,0:0:0:0:
256,192,14111,1,0,0:0:0:0:
256,192,14299,1,8,0:0:0:0:
256,192,14486,1,8,0:0:0:0:
256,192,14674,1,0,0:0:0:0:
256,192,15049,1,8,0:0:0:0:
256,192,15236,1,0,0:0:0:0:
256,192,15611,1,8,0:0:0:0:
256,192,15799,1,8,0:0:0:0:
256,192,16174,1,0,0:0:0:0:
256,192,16549,1,8,0:0:0:0:
256,192,16924,1,0,0:0:0:0:
256,192,17486,1,0,0:0:0:0:
256,192,17674,1,8,0:0:0:0:
256,192,18049,1,8,0:0:0:0:
256,192,18424,1,0,0:0:0:0:
256,192,18611,1,8,0:0:0:0:
256,192,18799,1,8,0:0:0:0:
256,192,19174,1,0,0:0:0:0:
256,192,19549,1,8,0:0:0:0:
256,192,19736,1,8,0:0:0:0:
256,192,19924,1,0,0:0:0:0:
256,192,20486,1,0,0:0:0:0:
256,192,20674,1,8,0:0:0:0:
256,192,21049,1,8,0:0:0:0:
256,192,21424,1,0,0:0:0:0:
256,192,21611,1,8,0:0:0:0:
256,192,21799,1,8,0:0:0:0:
256,192,22174,1,0,0:0:0:0:
256,192,22549,1,8,0:0:0:0:
256,192,22924,1,0,0:0:0:0:
256,192,23392,1,8,0:0:0:0:
256,192,23674,1,0,0:0:0:0:
256,192,23955,1,8,0:0:0:0:
256,192,24142,1,8,0:0:0:0:
256,192,24330,1,0,0:0:0:0:
256,192,24611,1,8,0:0:0:0:
256,192,24799,1,0,0:0:0:0:
256,192,25174,1,8,0:0:0:0:
256,192,25549,1,0,0:0:0:0:
256,192,25924,1,4,0:0:0:0:
256,192,26486,1,8,0:0:0:0:
256,192,26674,1,0,0:0:0:0:
256,192,27049,1,8,0:0:0:0:
256,192,27236,1,0,0:0:0:0:
256,192,27424,1,8,0:0:0:0:
256,192,27611,1,8,0:0:0:0:
256,192,27799,1,0,0:0:0:0:
256,192,28174,1,8,0:0:0:0:
256,192,28549,1,0,0:0:0:0:
256,192,28924,1,8,0:0:0:0:
256,192,29299,1,0,0:0:0:0:
256,192,29674,1,8,0:0:0:0:
256,192,29861,1,8,0:0:0:0:
256,192,30049,1,0,0:0:0:0:
256,192,30424,1,8,0:0:0:0:
256,192,30799,1,0,0:0:0:0:
256,192,30986,1,8,0:0:0:0:
256,192,31361,1,8,0:0:0:0:
256,192,31549,1,0,0:0:0:0:
256,192,31924,1,8,0:0:0:0:
256,192,32486,1,0,0:0:0:0:
256,192,32674,1,8,0:0:0:0:
256,192,33049,1,0,0:0:0:0:
256,192,33236,1,0,0:0:0:0:
256,192,33424,1,8,0:0:0:0:
256,192,33611,1,8,0:0:0:0:
256,192,33799,1,0,0:0:0:0:
256,192,34174,1,8,0:0:0:0:
256,192,34549,1,0,0:0:0:0:
256,192,34736,1,0,0:0:0:0:
256,192,34924,1,8,0:0:0:0:
256,192,35299,1,0,0:0:0:0:
256,192,35674,1,8,0:0:0:0:
256,192,35861,1,8,0:0:0:0:
256,192,36049,1,0,0:0:0:0:
256,192,36424,1,8,0:0:0:0:
256,192,36799,1,0,0:0:0:0:
256,192,36986,1,8,0:0:0:0:
256,192,37361,1,8,0:0:0:0:
256,192,37549,1,0,0:0:0:0:
256,192,37924,1,12,0:0:0:0:
256,192,38486,1,0,0:0:0:0:
256,192,38674,1,8,0:0:0:0:
256,192,39049,1,0,0:0:0:0:
256,192,39424,1,0,0:0:0:0:
256,192,39611,1,8,0:0:0:0:
256,192,39986,1,0,0:0:0:0:
256,192,40174,1,8,0:0:0:0:
256,192,40549,1,0,0:0:0:0:
256,192,40736,1,8,0:0:0:0:
256,192,40924,1,0,0:0:0:0:
256,192,41486,1,0,0:0:0:0:
256,192,41674,1,8,0:0:0:0:
256,192,42049,1,0,0:0:0:0:
256,192,42424,1,0,0:0:0:0:
256,192,42611,1,8,0:0:0:0:
256,192,42986,1,0,0:0:0:0:
256,192,43174,1,8,0:0:0:0:
256,192,43549,1,0,0:0:0:0:
256,192,43736,1,0,0:0:0:0:
256,192,43924,1,0,0:0:0:0:
256,192,44486,1,0,0:0:0:0:
256,192,44674,1,8,0:0:0:0:
256,192,45049,1,0,0:0:0:0:
256,192,45424,1,0,0:0:0:0:
256,192,45611,1,0,0:0:0:0:
256,192,45799,1,8,0:0:0:0:
256,192,46174,1,0,0:0:0:0:
256,192,46549,1,0,0:0:0:0:
256,192,46736,1,8,0:0:0:0:
256,192,46924,1,0,0:0:0:0:
256,192,47111,1,8,0:0:0:0:
256,192,47299,1,0,0:0:0:0:
256,192,47486,1,0,0:0:0:0:
256,192,47674,1,8,0:0:0:0:
256,192,48049,1,0,0:0:0:0:
256,192,48236,1,8,0:0:0:0:
256,192,48424,1,0,0:0:0:0:
256,192,48611,1,8,0:0:0:0:
256,192,48799,1,8,0:0:0:0:
256,192,48986,1,0,0:0:0:0:
256,192,49174,1,8,0:0:0:0:
256,192,49361,1,0,0:0:0:0:
256,192,49455,1,8,0:0:0:0:
256,192,49549,1,0,0:0:0:0:
256,192,49736,1,0,0:0:0:0:
256,192,49924,1,12,0:0:0:0:
256,192,51424,1,0,0:0:0:0:
256,192,51986,1,8,0:0:0:0:
256,192,52549,1,8,0:0:0:0:
256,192,52924,1,0,0:0:0:0:
256,192,55924,1,8,0:0:0:0:
256,192,57424,1,8,0:0:0:0:
256,192,57986,1,8,0:0:0:0:
256,192,58549,1,0,0:0:0:0:
256,192,61924,1,12,0:0:0:0:
256,192,63424,1,0,0:0:0:0:
256,192,63986,1,8,0:0:0:0:
256,192,64549,1,0,0:0:0:0:
256,192,69424,1,0,0:0:0:0:
256,192,69986,1,8,0:0:0:0:
256,192,70549,1,0,0:0:0:0:
256,192,73924,12,0,76174,0:0:0:0:
256,192,76549,12,0,79549,0:0:0:0:
256,192,79924,5,4,0:0:0:0:
256,192,80486,1,0,0:0:0:0:
256,192,80674,1,8,0:0:0:0:
256,192,81049,1,0,0:0:0:0:
256,192,81424,1,8,0:0:0:0:
256,192,81611,1,8,0:0:0:0:
256,192,81799,1,0,0:0:0:0:
256,192,82174,1,8,0:0:0:0:
256,192,82361,1,8,0:0:0:0:
256,192,82549,1,0,0:0:0:0:
256,192,82736,1,8,0:0:0:0:
256,192,82924,1,0,0:0:0:0:
256,192,83299,1,0,0:0:0:0:
256,192,83486,1,0,0:0:0:0:
256,192,83674,1,8,0:0:0:0:
256,192,83861,1,8,0:0:0:0:
256,192,84049,1,0,0:0:0:0:
256,192,84424,1,0,0:0:0:0:
256,192,84611,1,8,0:0:0:0:
256,192,84986,1,0,0:0:0:0:
256,192,85174,1,8,0:0:0:0:
256,192,85549,1,0,0:0:0:0:
256,192,85736,1,8,0:0:0:0:
256,192,85924,1,0,0:0:0:0:
256,192,86486,1,0,0:0:0:0:
256,192,86674,1,8,0:0:0:0:
256,192,87049,1,0,0:0:0:0:
256,192,87424,1,0,0:0:0:0:
256,192,87611,1,8,0:0:0:0:
256,192,87799,1,0,0:0:0:0:
256,192,87986,1,0,0:0:0:0:
256,192,88174,1,8,0:0:0:0:
256,192,88361,1,8,0:0:0:0:
256,192,88549,1,0,0:0:0:0:
256,192,88736,1,8,0:0:0:0:
256,192,88924,1,0,0:0:0:0:
256,192,89299,1,0,0:0:0:0:
256,192,89486,1,0,0:0:0:0:
256,192,89674,1,8,0:0:0:0:
256,192,89861,1,8,0:0:0:0:
256,192,90049,1,0,0:0:0:0:
256,192,90424,1,0,0:0:0:0:
256,192,90611,1,8,0:0:0:0:
256,192,90986,1,0,0:0:0:0:
256,192,91174,1,8,0:0:0:0:
256,192,91549,1,8,0:0:0:0:
256,192,91736,1,8,0:0:0:0:
256,192,91924,1,4,0:0:0:0:
256,192,92486,1,0,0:0:0:0:
256,192,92674,1,8,0:0:0:0:
256,192,93049,1,0,0:0:0:0:
256,192,93424,1,8,0:0:0:0:
256,192,93611,1,8,0:0:0:0:
256,192,93799,1,0,0:0:0:0:
256,192,94174,1,8,0:0:0:0:
256,192,94361,1,0,0:0:0:0:
256,192,94549,1,0,0:0:0:0:
256,192,94736,1,8,0:0:0:0:
256,192,94924,1,0,0:0:0:0:
256,192,95299,1,0,0:0:0:0:
256,192,95486,1,0,0:0:0:0:
256,192,95674,1,8,0:0:0:0:
256,192,95861,1,8,0:0:0:0:
256,192,96049,1,0,0:0:0:0:
256,192,96424,1,0,0:0:0:0:
256,192,96611,1,8,0:0:0:0:
256,192,96799,1,0,0:0:0:0:
256,192,96986,1,0,0:0:0:0:
256,192,97174,1,8,0:0:0:0:
256,192,97549,1,8,0:0:0:0:
256,192,97736,1,8,0:0:0:0:
256,192,97924,1,0,0:0:0:0:
256,192,98486,1,0,0:0:0:0:
256,192,98674,1,8,0:0:0:0:
256,192,99049,1,0,0:0:0:0:
256,192,99424,1,0,0:0:0:0:
256,192,99611,1,0,0:0:0:0:
256,192,99799,1,8,0:0:0:0:
256,192,100174,1,0,0:0:0:0:
256,192,100549,1,0,0:0:0:0:
256,192,100736,1,8,0:0:0:0:
256,192,100924,1,0,0:0:0:0:
256,192,101111,1,8,0:0:0:0:
256,192,101299,1,0,0:0:0:0:
256,192,101486,1,0,0:0:0:0:
256,192,101674,1,8,0:0:0:0:
256,192,101861,1,0,0:0:0:0:
256,192,102049,1,0,0:0:0:0:
256,192,102236,1,8,0:0:0:0:
256,192,102424,1,0,0:0:0:0:
256,192,102611,1,8,0:0:0:0:
256,192,102799,1,8,0:0:0:0:
256,192,102986,1,0,0:0:0:0:
256,192,103174,1,8,0:0:0:0:
256,192,103361,1,0,0:0:0:0:
256,192,103455,1,8,0:0:0:0:
256,192,103549,1,0,0:0:0:0:
256,192,103736,1,0,0:0:0:0:
256,192,103924,1,12,0:0:0:0:
256,192,104299,1,0,0:0:0:0:
256,192,104486,1,0,0:0:0:0:
256,192,104674,1,8,0:0:0:0:
256,192,105049,1,0,0:0:0:0:
256,192,105236,1,8,0:0:0:0:
256,192,105611,1,8,0:0:0:0:
256,192,105799,1,0,0:0:0:0:
256,192,106174,1,8,0:0:0:0:
256,192,106549,1,0,0:0:0:0:
256,192,106736,1,8,0:0:0:0:
256,192,106924,1,0,0:0:0:0:
256,192,106986,1,8,0:0:0:0:
256,192,107299,1,0,0:0:0:0:
256,192,107486,1,0,0:0:0:0:
256,192,107674,1,8,0:0:0:0:
256,192,107861,1,8,0:0:0:0:
256,192,108049,1,0,0:0:0:0:
256,192,108424,1,0,0:0:0:0:
256,192,108611,1,8,0:0:0:0:
256,192,108799,1,0,0:0:0:0:
256,192,108986,1,0,0:0:0:0:
256,192,109174,1,8,0:0:0:0:
256,192,109455,1,8,0:0:0:0:
256,192,109736,1,8,0:0:0:0:
256,192,109861,1,0,0:0:0:0:
256,192,109986,1,8,0:0:0:0:
256,192,110299,1,0,0:0:0:0:
256,192,110486,1,0,0:0:0:0:
256,192,110674,1,8,0:0:0:0:
256,192,111049,1,0,0:0:0:0:
256,192,111236,1,0,0:0:0:0:
256,192,111424,1,8,0:0:0:0:
256,192,111611,1,8,0:0:0:0:
256,192,111799,1,0,0:0:0:0:
256,192,112174,1,8,0:0:0:0:
256,192,112549,1,0,0:0:0:0:
256,192,112736,1,8,0:0:0:0:
256,192,112924,1,0,0:0:0:0:
256,192,113299,1,0,0:0:0:0:
256,192,113486,1,0,0:0:0:0:
256,192,113674,1,8,0:0:0:0:
256,192,113861,1,8,0:0:0:0:
256,192,114049,1,0,0:0:0:0:
256,192,114424,1,0,0:0:0:0:
256,192,114611,1,8,0:0:0:0:
256,192,114799,1,0,0:0:0:0:
256,192,114986,1,0,0:0:0:0:
256,192,115174,1,8,0:0:0:0:
256,192,115549,1,8,0:0:0:0:
256,192,115736,1,8,0:0:0:0:
256,192,115924,1,0,0:0:0:0:
256,192,116111,1,8,0:0:0:0:
256,192,116299,1,0,0:0:0:0:
256,192,116486,1,0,0:0:0:0:
256,192,116674,1,8,0:0:0:0:
256,192,117049,1,0,0:0:0:0:
256,192,117236,1,8,0:0:0:0:
256,192,117611,1,8,0:0:0:0:
256,192,117799,1,0,0:0:0:0:
256,192,118174,1,8,0:0:0:0:
256,192,118549,1,0,0:0:0:0:
256,192,118736,1,8,0:0:0:0:
256,192,118861,1,0,0:0:0:0:
256,192,118986,1,8,0:0:0:0:
256,192,119299,1,0,0:0:0:0:
256,192,119486,1,0,0:0:0:0:
256,192,119674,1,8,0:0:0:0:
256,192,119861,1,8,0:0:0:0:
256,192,120049,1,0,0:0:0:0:
256,192,120424,1,0,0:0:0:0:
256,192,120611,1,8,0:0:0:0:
256,192,120799,1,0,0:0:0:0:
256,192,120986,1,0,0:0:0:0:
256,192,121174,1,8,0:0:0:0:
256,192,121549,1,8,0:0:0:0:
256,192,121736,1,8,0:0:0:0:
256,192,121924,1,0,0:0:0:0:
256,192,122486,1,0,0:0:0:0:
256,192,122674,1,8,0:0:0:0:
256,192,123049,1,0,0:0:0:0:
256,192,123424,1,0,0:0:0:0:
256,192,123611,1,0,0:0:0:0:
256,192,123799,1,8,0:0:0:0:
256,192,124174,1,0,0:0:0:0:
256,192,124549,1,0,0:0:0:0:
256,192,124736,1,8,0:0:0:0:
256,192,124924,1,0,0:0:0:0:
256,192,125111,1,8,0:0:0:0:
256,192,125299,1,0,0:0:0:0:
256,192,125486,1,0,0:0:0:0:
256,192,125674,1,8,0:0:0:0:
256,192,125861,1,0,0:0:0:0:
256,192,126049,1,0,0:0:0:0:
256,192,126236,1,8,0:0:0:0:
256,192,126424,1,0,0:0:0:0:
256,192,126611,1,8,0:0:0:0:
256,192,126799,1,8,0:0:0:0:
256,192,126986,1,0,0:0:0:0:
256,192,127174,1,8,0:0:0:0:
256,192,127361,1,0,0:0:0:0:
256,192,127455,1,8,0:0:0:0:
256,192,127549,1,0,0:0:0:0:
256,192,127736,1,0,0:0:0:0:
256,192,127924,1,12,0:0:0:0:
256,192,128299,1,0,0:0:0:0:
256,192,128486,1,8,0:0:0:0:
256,192,128674,1,0,0:0:0:0:
256,192,129236,1,8,0:0:0:0:
256,192,130174,1,8,0:0:0:0:
256,192,130736,1,0,0:0:0:0:
256,192,130924,1,8,0:0:0:0:
256,192,130986,1,8,0:0:0:0:
256,192,131674,1,0,0:0:0:0:
256,192,132049,1,8,0:0:0:0:
256,192,132424,1,0,0:0:0:0:
256,192,132799,1,0,0:0:0:0:
256,192,133174,1,0,0:0:0:0:
256,192,133549,1,8,0:0:0:0:
256,192,133924,1,0,0:0:0:0:
256,192,134299,1,0,0:0:0:0:
256,192,134674,1,0,0:0:0:0:
256,192,135049,1,8,0:0:0:0:
256,192,135424,1,0,0:0:0:0:
256,192,135799,1,0,0:0:0:0:
256,192,136174,1,8,0:0:0:0:
256,192,136924,1,8,0:0:0:0:
256,192,137674,1,0,0:0:0:0:
256,192,138424,1,8,0:0:0:0:
256,192,139174,1,8,0:0:0:0:
256,192,139924,1,4,0:0:0:0:
