osu file format v14

[General]
AudioFilename: audio.mp3
AudioLeadIn: 0
PreviewTime: 79924
Countdown: 0
SampleSet: Normal
StackLeniency: 0.2
Mode: 1
LetterboxInBreaks: 0
WidescreenStoryboard: 1

[Editor]
DistanceSpacing: 0.1
BeatDivisor: 2
GridSize: 32
TimelineZoom: 0.7999998

[Metadata]
Title:Gloom After Death
TitleUnicode:Gloom After Death
Artist:Sound Souler
ArtistUnicode:Sound Souler
Creator:Axer
Version:Kantan
Source:osu!
Tags:eiri- ayyri vulkin instrumental electronic featured artist fa mappers' guild mg overrapid downtempo
BeatmapID:2462884
BeatmapSetID:1168535

[Difficulty]
HPDrainRate:8
CircleSize:2
OverallDifficulty:2
ApproachRate:10
SliderMultiplier:1.4
SliderTickRate:1

[Events]
//Background and Video events
0,0,"when_you_cant_draw_shit_lmao.png",0,-10
//Break Periods
//Storyboard Layer 0 (Background)
//Storyboard Layer 1 (Fail)
//Storyboard Layer 2 (Pass)
//Storyboard Layer 3 (Foreground)
//Storyboard Layer 4 (Overlay)
//Storyboard Sound Samples

[TimingPoints]
1924,750,4,1,0,20,1,0
1924,-100,4,1,0,20,0,0
13924,-90.9090909090909,4,1,0,35,0,0
25924,-83.3333333333333,4,1,0,50,0,0
50111,-100,4,1,0,35,0,0
61736,-83.3333333333333,4,1,0,50,0,0
62111,-100,4,1,0,35,0,0
79924,-80,4,1,0,80,0,1
127924,-80,4,1,0,80,0,0
128299,-90.9090909090909,4,1,0,35,0,0
131674,-100,4,1,0,20,0,0
139736,-80,4,1,0,100,0,0

[HitObjects]
256,192,1924,5,8,0:0:0:0:
256,192,3424,1,0,0:0:0:0:
256,192,4924,1,8,0:0:0:0:
256,192,7924,1,0,0:0:0:0:
256,192,9424,1,8,0:0:0:0:
256,192,10924,1,0,0:0:0:0:
256,192,13924,1,0,0:0:0:0:
256,192,14674,1,0,0:0:0:0:
256,192,15424,1,0,0:0:0:0:
256,192,16924,1,8,0:0:0:0:
256,192,18424,1,0,0:0:0:0:
256,192,19924,1,0,0:0:0:0:
256,192,21424,1,0,0:0:0:0:
256,192,22174,1,0,0:0:0:0:
256,192,22924,1,8,0:0:0:0:
256,192,23674,1,0,0:0:0:0:
256,192,24424,1,8,0:0:0:0:
256,192,25924,1,4,0:0:0:0:
256,192,26674,1,0,0:0:0:0:
256,192,27424,1,0,0:0:0:0:
256,192,27799,1,8,0:0:0:0:
256,192,28174,1,0,0:0:0:0:
256,192,28924,1,8,0:0:0:0:
256,192,30424,1,8,0:0:0:0:
256,192,31174,1,8,0:0:0:0:
256,192,31549,1,0,0:0:0:0:
256,192,31924,1,0,0:0:0:0:
256,192,32674,1,0,0:0:0:0:
256,192,33424,1,0,0:0:0:0:
256,192,33799,1,8,0:0:0:0:
256,192,34174,1,0,0:0:0:0:
256,192,34924,1,8,0:0:0:0:
256,192,36424,1,8,0:0:0:0:
256,192,37174,1,0,0:0:0:0:
256,192,37549,1,0,0:0:0:0:
256,192,37924,1,12,0:0:0:0:
256,192,38674,1,8,0:0:0:0:
256,192,40174,1,8,0:0:0:0:
256,192,40924,1,0,0:0:0:0:
256,192,41299,1,0,0:0:0:0:
256,192,41674,1,8,0:0:0:0:
256,192,43174,1,8,0:0:0:0:
256,192,43924,1,0,0:0:0:0:
256,192,44299,1,0,0:0:0:0:
256,192,44674,1,8,0:0:0:0:
256,192,45424,1,0,0:0:0:0:
256,192,45799,1,8,0:0:0:0:
256,192,46549,1,0,0:0:0:0:
256,192,46924,1,0,0:0:0:0:
256,192,47674,1,8,0:0:0:0:
256,192,48799,1,8,0:0:0:0:
256,192,49174,1,0,0:0:0:0:
256,192,49549,1,0,0:0:0:0:
256,192,49924,1,12,0:0:0:0:
256,192,51424,1,0,0:0:0:0:
256,192,52924,1,8,0:0:0:0:
256,192,55924,1,0,0:0:0:0:
256,192,57424,1,8,0:0:0:0:
256,192,58924,1,0,0:0:0:0:
256,192,61924,1,12,0:0:0:0:
256,192,63424,1,0,0:0:0:0:
256,192,64924,1,8,0:0:0:0:
256,192,67924,1,0,0:0:0:0:
256,192,69424,1,8,0:0:0:0:
256,192,70924,1,0,0:0:0:0:
256,192,73924,12,0,76174,0:0:0:0:
256,192,76549,12,0,79174,0:0:0:0:
256,192,79924,5,4,0:0:0:0:
256,192,80674,1,8,0:0:0:0:
256,192,81424,1,0,0:0:0:0:
256,192,81799,1,0,0:0:0:0:
256,192,82174,1,8,0:0:0:0:
256,192,82924,1,0,0:0:0:0:
256,192,83674,1,8,0:0:0:0:
256,192,84424,1,0,0:0:0:0:
256,192,85924,1,8,0:0:0:0:
256,192,86674,1,0,0:0:0:0:
256,192,87424,1,8,0:0:0:0:
256,192,88174,1,8,0:0:0:0:
256,192,88549,1,8,0:0:0:0:
256,192,88924,1,0,0:0:0:0:
256,192,89674,1,8,0:0:0:0:
256,192,90424,1,0,0:0:0:0:
256,192,91924,1,4,0:0:0:0:
256,192,92674,1,8,0:0:0:0:
256,192,93424,1,0,0:0:0:0:
256,192,94174,1,8,0:0:0:0:
256,192,94549,1,0,0:0:0:0:
256,192,94924,1,8,0:0:0:0:
256,192,95674,1,8,0:0:0:0:
256,192,96424,1,0,0:0:0:0:
256,192,97924,1,0,0:0:0:0:
256,192,98674,1,8,0:0:0:0:
256,192,99424,1,0,0:0:0:0:
256,192,100174,1,8,0:0:0:0:
256,192,100549,1,8,0:0:0:0:
256,192,100924,1,0,0:0:0:0:
256,192,101674,1,8,0:0:0:0:
256,192,102424,1,0,0:0:0:0:
256,192,103174,1,8,0:0:0:0:
256,192,103924,1,4,0:0:0:0:
256,192,105424,1,0,0:0:0:0:
256,192,106174,1,0,0:0:0:0:
256,192,106924,1,8,0:0:0:0:
256,192,108049,1,0,0:0:0:0:
256,192,109174,1,8,0:0:0:0:
256,192,109924,1,0,0:0:0:0:
256,192,111049,1,0,0:0:0:0:
256,192,112174,1,8,0:0:0:0:
256,192,112924,1,0,0:0:0:0:
256,192,113674,1,8,0:0:0:0:
256,192,114424,1,0,0:0:0:0:
256,192,115174,1,0,0:0:0:0:
256,192,115924,1,8,0:0:0:0:
256,192,117424,1,0,0:0:0:0:
256,192,118174,1,8,0:0:0:0:
256,192,118924,1,8,0:0:0:0:
256,192,120424,1,0,0:0:0:0:
256,192,121174,1,8,0:0:0:0:
256,192,121924,1,0,0:0:0:0:
256,192,123424,1,8,0:0:0:0:
256,192,124924,1,0,0:0:0:0:
256,192,125674,1,8,0:0:0:0:
256,192,126424,1,0,0:0:0:0:
256,192,126799,1,0,0:0:0:0:
256,192,127174,1,8,0:0:0:0:
256,192,127549,1,8,0:0:0:0:
256,192,127924,1,4,0:0:0:0:
256,192,129424,1,0,0:0:0:0:
256,192,130174,1,0,0:0:0:0:
256,192,130924,1,8,0:0:0:0:
256,192,132424,1,0,0:0:0:0:
256,192,133924,1,0,0:0:0:0:
256,192,135424,1,0,0:0:0:0:
256,192,136174,1,8,0:0:0:0:
256,192,136924,1,0,0:0:0:0:
256,192,137674,1,0,0:0:0:0:
256,192,138424,1,8,0:0:0:0:
256,192,139174,1,0,0:0:0:0:
256,192,139924,1,12,0:0:0:0:
