osu file format v14

[General]
AudioFilename: audio.mp3
AudioLeadIn: 0
PreviewTime: 92163
Countdown: 0
SampleSet: Soft
StackLeniency: 0.7
Mode: 3
LetterboxInBreaks: 0
SpecialStyle: 0
WidescreenStoryboard: 1

[Editor]
Bookmarks: 17496,28163,38830,49496,60163,70830,81496,113496,124163,137163
DistanceSpacing: 0.1
BeatDivisor: 4
GridSize: 4
TimelineZoom: 1

[Metadata]
Title:Empty Stars
TitleUnicode:Empty Stars
Artist:Sound Souler
ArtistUnicode:Sound Souler
Creator:cai_ji_ccc
Version:Hard
Source:OverRapid
Tags:mg mappers' guild featured artist fa dynamix dnb video game instrumental drum and bass drum'n'bass piano milkywaytraxx arcane drive team arcstar milkyway traveler artcore electronic
BeatmapID:4264004
BeatmapSetID:2043194

[Difficulty]
HPDrainRate:7.5
CircleSize:4
OverallDifficulty:7.5
ApproachRate:5
SliderMultiplier:1.4
SliderTickRate:1

[Events]
//Background and Video events
0,0,"Empty Stars.png",0,0
//Break Periods
//Storyboard Layer 0 (Background)
//Storyboard Layer 1 (Fail)
//Storyboard Layer 2 (Pass)
//Storyboard Layer 3 (Foreground)
//Storyboard Layer 4 (Overlay)
//Storyboard Sound Samples

[TimingPoints]
1497,333.333333333333,4,2,1,20,1,0
25496,-100,4,2,1,35,0,0
92163,-100,4,2,1,35,0,1
113496,-100,4,2,1,35,0,0

[HitObjects]
192,192,1497,128,0,6830:0:0:0:0:
64,192,6830,1,4,0:0:0:0:
320,192,6830,1,2,0:0:0:0:
448,192,6830,1,0,0:0:0:0:
192,192,6996,1,0,0:0:0:0:
448,192,7163,1,0,0:0:0:0:
64,192,7330,1,0,0:0:0:0:
320,192,7330,1,0,0:0:0:0:
448,192,9496,1,0,0:0:0:0:
320,192,9663,1,0,0:0:0:0:
64,192,9830,1,0,0:0:0:0:
192,192,9996,1,0,0:0:0:0:
448,192,9996,1,0,0:0:0:0:
64,192,12163,1,0,0:0:0:0:
448,192,12663,1,0,0:0:0:0:
192,192,12941,1,0,0:0:0:0:
320,192,13163,1,0,0:0:0:0:
64,192,13330,1,0,0:0:0:0:
448,192,13496,1,0,0:0:0:0:
192,192,13645,1,0,0:0:0:0:
320,192,13793,1,0,0:0:0:0:
64,192,14024,1,0,0:0:0:0:
192,192,14163,1,0,0:0:0:0:
448,192,14385,1,0,0:0:0:0:
320,192,14601,1,0,0:0:0:0:
64,192,14830,1,0,0:0:0:0:
192,192,14830,1,0,0:0:0:0:
192,192,15830,1,0,0:0:0:0:
320,192,16052,1,0,0:0:0:0:
64,192,16348,1,0,0:0:0:0:
448,192,16348,1,0,0:0:0:0:
448,192,17496,1,0,0:0:0:0:
64,192,17663,1,0,0:0:0:0:
320,192,17830,1,0,0:0:0:0:
192,192,17996,1,0,0:0:0:0:
448,192,18163,1,0,0:0:0:8:soft-hitclap.wav
320,192,18330,1,0,0:0:0:0:
192,192,18496,1,0,0:0:0:0:
64,192,18663,1,0,0:0:0:0:
320,192,18830,1,0,0:0:0:0:
192,192,18996,1,0,0:0:0:0:
448,192,19163,1,0,0:0:0:0:
320,192,19330,1,0,0:0:0:0:
64,192,19496,1,0,0:0:0:8:soft-hitclap.wav
448,192,19663,1,0,0:0:0:0:
192,192,19830,1,0,0:0:0:0:
320,192,19996,1,0,0:0:0:0:
64,192,20163,1,0,0:0:0:0:
192,192,20830,1,0,0:0:0:8:soft-hitclap.wav
448,192,20996,1,0,0:0:0:0:
320,192,21080,1,0,0:0:0:0:
64,192,21330,1,0,0:0:0:0:
448,192,21496,1,0,0:0:0:0:
192,192,21663,1,0,0:0:0:0:
448,192,21996,1,0,0:0:0:0:
64,192,22163,1,0,0:0:0:8:soft-hitclap.wav
192,192,22163,1,0,0:0:0:0:
320,192,22330,1,0,0:0:0:8:soft-hitclap.wav
448,192,22330,1,0,0:0:0:0:
64,192,22496,1,0,0:0:0:0:
192,192,22663,1,0,0:0:0:8:soft-hitclap.wav
448,192,22663,1,0,0:0:0:0:
320,192,22830,1,0,0:0:0:0:
64,192,22996,1,0,0:0:0:0:
192,192,23163,1,0,0:0:0:0:
448,192,23330,1,0,0:0:0:0:
64,192,23496,1,0,0:0:0:8:soft-hitclap.wav
320,192,23496,1,0,0:0:0:0:
192,192,23663,1,0,0:0:0:0:
448,192,23830,1,0,0:0:0:0:
320,192,23996,128,0,24163:0:0:0:0:
64,192,24163,1,0,0:0:0:0:
192,192,24330,1,0,0:0:0:0:
320,192,24496,1,0,0:0:0:0:
192,192,24663,128,0,24830:0:0:0:0:
64,192,24830,1,0,0:0:0:13:soft-hitclap.wav
448,192,24830,1,0,0:0:0:0:
320,192,24996,1,0,0:0:0:0:
64,192,25163,128,0,25330:0:0:0:0:
192,192,25330,1,0,0:0:0:18:soft-hitclap.wav
448,192,25330,1,0,0:0:0:0:
320,192,25496,1,0,0:0:0:0:
192,192,25663,1,0,0:0:0:0:
64,192,25830,1,8,0:0:0:0:
448,192,25830,1,0,0:0:0:0:
320,192,25996,1,0,0:0:0:0:
192,192,26163,1,0,0:0:0:0:
64,192,26330,1,0,0:0:0:0:
448,192,26330,1,0,0:0:0:0:
192,192,26496,1,8,0:0:0:0:
320,192,26496,1,0,0:0:0:0:
448,192,26663,1,0,0:0:0:0:
64,192,26830,1,2,0:0:0:0:
192,192,26830,1,4,0:0:0:0:
320,192,26996,1,8,0:0:0:0:
448,192,26996,1,0,0:0:0:0:
64,192,27163,1,8,0:0:0:0:
192,192,27163,1,0,0:0:0:0:
448,192,27330,128,2,27496:0:0:0:0:
320,192,27496,1,0,0:0:0:0:
64,192,27663,128,2,27830:0:0:0:0:
192,192,27663,1,0,0:0:0:0:
320,192,27996,1,8,0:0:0:0:
448,192,27996,1,0,0:0:0:0:
64,192,28163,1,2,0:0:0:0:
192,192,28163,1,4,0:0:0:0:
448,192,28163,1,0,0:0:0:0:
64,192,28330,1,0,0:0:0:0:
320,192,28496,1,8,0:0:0:0:
448,192,28496,1,0,0:0:0:0:
320,192,28663,1,0,0:0:0:0:
192,192,28830,1,0,0:0:0:0:
192,192,28996,1,2,0:0:0:0:
448,192,28996,1,0,0:0:0:0:
64,192,29163,1,8,0:0:0:0:
448,192,29163,1,0,0:0:0:0:
64,192,29330,1,0,0:0:0:0:
320,192,29496,1,0,0:0:0:0:
320,192,29663,1,2,0:0:0:0:
448,192,29663,1,0,0:0:0:0:
64,192,29830,1,8,0:0:0:0:
192,192,29830,1,0,0:0:0:0:
192,192,29996,1,0,0:0:0:0:
448,192,30163,1,0,0:0:0:0:
64,192,30330,1,2,0:0:0:0:
448,192,30330,1,0,0:0:0:0:
64,192,30496,1,8,0:0:0:0:
320,192,30496,1,0,0:0:0:0:
320,192,30663,1,0,0:0:0:0:
64,192,30830,1,2,0:0:0:0:
192,192,30830,1,0,0:0:0:0:
192,192,30996,1,0,0:0:0:0:
320,192,31163,1,8,0:0:0:0:
448,192,31163,1,0,0:0:0:0:
448,192,31330,1,0,0:0:0:0:
64,192,31496,1,0,0:0:0:0:
64,192,31663,1,2,0:0:0:0:
320,192,31663,1,0,0:0:0:0:
192,192,31830,1,8,0:0:0:0:
320,192,31830,1,0,0:0:0:0:
192,192,31996,1,0,0:0:0:0:
448,192,32163,1,0,0:0:0:0:
320,192,32330,1,2,0:0:0:0:
448,192,32330,1,0,0:0:0:0:
64,192,32496,1,8,0:0:0:0:
192,192,32496,1,0,0:0:0:0:
64,192,32663,1,2,0:0:0:0:
320,192,32663,1,0,0:0:0:0:
320,192,32830,1,0,0:0:0:0:
192,192,32996,1,8,0:0:0:0:
448,192,32996,1,0,0:0:0:0:
64,192,33163,1,2,0:0:0:0:
192,192,33163,1,0,0:0:0:0:
320,192,33330,1,8,0:0:0:0:
448,192,33330,1,0,0:0:0:0:
64,192,33496,1,2,0:0:0:0:
448,192,33496,1,0,0:0:0:0:
64,192,33663,1,0,0:0:0:0:
192,192,33830,1,8,0:0:0:0:
320,192,33830,1,0,0:0:0:0:
320,192,33996,1,0,0:0:0:0:
192,192,34163,1,0,0:0:0:0:
192,192,34330,1,2,0:0:0:0:
448,192,34330,1,0,0:0:0:0:
64,192,34496,1,8,0:0:0:0:
448,192,34496,1,0,0:0:0:0:
64,192,34663,1,0,0:0:0:0:
320,192,34830,1,2,0:0:0:0:
448,192,34830,1,0,0:0:0:0:
320,192,34996,1,0,0:0:0:0:
64,192,35163,1,8,0:0:0:0:
192,192,35163,1,0,0:0:0:0:
192,192,35330,1,0,0:0:0:0:
448,192,35496,1,0,0:0:0:0:
320,192,35663,1,2,0:0:0:0:
448,192,35663,1,0,0:0:0:0:
64,192,35830,1,8,0:0:0:0:
192,192,35830,1,0,0:0:0:0:
64,192,35996,1,0,0:0:0:0:
192,192,36163,1,2,0:0:0:0:
448,192,36163,1,0,0:0:0:0:
448,192,36330,1,0,0:0:0:0:
64,192,36496,1,8,0:0:0:0:
192,192,36496,1,0,0:0:0:0:
192,192,36663,1,0,0:0:0:0:
320,192,36830,1,0,0:0:0:0:
64,192,36996,1,2,0:0:0:0:
320,192,36996,1,0,0:0:0:0:
64,192,37163,1,8,0:0:0:0:
448,192,37163,1,0,0:0:0:0:
448,192,37330,1,0,0:0:0:0:
64,192,37496,1,2,0:0:0:0:
192,192,37496,1,0,0:0:0:0:
320,192,37663,1,8,0:0:0:0:
448,192,37663,1,0,0:0:0:0:
320,192,37830,1,0,0:0:0:0:
64,192,37996,1,2,0:0:0:0:
192,192,37996,1,0,0:0:0:0:
64,192,38163,1,0,0:0:0:0:
320,192,38330,1,8,0:0:0:0:
448,192,38330,1,0,0:0:0:0:
320,192,38496,1,8,0:0:0:0:
448,192,38496,1,0,0:0:0:0:
64,192,38663,1,2,0:0:0:0:
192,192,38663,1,0,0:0:0:0:
64,192,38830,1,4,0:0:0:0:
320,192,38830,1,2,0:0:0:0:
448,192,38830,1,0,0:0:0:0:
448,192,38996,1,0,0:0:0:0:
64,192,39163,1,8,0:0:0:0:
192,192,39163,1,0,0:0:0:0:
192,192,39330,1,0,0:0:0:0:
448,192,39330,1,0,0:0:0:0:
320,192,39496,1,0,0:0:0:0:
64,192,39663,1,2,0:0:0:0:
320,192,39663,1,0,0:0:0:0:
192,192,39830,1,8,0:0:0:0:
64,192,39830,1,0,0:0:0:0:
192,192,39996,1,0,0:0:0:0:
448,192,39996,1,0,0:0:0:0:
320,192,40163,1,0,0:0:0:0:
320,192,40330,1,2,0:0:0:0:
64,192,40330,1,0,0:0:0:0:
192,192,40496,1,8,0:0:0:0:
64,192,40496,1,0,0:0:0:0:
320,192,40663,1,0,0:0:0:0:
448,192,40663,1,0,0:0:0:0:
64,192,40830,1,0,0:0:0:0:
448,192,40830,1,0,0:0:0:0:
64,192,40996,1,2,0:0:0:0:
192,192,40996,1,0,0:0:0:0:
192,192,41163,1,8,0:0:0:0:
320,192,41163,1,0,0:0:0:0:
320,192,41330,1,0,0:0:0:0:
448,192,41330,1,0,0:0:0:0:
64,192,41496,1,2,0:0:0:0:
192,192,41496,1,0,0:0:0:0:
64,192,41663,1,0,0:0:0:0:
320,192,41830,1,8,0:0:0:0:
448,192,41830,1,0,0:0:0:0:
192,192,41996,1,0,0:0:0:0:
448,192,41996,1,0,0:0:0:0:
320,192,42163,1,0,0:0:0:0:
320,192,42330,1,2,0:0:0:0:
64,192,42330,1,0,0:0:0:0:
192,192,42496,1,8,0:0:0:0:
64,192,42496,1,0,0:0:0:0:
192,192,42663,1,0,0:0:0:0:
448,192,42830,1,0,0:0:0:0:
64,192,42996,1,2,0:0:0:0:
448,192,42996,1,0,0:0:0:0:
64,192,43163,1,8,0:0:0:0:
192,192,43163,1,0,0:0:0:0:
320,192,43330,1,2,0:0:0:0:
448,192,43330,1,0,0:0:0:0:
320,192,43496,1,0,0:0:0:0:
64,192,43663,1,8,0:0:0:0:
192,192,43663,1,0,0:0:0:0:
64,192,43830,1,2,0:0:0:0:
448,192,43830,1,0,0:0:0:0:
320,192,43996,1,8,0:0:0:0:
448,192,43996,1,0,0:0:0:0:
64,192,44163,1,2,0:0:0:0:
192,192,44163,1,0,0:0:0:0:
192,192,44330,1,0,0:0:0:0:
320,192,44330,1,0,0:0:0:0:
320,192,44496,1,8,0:0:0:0:
448,192,44496,1,0,0:0:0:0:
64,192,44663,1,0,0:0:0:0:
192,192,44663,1,0,0:0:0:0:
448,192,44830,1,0,0:0:0:0:
320,192,44996,1,2,0:0:0:0:
448,192,44996,1,0,0:0:0:0:
64,192,45163,1,8,0:0:0:0:
192,192,45163,1,0,0:0:0:0:
320,192,45330,1,0,0:0:0:0:
448,192,45330,1,0,0:0:0:0:
64,192,45496,1,2,0:0:0:0:
448,192,45496,1,0,0:0:0:0:
64,192,45663,1,0,0:0:0:0:
192,192,45830,1,8,0:0:0:0:
320,192,45830,1,0,0:0:0:0:
320,192,45996,1,0,0:0:0:0:
192,192,46163,1,0,0:0:0:0:
448,192,46330,1,2,0:0:0:0:
192,192,46330,1,0,0:0:0:0:
448,192,46496,1,8,0:0:0:0:
64,192,46496,1,0,0:0:0:0:
64,192,46663,1,0,0:0:0:0:
448,192,46830,1,2,0:0:0:0:
320,192,46830,1,0,0:0:0:0:
320,192,46996,1,0,0:0:0:0:
192,192,47163,1,8,0:0:0:0:
64,192,47163,1,0,0:0:0:0:
448,192,47330,1,0,0:0:0:0:
320,192,47330,1,0,0:0:0:0:
64,192,47496,1,0,0:0:0:0:
192,192,47663,1,2,0:0:0:0:
64,192,47663,1,0,0:0:0:0:
448,192,47830,1,8,0:0:0:0:
192,192,47830,1,0,0:0:0:0:
448,192,47996,1,0,0:0:0:0:
320,192,48163,1,8,0:0:0:0:
192,192,48163,1,4,0:0:0:0:
64,192,48163,1,0,0:0:0:0:
192,192,48330,1,4,0:0:0:0:
64,192,48330,1,2,0:0:0:0:
320,192,48496,1,0,0:0:0:0:
64,192,48663,1,8,0:0:0:0:
448,192,48663,1,0,0:0:0:0:
320,192,48830,1,2,0:0:0:0:
448,192,48830,1,0,0:0:0:0:
64,192,48996,1,2,0:0:0:0:
192,192,48996,1,0,0:0:0:0:
320,192,49163,1,8,0:0:0:0:
448,192,49163,1,0,0:0:0:0:
192,192,49330,1,0,0:0:0:0:
320,192,49496,1,0,0:0:0:0:
320,192,49663,1,0,0:0:0:0:
64,192,49830,1,0,0:0:0:0:
64,192,49996,1,0,0:0:0:0:
448,192,50163,1,0,0:0:0:0:
448,192,50330,1,0,0:0:0:0:
192,192,50496,1,0,0:0:0:0:
320,192,50663,1,0,0:0:0:0:
64,192,50830,1,0,0:0:0:0:
64,192,50996,1,0,0:0:0:0:
448,192,51163,1,0,0:0:0:0:
448,192,51330,1,0,0:0:0:0:
192,192,51496,1,0,0:0:0:0:
192,192,51663,1,0,0:0:0:0:
320,192,51830,1,0,0:0:0:0:
320,192,51996,1,0,0:0:0:0:
64,192,52163,1,0,0:0:0:0:
64,192,52330,1,0,0:0:0:0:
448,192,52496,1,0,0:0:0:0:
448,192,52663,1,0,0:0:0:0:
192,192,52830,1,0,0:0:0:0:
192,192,52996,1,0,0:0:0:0:
320,192,53163,1,0,0:0:0:0:
64,192,53330,1,0,0:0:0:0:
448,192,53496,1,0,0:0:0:0:
448,192,53663,1,0,0:0:0:0:
192,192,53830,1,0,0:0:0:0:
192,192,53996,1,0,0:0:0:0:
320,192,54163,1,0,0:0:0:0:
320,192,54330,1,0,0:0:0:0:
64,192,54496,1,0,0:0:0:0:
64,192,54663,1,0,0:0:0:0:
192,192,54830,1,2,0:0:0:0:
320,192,54830,1,4,0:0:0:0:
448,192,54830,1,0,0:0:0:0:
448,192,54996,1,0,0:0:0:0:
64,192,55163,1,8,0:0:0:0:
192,192,55163,1,0,0:0:0:0:
192,192,55330,1,2,0:0:0:0:
448,192,55330,1,0,0:0:0:0:
320,192,55496,1,0,0:0:0:0:
320,192,55663,1,8,0:0:0:0:
448,192,55663,1,0,0:0:0:0:
64,192,55830,1,0,0:0:0:0:
64,192,55996,1,2,0:0:0:0:
192,192,55996,1,0,0:0:0:0:
320,192,56163,1,2,0:0:0:0:
448,192,56163,1,0,0:0:0:0:
320,192,56330,1,0,0:0:0:0:
192,192,56496,1,8,0:0:0:0:
448,192,56496,1,0,0:0:0:0:
64,192,56663,1,2,0:0:0:0:
192,192,56663,1,0,0:0:0:0:
448,192,56830,1,0,0:0:0:0:
320,192,56996,1,8,0:0:0:0:
448,192,56996,1,0,0:0:0:0:
64,192,57163,1,2,0:0:0:0:
192,192,57163,1,0,0:0:0:0:
320,192,57330,1,2,0:0:0:0:
448,192,57330,1,0,0:0:0:0:
64,192,57496,1,2,0:0:0:0:
192,192,57496,1,0,0:0:0:0:
64,192,57663,1,0,0:0:0:0:
320,192,57830,1,8,0:0:0:0:
448,192,57830,1,0,0:0:0:0:
64,192,57996,1,2,0:0:0:0:
320,192,57996,1,0,0:0:0:0:
192,192,58163,1,0,0:0:0:0:
64,192,58330,1,8,0:0:0:0:
192,192,58330,1,0,0:0:0:0:
448,192,58496,1,0,0:0:0:0:
320,192,58663,1,2,0:0:0:0:
448,192,58663,1,0,0:0:0:0:
64,192,58830,1,2,0:0:0:0:
192,192,58830,1,0,0:0:0:0:
320,192,58996,1,8,0:0:0:0:
448,192,58996,1,0,0:0:0:0:
64,192,59163,1,8,0:0:0:0:
320,192,59163,1,0,0:0:0:0:
64,192,59330,1,2,0:0:0:0:
192,192,59330,1,4,0:0:0:0:
448,192,59330,1,0,0:0:0:0:
320,192,59496,1,0,0:0:0:0:
320,192,59663,1,0,0:0:0:0:
192,192,59830,1,0,0:0:0:0:
192,192,59996,1,0,0:0:0:0:
64,192,60163,1,2,0:0:0:0:
320,192,60163,1,4,0:0:0:0:
448,192,60163,1,0,0:0:0:0:
192,192,60385,128,0,60496:0:0:0:0:
448,192,60496,128,0,60608:0:0:0:0:
320,192,60719,128,0,60830:0:0:0:0:
64,192,60830,128,0,60941:0:0:0:0:
192,192,61052,128,0,61163:0:0:0:0:
448,192,61163,128,0,61274:0:0:0:0:
320,192,61385,128,0,61496:0:0:0:0:
64,192,61496,128,0,61608:0:0:0:0:
192,192,61830,128,0,61941:0:0:0:0:
448,192,61830,128,0,61941:0:0:0:0:
320,192,62052,128,0,62163:0:0:0:0:
64,192,62163,128,0,62274:0:0:0:0:
192,192,62385,128,0,62496:0:0:0:0:
448,192,62496,128,0,62608:0:0:0:0:
64,192,62719,128,0,62830:0:0:0:0:
320,192,62830,128,0,62941:0:0:0:0:
192,192,63052,128,0,63163:0:0:0:0:
448,192,63163,128,0,63274:0:0:0:0:
320,192,63385,128,0,63496:0:0:0:0:
64,192,63496,128,0,63608:0:0:0:0:
448,192,63719,128,0,63830:0:0:0:0:
192,192,63830,128,0,63941:0:0:0:0:
320,192,64052,128,0,64163:0:0:0:0:
64,192,64163,128,0,65496:0:0:0:0:
448,192,64163,128,0,64496:0:0:0:0:
192,192,64496,128,0,64830:0:0:0:0:
320,192,64830,128,0,65163:0:0:0:0:
192,192,65163,128,0,65496:0:0:0:0:
320,192,65496,1,0,0:0:0:0:
448,192,65496,128,0,65608:0:0:0:0:
448,192,65719,128,0,65830:0:0:0:0:
192,192,65830,128,0,65941:0:0:0:0:
192,192,66052,128,0,66163:0:0:0:0:
320,192,66163,128,0,66274:0:0:0:0:
320,192,66385,128,0,66496:0:0:0:0:
64,192,66496,128,0,66608:0:0:0:0:
64,192,66719,128,0,66830:0:0:0:0:
448,192,66830,128,0,66941:0:0:0:0:
448,192,67052,128,0,67163:0:0:0:0:
192,192,67163,128,0,67274:0:0:0:0:
192,192,67385,128,0,67496:0:0:0:0:
320,192,67496,128,0,67608:0:0:0:0:
320,192,67719,128,0,67830:0:0:0:0:
64,192,67830,128,0,67941:0:0:0:0:
64,192,68052,128,0,68163:0:0:0:0:
448,192,68163,128,0,68274:0:0:0:0:
448,192,68385,128,0,68496:0:0:0:0:
192,192,68496,128,0,68608:0:0:0:0:
192,192,68719,128,0,68830:0:0:0:0:
320,192,68830,128,0,68941:0:0:0:0:
320,192,69052,128,0,69163:0:0:0:0:
64,192,69163,128,0,69274:0:0:0:0:
64,192,69385,128,0,69496:0:0:0:0:
320,192,69496,1,4,0:0:0:0:
448,192,69496,1,0,0:0:0:0:
192,192,69830,1,0,0:0:0:0:
320,192,69830,1,0,0:0:0:0:
64,192,70163,1,0,0:0:0:0:
192,192,70163,1,0,0:0:0:0:
320,192,70496,1,0,0:0:0:0:
448,192,70496,1,0,0:0:0:0:
64,192,70830,1,4,0:0:0:0:
192,192,70830,1,2,0:0:0:0:
448,192,70830,1,0,0:0:0:0:
192,192,70996,1,0,0:0:0:0:
320,192,71163,1,8,0:0:0:0:
448,192,71163,1,0,0:0:0:0:
64,192,71330,1,0,0:0:0:0:
192,192,71330,1,0,0:0:0:0:
448,192,71496,1,0,0:0:0:0:
64,192,71663,1,2,0:0:0:0:
320,192,71663,1,0,0:0:0:0:
64,192,71830,1,8,0:0:0:0:
192,192,71830,1,0,0:0:0:0:
320,192,71996,1,0,0:0:0:0:
448,192,71996,1,0,0:0:0:0:
64,192,72163,1,2,0:0:0:0:
448,192,72163,1,0,0:0:0:0:
192,192,72330,1,0,0:0:0:0:
320,192,72330,1,0,0:0:0:0:
64,192,72496,1,8,0:0:0:0:
192,192,72496,1,0,0:0:0:0:
320,192,72663,1,0,0:0:0:0:
448,192,72663,1,0,0:0:0:0:
64,192,72830,1,0,0:0:0:0:
448,192,72830,1,0,0:0:0:0:
192,192,72996,1,2,0:0:0:0:
320,192,72996,1,0,0:0:0:0:
64,192,73163,1,8,0:0:0:0:
192,192,73163,1,0,0:0:0:0:
320,192,73330,1,0,0:0:0:0:
448,192,73330,1,0,0:0:0:0:
64,192,73496,1,2,0:0:0:0:
448,192,73496,1,0,0:0:0:0:
64,192,73663,1,0,0:0:0:0:
192,192,73663,1,0,0:0:0:0:
192,192,73830,1,8,0:0:0:0:
320,192,73830,1,0,0:0:0:0:
320,192,73996,1,0,0:0:0:0:
448,192,73996,1,0,0:0:0:0:
64,192,74163,1,0,0:0:0:0:
192,192,74163,1,0,0:0:0:0:
320,192,74330,1,2,0:0:0:0:
448,192,74330,1,0,0:0:0:0:
192,192,74496,1,8,0:0:0:0:
320,192,74496,1,0,0:0:0:0:
64,192,74663,1,0,0:0:0:0:
192,192,74663,1,0,0:0:0:0:
320,192,74830,1,2,0:0:0:0:
448,192,74830,1,0,0:0:0:0:
192,192,74996,1,0,0:0:0:0:
448,192,74996,1,0,0:0:0:0:
64,192,75163,1,8,0:0:0:0:
192,192,75163,1,0,0:0:0:0:
64,192,75330,1,2,0:0:0:0:
320,192,75330,1,0,0:0:0:0:
320,192,75496,1,0,0:0:0:0:
448,192,75496,1,0,0:0:0:0:
192,192,75663,1,8,0:0:0:0:
448,192,75663,1,0,0:0:0:0:
64,192,75830,1,2,0:0:0:0:
320,192,75830,1,0,0:0:0:0:
64,192,75996,1,8,0:0:0:0:
192,192,75996,1,0,0:0:0:0:
320,192,76163,1,2,0:0:0:0:
448,192,76163,1,0,0:0:0:0:
448,192,76330,1,0,0:0:0:0:
64,192,76496,1,8,0:0:0:0:
192,192,76496,1,0,0:0:0:0:
320,192,76663,1,0,0:0:0:0:
448,192,76663,1,0,0:0:0:0:
64,192,76830,1,0,0:0:0:0:
192,192,76996,1,2,0:0:0:0:
448,192,76996,1,0,0:0:0:0:
320,192,77163,1,8,0:0:0:0:
448,192,77163,1,0,0:0:0:0:
64,192,77330,1,0,0:0:0:0:
192,192,77330,1,0,0:0:0:0:
64,192,77496,1,2,0:0:0:0:
448,192,77496,1,0,0:0:0:0:
192,192,77663,1,0,0:0:0:0:
320,192,77663,1,0,0:0:0:0:
320,192,77830,1,8,0:0:0:0:
448,192,77830,1,0,0:0:0:0:
64,192,77996,1,0,0:0:0:0:
192,192,77996,1,0,0:0:0:0:
448,192,78163,1,0,0:0:0:0:
64,192,78330,1,2,0:0:0:0:
320,192,78330,1,0,0:0:0:0:
64,192,78496,1,8,0:0:0:0:
192,192,78496,1,0,0:0:0:0:
192,192,78663,1,0,0:0:0:0:
320,192,78663,1,0,0:0:0:0:
320,192,78830,1,2,0:0:0:0:
448,192,78830,1,0,0:0:0:0:
64,192,78996,1,0,0:0:0:0:
192,192,78996,1,0,0:0:0:0:
320,192,79163,1,8,0:0:0:0:
448,192,79163,1,0,0:0:0:0:
64,192,79330,1,0,0:0:0:0:
320,192,79330,1,0,0:0:0:0:
192,192,79496,1,0,0:0:0:0:
320,192,79663,1,2,0:0:0:0:
448,192,79663,1,0,0:0:0:0:
64,192,79830,1,8,0:0:0:0:
448,192,79830,1,0,0:0:0:0:
64,192,79996,1,0,0:0:0:0:
192,192,79996,1,0,0:0:0:0:
320,192,80163,1,2,0:0:0:0:
448,192,80163,1,0,0:0:0:0:
64,192,80330,1,8,0:0:0:0:
448,192,80330,1,0,0:0:0:0:
192,192,80496,1,0,0:0:0:0:
320,192,80663,1,2,0:0:0:0:
448,192,80663,1,0,0:0:0:0:
192,192,80830,1,0,0:0:0:0:
64,192,80996,1,8,0:0:0:0:
448,192,80996,1,0,0:0:0:0:
320,192,81163,1,8,0:0:0:0:
448,192,81163,1,0,0:0:0:0:
64,192,81330,1,2,0:0:0:0:
192,192,81330,1,0,0:0:0:0:
64,192,81496,1,2,0:0:0:0:
320,192,81496,1,4,0:0:0:0:
448,192,81496,128,0,82830:0:0:0:0:
320,192,81663,1,0,0:0:0:0:
64,192,81830,1,8,0:0:0:0:
192,192,81830,1,0,0:0:0:0:
320,192,81996,1,0,0:0:0:0:
192,192,82163,1,0,0:0:0:0:
64,192,82330,1,2,0:0:0:0:
64,192,82496,1,8,0:0:0:0:
320,192,82496,1,0,0:0:0:0:
192,192,82663,1,0,0:0:0:0:
192,192,82830,128,2,84163:0:0:0:0:
320,192,82830,1,0,0:0:0:0:
64,192,82996,1,0,0:0:0:0:
64,192,83163,1,8,0:0:0:0:
448,192,83163,1,0,0:0:0:0:
448,192,83330,1,0,0:0:0:0:
320,192,83496,1,0,0:0:0:0:
64,192,83663,1,2,0:0:0:0:
64,192,83830,1,8,0:0:0:0:
448,192,83830,1,0,0:0:0:0:
320,192,83996,1,0,0:0:0:0:
64,192,84163,1,2,0:0:0:0:
320,192,84163,128,0,85496:0:0:0:0:
64,192,84330,1,0,0:0:0:0:
192,192,84496,1,8,0:0:0:0:
448,192,84496,1,0,0:0:0:0:
448,192,84663,1,0,0:0:0:0:
192,192,84830,1,0,0:0:0:0:
192,192,84996,1,2,0:0:0:0:
64,192,85163,1,8,0:0:0:0:
448,192,85163,1,0,0:0:0:0:
448,192,85330,1,0,0:0:0:0:
192,192,85496,1,0,0:0:0:0:
64,192,85496,1,2,0:0:0:0:
192,192,85663,1,0,0:0:0:0:
320,192,85830,1,8,0:0:0:0:
448,192,85830,1,0,0:0:0:0:
64,192,85996,1,0,0:0:0:0:
448,192,86080,1,2,0:0:0:0:
192,192,86163,1,0,0:0:0:0:
320,192,86330,1,2,0:0:0:0:
448,192,86330,1,0,0:0:0:0:
192,192,86496,1,8,0:0:0:0:
64,192,86496,1,0,0:0:0:0:
192,192,86663,1,8,0:0:0:0:
448,192,86663,1,0,0:0:0:0:
320,192,86830,1,2,0:0:0:0:
448,192,86830,128,0,88163:0:0:0:0:
320,192,86996,1,0,0:0:0:0:
64,192,87163,1,8,0:0:0:0:
192,192,87163,1,0,0:0:0:0:
192,192,87330,1,2,0:0:0:0:
320,192,87496,1,0,0:0:0:0:
64,192,87663,1,2,0:0:0:0:
64,192,87830,1,8,0:0:0:0:
320,192,87830,1,0,0:0:0:0:
192,192,87996,1,0,0:0:0:0:
192,192,88163,128,2,89496:0:0:0:0:
320,192,88163,1,0,0:0:0:0:
320,192,88330,1,0,0:0:0:0:
64,192,88496,1,8,0:0:0:0:
448,192,88496,1,0,0:0:0:0:
64,192,88663,1,2,0:0:0:0:
320,192,88830,1,0,0:0:0:0:
448,192,88996,1,2,0:0:0:0:
64,192,89163,1,8,0:0:0:0:
448,192,89163,1,0,0:0:0:0:
64,192,89330,1,0,0:0:0:0:
448,192,89496,1,2,0:0:0:0:
320,192,89496,128,0,90830:0:0:0:0:
448,192,89663,1,0,0:0:0:0:
192,192,89830,1,8,0:0:0:0:
64,192,89830,1,0,0:0:0:0:
64,192,89996,1,2,0:0:0:0:
448,192,90163,1,0,0:0:0:0:
448,192,90330,1,2,0:0:0:0:
64,192,90496,1,8,0:0:0:0:
192,192,90496,1,0,0:0:0:0:
192,192,90663,1,0,0:0:0:0:
64,192,90830,1,4,0:0:0:0:
448,192,90830,1,0,0:0:0:0:
320,192,90996,1,0,0:0:0:0:
192,192,91163,128,0,91330:0:0:0:0:
448,192,91330,1,0,0:0:0:0:
64,192,91496,1,8,0:0:0:0:
192,192,91496,1,0,0:0:0:0:
320,192,91663,1,2,0:0:0:0:
448,192,91663,1,0,0:0:0:0:
64,192,91746,1,8,0:0:0:0:
192,192,91746,1,0,0:0:0:0:
320,192,91996,1,8,0:0:0:0:
448,192,91996,1,0,0:0:0:0:
192,192,92163,1,4,0:0:0:0:
448,192,92163,1,0,0:0:0:0:
64,192,92163,1,2,0:0:0:0:
64,192,92330,1,0,0:0:0:0:
448,192,92496,1,8,0:0:0:0:
320,192,92496,1,0,0:0:0:0:
320,192,92663,1,0,0:0:0:0:
64,192,92830,1,0,0:0:0:0:
192,192,92996,1,2,0:0:0:0:
448,192,92996,1,0,0:0:0:0:
192,192,93163,1,8,0:0:0:0:
320,192,93163,1,0,0:0:0:0:
320,192,93330,1,0,0:0:0:0:
64,192,93496,1,0,0:0:0:0:
64,192,93663,1,2,0:0:0:0:
448,192,93663,1,0,0:0:0:0:
448,192,93830,1,8,0:0:0:0:
192,192,93830,1,0,0:0:0:0:
320,192,93996,1,0,0:0:0:0:
64,192,94163,1,2,0:0:0:0:
192,192,94163,1,0,0:0:0:0:
448,192,94330,1,2,0:0:0:0:
320,192,94330,1,0,0:0:0:0:
64,192,94496,1,0,0:0:0:0:
448,192,94496,1,8,0:0:0:0:
192,192,94663,1,0,0:0:0:0:
320,192,94830,1,0,0:0:0:0:
448,192,94830,1,2,0:0:0:0:
192,192,94996,1,0,0:0:0:0:
64,192,95163,1,8,0:0:0:0:
448,192,95163,1,0,0:0:0:0:
320,192,95330,1,0,0:0:0:0:
192,192,95496,1,0,0:0:0:0:
64,192,95663,1,2,0:0:0:0:
192,192,95663,1,0,0:0:0:0:
320,192,95830,1,8,0:0:0:0:
448,192,95830,1,0,0:0:0:0:
64,192,95996,1,0,0:0:0:0:
192,192,96163,1,0,0:0:0:0:
448,192,96330,1,2,0:0:0:0:
320,192,96330,1,0,0:0:0:0:
64,192,96496,1,8,0:0:0:0:
448,192,96496,1,0,0:0:0:0:
64,192,96663,1,2,0:0:0:0:
192,192,96663,1,0,0:0:0:0:
448,192,96830,1,0,0:0:0:0:
320,192,96996,1,8,0:0:0:0:
64,192,96996,1,0,0:0:0:0:
192,192,97163,1,2,0:0:0:0:
64,192,97163,1,0,0:0:0:0:
192,192,97330,1,8,0:0:0:0:
448,192,97330,1,0,0:0:0:0:
320,192,97496,1,2,0:0:0:0:
448,192,97496,1,0,0:0:0:0:
192,192,97663,1,0,0:0:0:0:
64,192,97830,1,8,0:0:0:0:
448,192,97830,1,0,0:0:0:0:
64,192,97996,1,0,0:0:0:0:
320,192,98163,1,0,0:0:0:0:
320,192,98330,1,2,0:0:0:0:
448,192,98330,1,0,0:0:0:0:
64,192,98496,1,0,0:0:0:0:
192,192,98496,1,8,0:0:0:0:
448,192,98663,1,0,0:0:0:0:
320,192,98830,1,0,0:0:0:0:
320,192,98996,1,2,0:0:0:0:
64,192,98996,1,0,0:0:0:0:
192,192,99163,1,8,0:0:0:0:
64,192,99163,1,0,0:0:0:0:
192,192,99330,1,0,0:0:0:0:
320,192,99496,1,2,0:0:0:0:
448,192,99496,1,0,0:0:0:0:
448,192,99663,1,2,0:0:0:0:
64,192,99663,1,0,0:0:0:0:
64,192,99830,1,8,0:0:0:0:
192,192,99830,1,0,0:0:0:0:
320,192,99996,1,0,0:0:0:0:
448,192,100163,1,0,0:0:0:0:
64,192,100163,1,2,0:0:0:0:
192,192,100330,1,0,0:0:0:0:
448,192,100496,1,8,0:0:0:0:
192,192,100496,1,0,0:0:0:0:
320,192,100663,1,0,0:0:0:0:
64,192,100830,1,0,0:0:0:0:
448,192,100996,1,2,0:0:0:0:
192,192,100996,1,0,0:0:0:0:
448,192,101163,1,8,0:0:0:0:
320,192,101163,1,0,0:0:0:0:
192,192,101330,1,0,0:0:0:0:
448,192,101496,1,0,0:0:0:0:
320,192,101663,1,2,0:0:0:0:
64,192,101663,1,0,0:0:0:0:
64,192,101830,1,8,0:0:0:0:
192,192,101830,1,0,0:0:0:0:
448,192,101996,1,2,0:0:0:0:
320,192,101996,1,0,0:0:0:0:
192,192,102163,1,0,0:0:0:0:
64,192,102330,1,8,0:0:0:0:
448,192,102330,1,0,0:0:0:0:
448,192,102496,1,8,0:0:0:0:
320,192,102496,1,0,0:0:0:0:
64,192,102663,1,2,0:0:0:0:
192,192,102663,1,0,0:0:0:0:
64,192,102830,1,2,0:0:0:0:
448,192,102830,1,0,0:0:0:0:
320,192,102996,1,0,0:0:0:0:
192,192,103163,1,8,0:0:0:0:
64,192,103163,1,0,0:0:0:0:
192,192,103330,1,2,0:0:0:0:
448,192,103330,1,0,0:0:0:0:
320,192,103496,1,0,0:0:0:0:
64,192,103663,1,2,0:0:0:0:
192,192,103663,1,0,0:0:0:0:
320,192,103830,1,0,0:0:0:0:
448,192,103830,1,8,0:0:0:0:
64,192,103996,1,0,0:0:0:0:
448,192,104163,1,0,0:0:0:0:
192,192,104163,1,0,0:0:0:0:
448,192,104330,1,2,0:0:0:0:
320,192,104330,1,0,0:0:0:0:
192,192,104496,1,8,0:0:0:0:
64,192,104496,1,0,0:0:0:0:
448,192,104663,1,0,0:0:0:0:
320,192,104830,1,2,0:0:0:0:
64,192,104830,1,0,0:0:0:0:
64,192,104996,1,2,0:0:0:0:
192,192,104996,1,0,0:0:0:0:
192,192,105163,1,8,0:0:0:0:
448,192,105163,1,0,0:0:0:0:
320,192,105330,1,0,0:0:0:0:
64,192,105496,1,2,0:0:0:0:
192,192,105496,1,0,0:0:0:0:
448,192,105663,1,0,0:0:0:0:
320,192,105830,1,8,0:0:0:0:
448,192,105830,1,0,0:0:0:0:
192,192,105996,1,2,0:0:0:0:
64,192,105996,1,0,0:0:0:0:
320,192,106163,1,0,0:0:0:0:
64,192,106330,1,2,0:0:0:0:
320,192,106330,1,0,0:0:0:0:
64,192,106496,1,8,0:0:0:0:
192,192,106496,1,0,0:0:0:0:
448,192,106663,1,0,0:0:0:0:
192,192,106830,1,0,0:0:0:0:
448,192,106996,1,2,0:0:0:0:
320,192,106996,1,0,0:0:0:0:
64,192,107163,1,8,0:0:0:0:
448,192,107163,1,0,0:0:0:0:
320,192,107413,1,2,0:0:0:0:
64,192,107413,1,0,0:0:0:0:
192,192,107496,1,0,0:0:0:0:
320,192,107663,1,2,0:0:0:0:
448,192,107663,1,0,0:0:0:0:
192,192,107830,1,8,0:0:0:0:
320,192,107830,1,0,0:0:0:0:
192,192,107996,1,2,0:0:0:0:
64,192,107996,1,0,0:0:0:0:
64,192,108163,1,2,0:0:0:0:
320,192,108163,1,4,0:0:0:0:
448,192,108163,1,0,0:0:0:0:
448,192,108330,1,0,0:0:0:0:
64,192,108496,1,8,0:0:0:0:
192,192,108496,1,0,0:0:0:0:
192,192,108663,1,2,0:0:0:0:
448,192,108663,1,0,0:0:0:0:
320,192,108830,1,0,0:0:0:0:
64,192,108996,1,2,0:0:0:0:
192,192,108996,1,0,0:0:0:0:
320,192,109163,1,8,0:0:0:0:
448,192,109163,1,0,0:0:0:0:
64,192,109330,1,0,0:0:0:0:
192,192,109496,1,0,0:0:0:0:
320,192,109663,1,2,0:0:0:0:
448,192,109663,1,0,0:0:0:0:
64,192,109830,1,8,0:0:0:0:
448,192,109830,1,0,0:0:0:0:
64,192,109996,1,2,0:0:0:0:
192,192,109996,1,0,0:0:0:0:
320,192,110163,1,0,0:0:0:0:
192,192,110330,1,2,0:0:0:0:
448,192,110330,1,0,0:0:0:0:
320,192,110496,1,8,0:0:0:0:
448,192,110496,1,0,0:0:0:0:
64,192,110663,1,0,0:0:0:0:
64,192,110830,1,2,0:0:0:0:
320,192,110830,1,4,0:0:0:0:
448,192,110830,1,0,0:0:0:0:
320,192,110996,1,0,0:0:0:0:
64,192,111163,1,8,0:0:0:0:
192,192,111163,1,0,0:0:0:0:
192,192,111330,1,2,0:0:0:0:
448,192,111330,1,0,0:0:0:0:
448,192,111496,1,0,0:0:0:0:
64,192,111663,1,2,0:0:0:0:
320,192,111663,1,0,0:0:0:0:
64,192,111830,1,8,0:0:0:0:
192,192,111830,1,0,0:0:0:0:
320,192,111996,1,0,0:0:0:0:
64,192,112163,1,2,0:0:0:0:
192,192,112163,1,4,0:0:0:0:
448,192,112163,1,0,0:0:0:0:
192,192,112330,1,2,0:0:0:0:
320,192,112330,1,0,0:0:0:0:
320,192,112496,1,2,0:0:0:0:
448,192,112496,1,0,0:0:0:0:
64,192,112663,1,8,0:0:0:0:
192,192,112663,1,0,0:0:0:0:
64,192,112830,1,8,0:0:0:0:
192,192,112830,1,0,0:0:0:0:
320,192,112996,1,2,0:0:0:0:
448,192,112996,1,0,0:0:0:0:
64,192,113080,1,8,0:0:0:0:
192,192,113080,1,0,0:0:0:0:
320,192,113330,1,8,0:0:0:0:
448,192,113330,1,0,0:0:0:0:
64,192,113496,1,2,0:0:0:0:
192,192,113496,1,4,0:0:0:0:
448,192,113496,128,0,113663:0:0:0:0:
320,192,113830,128,0,113996:0:0:0:0:
192,192,113996,128,0,114163:0:0:0:15:soft-hitwhistle.wav
448,192,114163,1,0,0:0:0:13:soft-hitclap.wav
64,192,114330,128,0,114496:0:0:0:0:
320,192,114496,128,0,114663:0:0:0:15:soft-hitwhistle.wav
192,192,114663,128,0,114830:0:0:0:0:
448,192,114830,128,0,114996:0:0:0:0:
320,192,114996,128,0,115163:0:0:0:15:soft-hitwhistle.wav
64,192,115163,1,0,0:0:0:0:
192,192,115330,128,0,115496:0:0:0:15:soft-hitwhistle.wav
64,192,115496,1,0,0:0:0:13:soft-hitclap.wav
448,192,115663,128,0,115830:0:0:0:0:
320,192,115830,128,0,115996:0:0:0:0:
192,192,115996,128,0,116163:0:0:0:0:
64,192,116163,128,0,116330:0:0:0:15:soft-hitwhistle.wav
448,192,116330,128,0,116496:0:0:0:0:
192,192,116496,128,0,116663:0:0:0:0:
320,192,116663,128,0,116830:0:0:0:0:
64,192,116830,1,0,0:0:0:13:soft-hitclap.wav
192,192,116996,128,0,117163:0:0:0:15:soft-hitwhistle.wav
448,192,117163,128,0,117330:0:0:0:0:
320,192,117330,128,0,117496:0:0:0:15:soft-hitwhistle.wav
64,192,117496,128,0,117663:0:0:0:0:
192,192,117663,128,0,117830:0:0:0:0:
320,192,117830,128,0,117996:0:0:0:0:
448,192,117996,128,0,118163:0:0:0:15:soft-hitwhistle.wav
64,192,118163,1,0,0:0:0:13:soft-hitclap.wav
192,192,118330,128,0,118496:0:0:0:0:
320,192,118496,128,0,118663:0:0:0:0:
64,192,118663,128,0,118830:0:0:0:0:
448,192,118830,128,0,118996:0:0:0:15:soft-hitwhistle.wav
320,192,119163,128,0,119330:0:0:0:0:
192,192,119330,128,0,119496:0:0:0:15:soft-hitwhistle.wav
448,192,119496,1,0,0:0:0:13:soft-hitclap.wav
64,192,119663,128,0,119830:0:0:0:0:
320,192,119830,1,0,0:0:0:15:soft-hitwhistle.wav
192,192,119996,128,0,120163:0:0:0:0:
448,192,120163,128,0,120330:0:0:0:0:
320,192,120330,1,0,0:0:0:15:soft-hitwhistle.wav
64,192,120496,128,0,120663:0:0:0:0:
192,192,120663,128,0,120830:0:0:0:15:soft-hitwhistle.wav
448,192,120830,1,0,0:0:0:13:soft-hitclap.wav
320,192,120996,128,0,121163:0:0:0:0:
192,192,121163,128,0,121330:0:0:0:0:
64,192,121330,128,0,121496:0:0:0:0:
448,192,121496,128,0,121663:0:0:0:15:soft-hitwhistle.wav
192,192,121830,128,0,121996:0:0:0:0:
320,192,121996,128,0,122163:0:0:0:0:
64,192,122163,1,0,0:0:0:13:soft-hitclap.wav
448,192,122330,128,0,122496:0:0:0:15:soft-hitwhistle.wav
64,192,122663,128,0,122830:0:0:0:15:soft-hitwhistle.wav
192,192,122830,128,0,122996:0:0:0:0:
320,192,122996,128,0,123163:0:0:0:0:
64,192,123163,128,0,123330:0:0:0:0:
192,192,123330,128,0,123496:0:0:0:15:soft-hitwhistle.wav
448,192,123496,128,0,123663:0:0:0:13:soft-hitclap.wav
320,192,123663,128,0,123830:0:0:0:0:
192,192,123830,128,0,123996:0:0:0:0:
448,192,123996,128,0,124163:0:0:0:0:
64,192,124163,1,0,0:0:0:20:soft-hitfinish.wav
320,192,124163,1,0,0:0:0:0:
192,192,124496,1,0,0:0:0:0:
448,192,124663,1,0,0:0:0:0:
64,192,124996,1,0,0:0:0:0:
320,192,125330,1,0,0:0:0:0:
192,192,125496,1,0,0:0:0:0:
448,192,125830,1,0,0:0:0:0:
64,192,125996,1,0,0:0:0:0:
320,192,126330,1,0,0:0:0:0:
192,192,126496,1,0,0:0:0:0:
448,192,126663,1,0,0:0:0:0:
320,192,126830,1,0,0:0:0:0:
64,192,127330,1,0,0:0:0:0:
192,192,127663,1,0,0:0:0:0:
320,192,127830,1,0,0:0:0:0:
448,192,128330,1,0,0:0:0:0:
64,192,128830,1,0,0:0:0:0:
320,192,129163,1,0,0:0:0:0:
64,192,129496,1,0,0:0:0:0:
192,192,129524,1,0,0:0:0:0:
448,192,129552,1,0,0:0:0:0:
320,192,130830,1,0,0:0:0:0:
192,192,130858,1,0,0:0:0:0:
64,192,130885,1,0,0:0:0:0:
448,192,132163,1,0,0:0:0:0:
64,192,132330,1,0,0:0:0:0:
320,192,132580,1,0,0:0:0:0:
192,192,132830,1,0,0:0:0:0:
448,192,133080,1,0,0:0:0:0:
320,192,133413,1,0,0:0:0:0:
192,192,133746,1,0,0:0:0:0:
64,192,134163,1,0,0:0:0:0:
448,192,134663,1,0,0:0:0:0:
64,192,135496,1,0,0:0:0:0:
448,192,137163,1,0,0:0:0:0:
320,192,137205,1,0,0:0:0:0:
