osu file format v14

[General]
AudioFilename: audio.mp3
AudioLeadIn: 0
PreviewTime: 92163
Countdown: 0
SampleSet: Soft
StackLeniency: 0.7
Mode: 3
LetterboxInBreaks: 0
SpecialStyle: 0
WidescreenStoryboard: 1

[Editor]
Bookmarks: 17496,28163,38830,49496,60163,70830,81496,113496,124163,137163
DistanceSpacing: 0.1
BeatDivisor: 2
GridSize: 4
TimelineZoom: 0.6

[Metadata]
Title:Empty Stars
TitleUnicode:Empty Stars
Artist:Sound Souler
ArtistUnicode:Sound Souler
Creator:cai_ji_ccc
Version:Easy
Source:OverRapid
Tags:mg mappers' guild featured artist fa dynamix dnb video game instrumental drum and bass drum'n'bass piano milkywaytraxx arcane drive team arcstar milkyway traveler artcore electronic
BeatmapID:4264003
BeatmapSetID:2043194

[Difficulty]
HPDrainRate:6.5
CircleSize:4
OverallDifficulty:6.5
ApproachRate:5
SliderMultiplier:1.4
SliderTickRate:1

[Events]
//Background and Video events
0,0,"Empty Stars.png",0,0
//Break Periods
//Storyboard Layer 0 (Background)
//Storyboard Layer 1 (Fail)
//Storyboard Layer 2 (Pass)
//Storyboard Layer 3 (Foreground)
//Storyboard Layer 4 (Overlay)
//Storyboard Sound Samples

[TimingPoints]
1497,333.333333333333,4,2,1,20,1,0
25496,-100,4,2,1,35,0,0
92163,-100,4,2,1,35,0,1
113496,-100,4,2,1,35,0,0

[HitObjects]
448,192,1497,128,0,6830:0:0:0:0:
64,192,6830,1,4,0:0:0:0:
192,192,6830,1,2,0:0:0:0:
320,192,6996,1,0,0:0:0:0:
448,192,7163,1,0,0:0:0:0:
64,192,7330,1,0,0:0:0:0:
320,192,9496,1,0,0:0:0:0:
192,192,9663,1,0,0:0:0:0:
64,192,9830,1,0,0:0:0:0:
448,192,9996,1,0,0:0:0:0:
448,192,12163,128,0,13496:0:0:0:0:
64,192,13496,128,0,14830:0:0:0:0:
320,192,14830,1,0,0:0:0:0:
192,192,15830,128,0,16348:0:0:0:0:
448,192,16348,1,0,0:0:0:0:
448,192,17496,128,0,17830:0:0:0:0:
64,192,17830,128,0,18163:0:0:0:0:
320,192,18163,128,0,18496:0:0:0:8:soft-hitclap.wav
192,192,18496,128,0,18830:0:0:0:0:
448,192,18830,128,0,19163:0:0:0:0:
320,192,19163,128,0,19496:0:0:0:0:
64,192,19496,128,0,19830:0:0:0:8:soft-hitclap.wav
192,192,19830,128,0,20163:0:0:0:0:
448,192,20163,1,0,0:0:0:0:
320,192,20830,1,0,0:0:0:8:soft-hitclap.wav
64,192,21080,1,0,0:0:0:0:
448,192,21330,1,0,0:0:0:0:
320,192,21663,1,0,0:0:0:0:
64,192,22163,1,0,0:0:0:8:soft-hitclap.wav
448,192,22330,1,0,0:0:0:8:soft-hitclap.wav
192,192,22663,1,0,0:0:0:8:soft-hitclap.wav
320,192,22830,1,0,0:0:0:0:
64,192,23496,1,0,0:0:0:8:soft-hitclap.wav
448,192,24163,1,0,0:0:0:0:
320,192,24830,1,0,0:0:0:13:soft-hitclap.wav
64,192,24996,1,0,0:0:0:0:
192,192,25330,1,0,0:0:0:18:soft-hitclap.wav
448,192,25496,128,0,25830:0:0:0:0:
64,192,25830,128,8,26163:0:0:0:0:
320,192,26163,128,0,26496:0:0:0:0:
192,192,26496,128,8,26830:0:0:0:0:
64,192,26830,1,2,0:0:0:0:
448,192,26830,1,4,0:0:0:0:
320,192,26996,1,8,0:0:0:0:
192,192,27163,1,8,0:0:0:0:
448,192,27330,1,2,0:0:0:0:
64,192,27496,1,0,0:0:0:0:
320,192,27663,1,2,0:0:0:0:
192,192,27996,1,8,0:0:0:0:
64,192,28163,1,2,0:0:0:0:
448,192,28163,1,4,0:0:0:0:
320,192,28496,1,8,0:0:0:0:
192,192,28996,1,2,0:0:0:0:
448,192,29163,1,8,0:0:0:0:
64,192,29663,1,2,0:0:0:0:
320,192,29830,1,8,0:0:0:0:
192,192,30330,1,2,0:0:0:0:
64,192,30496,1,8,0:0:0:0:
448,192,30830,1,2,0:0:0:0:
320,192,31163,1,8,0:0:0:0:
192,192,31663,1,2,0:0:0:0:
448,192,31830,1,8,0:0:0:0:
64,192,32330,1,2,0:0:0:0:
320,192,32496,1,8,0:0:0:0:
192,192,32663,1,2,0:0:0:0:
448,192,32996,1,8,0:0:0:0:
64,192,33163,1,2,0:0:0:0:
320,192,33330,1,8,0:0:0:0:
192,192,33496,1,2,0:0:0:0:
448,192,33830,1,8,0:0:0:0:
320,192,34330,1,2,0:0:0:0:
64,192,34496,1,8,0:0:0:0:
192,192,34830,1,2,0:0:0:0:
448,192,35163,1,8,0:0:0:0:
320,192,35663,1,2,0:0:0:0:
64,192,35830,1,8,0:0:0:0:
192,192,36163,1,2,0:0:0:0:
320,192,36496,1,8,0:0:0:0:
448,192,36996,1,2,0:0:0:0:
64,192,37163,1,8,0:0:0:0:
192,192,37496,1,2,0:0:0:0:
320,192,37663,1,8,0:0:0:0:
448,192,37996,1,2,0:0:0:0:
192,192,38330,1,8,0:0:0:0:
320,192,38496,1,8,0:0:0:0:
64,192,38663,1,2,0:0:0:0:
192,192,38830,1,4,0:0:0:0:
448,192,38830,1,2,0:0:0:0:
320,192,39163,1,8,0:0:0:0:
64,192,39330,1,0,0:0:0:0:
192,192,39663,1,2,0:0:0:0:
448,192,39830,1,8,0:0:0:0:
320,192,39996,1,0,0:0:0:0:
192,192,40330,1,2,0:0:0:0:
64,192,40496,1,8,0:0:0:0:
448,192,40663,1,0,0:0:0:0:
320,192,40830,128,0,41163:0:0:0:0:
192,192,41163,128,8,41496:0:0:0:0:
448,192,41496,1,2,0:0:0:0:
64,192,41830,1,8,0:0:0:0:
320,192,41996,1,0,0:0:0:0:
192,192,42330,1,2,0:0:0:0:
448,192,42496,1,8,0:0:0:0:
320,192,42830,1,0,0:0:0:0:
64,192,42996,1,2,0:0:0:0:
192,192,43163,1,8,0:0:0:0:
448,192,43330,1,2,0:0:0:0:
320,192,43663,1,8,0:0:0:0:
192,192,43830,1,2,0:0:0:0:
448,192,43996,1,8,0:0:0:0:
320,192,44163,1,2,0:0:0:0:
64,192,44163,1,0,0:0:0:0:
192,192,44496,1,8,0:0:0:0:
448,192,44996,1,2,0:0:0:0:
320,192,45163,1,8,0:0:0:0:
192,192,45496,1,2,0:0:0:0:
64,192,45830,1,8,0:0:0:0:
320,192,46330,1,2,0:0:0:0:
192,192,46496,1,8,0:0:0:0:
448,192,46830,1,2,0:0:0:0:
64,192,47163,1,8,0:0:0:0:
320,192,47330,1,0,0:0:0:0:
192,192,47663,1,2,0:0:0:0:
448,192,47830,1,8,0:0:0:0:
64,192,48163,1,8,0:0:0:0:
320,192,48163,1,4,0:0:0:0:
192,192,48330,1,6,0:0:0:0:
448,192,48663,1,8,0:0:0:0:
320,192,48830,1,2,0:0:0:0:
64,192,48996,1,2,0:0:0:0:
192,192,49163,128,8,49496:0:0:0:0:
320,192,49496,1,0,0:0:0:0:
64,192,49830,1,0,0:0:0:0:
320,192,50163,1,0,0:0:0:0:
64,192,50496,1,0,0:0:0:0:
448,192,50830,1,0,0:0:0:0:
192,192,51163,1,0,0:0:0:0:
448,192,51496,1,0,0:0:0:0:
192,192,51830,1,0,0:0:0:0:
320,192,52163,1,0,0:0:0:0:
64,192,52496,1,0,0:0:0:0:
320,192,52830,1,0,0:0:0:0:
64,192,53163,1,0,0:0:0:0:
448,192,53496,1,0,0:0:0:0:
192,192,53830,1,0,0:0:0:0:
448,192,54163,1,0,0:0:0:0:
192,192,54496,1,0,0:0:0:0:
448,192,54830,1,2,0:0:0:0:
320,192,54830,1,4,0:0:0:0:
64,192,55163,1,8,0:0:0:0:
320,192,55330,1,2,0:0:0:0:
64,192,55663,1,8,0:0:0:0:
192,192,55663,1,0,0:0:0:0:
448,192,55996,1,2,0:0:0:0:
192,192,56163,1,2,0:0:0:0:
320,192,56496,1,8,0:0:0:0:
64,192,56663,1,2,0:0:0:0:
448,192,56996,1,8,0:0:0:0:
320,192,57163,1,2,0:0:0:0:
64,192,57330,1,2,0:0:0:0:
192,192,57496,1,2,0:0:0:0:
448,192,57830,1,8,0:0:0:0:
320,192,57996,1,2,0:0:0:0:
192,192,58330,1,8,0:0:0:0:
64,192,58330,1,0,0:0:0:0:
448,192,58663,1,2,0:0:0:0:
320,192,58830,1,2,0:0:0:0:
64,192,58996,1,8,0:0:0:0:
192,192,59163,1,8,0:0:0:0:
448,192,59330,128,2,60163:0:0:0:0:
320,192,59330,1,4,0:0:0:0:
192,192,60163,1,2,0:0:0:0:
64,192,60163,1,4,0:0:0:0:
320,192,60496,1,0,0:0:0:0:
64,192,60830,1,0,0:0:0:0:
448,192,61163,1,0,0:0:0:0:
192,192,61496,1,0,0:0:0:0:
320,192,61830,1,0,0:0:0:0:
64,192,62163,1,0,0:0:0:0:
192,192,62496,1,0,0:0:0:0:
320,192,62830,1,0,0:0:0:0:
448,192,63163,1,0,0:0:0:0:
192,192,63496,1,0,0:0:0:0:
320,192,63830,1,0,0:0:0:0:
64,192,64163,128,0,64830:0:0:0:0:
448,192,64830,128,0,65496:0:0:0:0:
192,192,65496,1,0,0:0:0:0:
320,192,65830,1,0,0:0:0:0:
64,192,66163,1,0,0:0:0:0:
448,192,66496,1,0,0:0:0:0:
192,192,66830,1,0,0:0:0:0:
320,192,67163,1,0,0:0:0:0:
64,192,67496,1,0,0:0:0:0:
192,192,67830,1,0,0:0:0:0:
320,192,68163,1,0,0:0:0:0:
448,192,68496,1,0,0:0:0:0:
192,192,68830,1,0,0:0:0:0:
320,192,69163,1,0,0:0:0:0:
64,192,69496,128,4,70163:0:0:0:0:
448,192,70163,128,0,70830:0:0:0:0:
320,192,70830,1,4,0:0:0:0:
64,192,70830,1,2,0:0:0:0:
192,192,71163,1,8,0:0:0:0:
320,192,71330,1,0,0:0:0:0:
64,192,71663,1,2,0:0:0:0:
448,192,71830,1,8,0:0:0:0:
320,192,72163,1,2,0:0:0:0:
64,192,72496,1,8,0:0:0:0:
192,192,72663,1,0,0:0:0:0:
448,192,72996,1,2,0:0:0:0:
320,192,73163,1,8,0:0:0:0:
192,192,73496,1,2,0:0:0:0:
448,192,73830,1,8,0:0:0:0:
320,192,73996,1,0,0:0:0:0:
64,192,74330,1,2,0:0:0:0:
192,192,74496,1,8,0:0:0:0:
448,192,74830,1,2,0:0:0:0:
320,192,75163,1,8,0:0:0:0:
64,192,75330,1,2,0:0:0:0:
448,192,75663,1,8,0:0:0:0:
192,192,75830,1,2,0:0:0:0:
320,192,75996,1,8,0:0:0:0:
64,192,76163,1,2,0:0:0:0:
192,192,76496,1,8,0:0:0:0:
448,192,76663,1,0,0:0:0:0:
320,192,76996,1,2,0:0:0:0:
64,192,77163,1,8,0:0:0:0:
448,192,77496,1,2,0:0:0:0:
192,192,77830,1,8,0:0:0:0:
320,192,77996,1,0,0:0:0:0:
64,192,78330,1,2,0:0:0:0:
192,192,78496,1,8,0:0:0:0:
448,192,78830,1,2,0:0:0:0:
64,192,79163,1,8,0:0:0:0:
320,192,79330,1,0,0:0:0:0:
192,192,79663,1,2,0:0:0:0:
448,192,79830,1,8,0:0:0:0:
320,192,80163,1,2,0:0:0:0:
192,192,80330,1,8,0:0:0:0:
64,192,80663,1,2,0:0:0:0:
320,192,80996,1,8,0:0:0:0:
192,192,81163,1,8,0:0:0:0:
448,192,81330,1,2,0:0:0:0:
64,192,81496,1,4,0:0:0:0:
320,192,81496,1,2,0:0:0:0:
192,192,81830,1,8,0:0:0:0:
448,192,81996,1,0,0:0:0:0:
64,192,82330,1,2,0:0:0:0:
320,192,82496,1,8,0:0:0:0:
192,192,82830,1,2,0:0:0:0:
448,192,83163,1,8,0:0:0:0:
320,192,83330,1,0,0:0:0:0:
192,192,83663,1,2,0:0:0:0:
448,192,83830,1,8,0:0:0:0:
320,192,84163,1,2,0:0:0:0:
64,192,84496,1,8,0:0:0:0:
192,192,84663,1,0,0:0:0:0:
448,192,84996,1,2,0:0:0:0:
320,192,85163,1,8,0:0:0:0:
64,192,85496,1,2,0:0:0:0:
448,192,85830,1,8,0:0:0:0:
192,192,86080,1,2,0:0:0:0:
320,192,86330,1,2,0:0:0:0:
64,192,86496,1,8,0:0:0:0:
192,192,86663,1,8,0:0:0:0:
448,192,86830,1,2,0:0:0:0:
320,192,87163,1,8,0:0:0:0:
64,192,87330,1,2,0:0:0:0:
192,192,87663,1,2,0:0:0:0:
448,192,87830,1,8,0:0:0:0:
320,192,88163,1,2,0:0:0:0:
64,192,88496,1,8,0:0:0:0:
192,192,88663,1,2,0:0:0:0:
320,192,88996,1,2,0:0:0:0:
448,192,89163,1,8,0:0:0:0:
192,192,89496,1,2,0:0:0:0:
320,192,89830,1,8,0:0:0:0:
64,192,89996,1,2,0:0:0:0:
192,192,90330,1,2,0:0:0:0:
448,192,90496,1,8,0:0:0:0:
64,192,90830,1,4,0:0:0:0:
320,192,90830,1,0,0:0:0:0:
192,192,91496,1,8,0:0:0:0:
320,192,91746,1,8,0:0:0:0:
64,192,91996,1,8,0:0:0:0:
192,192,92163,1,2,0:0:0:0:
448,192,92163,1,4,0:0:0:0:
320,192,92496,1,8,0:0:0:0:
64,192,92996,1,2,0:0:0:0:
192,192,93163,1,8,0:0:0:0:
448,192,93496,1,0,0:0:0:0:
320,192,93663,1,2,0:0:0:0:
192,192,93830,1,8,0:0:0:0:
448,192,94163,1,2,0:0:0:0:
64,192,94330,1,2,0:0:0:0:
320,192,94496,1,8,0:0:0:0:
192,192,94830,1,2,0:0:0:0:
448,192,95163,1,8,0:0:0:0:
64,192,95663,1,2,0:0:0:0:
320,192,95830,1,8,0:0:0:0:
192,192,96163,1,0,0:0:0:0:
448,192,96330,1,2,0:0:0:0:
320,192,96496,1,8,0:0:0:0:
64,192,96663,1,2,0:0:0:0:
320,192,96996,1,8,0:0:0:0:
192,192,97163,1,2,0:0:0:0:
448,192,97330,1,8,0:0:0:0:
320,192,97496,1,2,0:0:0:0:
64,192,97830,1,8,0:0:0:0:
448,192,98330,1,2,0:0:0:0:
192,192,98496,1,8,0:0:0:0:
320,192,98830,1,0,0:0:0:0:
64,192,98996,1,2,0:0:0:0:
192,192,99163,1,8,0:0:0:0:
448,192,99496,1,2,0:0:0:0:
320,192,99663,1,2,0:0:0:0:
192,192,99830,1,8,0:0:0:0:
64,192,100163,1,2,0:0:0:0:
448,192,100496,1,8,0:0:0:0:
192,192,100996,1,2,0:0:0:0:
320,192,101163,1,8,0:0:0:0:
64,192,101496,1,0,0:0:0:0:
448,192,101663,1,2,0:0:0:0:
192,192,101830,1,8,0:0:0:0:
320,192,101996,1,2,0:0:0:0:
64,192,102330,1,8,0:0:0:0:
192,192,102496,1,8,0:0:0:0:
448,192,102663,1,2,0:0:0:0:
320,192,102830,1,2,0:0:0:0:
64,192,103163,1,8,0:0:0:0:
448,192,103330,1,2,0:0:0:0:
192,192,103663,1,2,0:0:0:0:
320,192,103830,1,8,0:0:0:0:
64,192,104163,1,0,0:0:0:0:
192,192,104330,1,2,0:0:0:0:
448,192,104496,1,8,0:0:0:0:
320,192,104830,1,2,0:0:0:0:
64,192,104996,1,2,0:0:0:0:
192,192,105163,1,8,0:0:0:0:
320,192,105496,1,2,0:0:0:0:
64,192,105830,1,8,0:0:0:0:
448,192,105996,1,2,0:0:0:0:
192,192,106330,1,2,0:0:0:0:
320,192,106496,1,8,0:0:0:0:
64,192,106830,1,0,0:0:0:0:
448,192,106996,1,2,0:0:0:0:
192,192,107163,1,8,0:0:0:0:
320,192,107413,1,2,0:0:0:0:
64,192,107663,1,2,0:0:0:0:
192,192,107830,1,8,0:0:0:0:
448,192,107996,1,2,0:0:0:0:
64,192,108163,1,2,0:0:0:0:
320,192,108163,1,4,0:0:0:0:
192,192,108496,1,8,0:0:0:0:
448,192,108663,1,2,0:0:0:0:
320,192,108996,1,2,0:0:0:0:
64,192,109163,1,8,0:0:0:0:
448,192,109496,1,0,0:0:0:0:
320,192,109663,1,2,0:0:0:0:
192,192,109830,1,8,0:0:0:0:
64,192,109996,1,2,0:0:0:0:
448,192,110330,1,2,0:0:0:0:
320,192,110496,1,8,0:0:0:0:
192,192,110830,1,2,0:0:0:0:
64,192,110830,1,4,0:0:0:0:
448,192,111163,1,8,0:0:0:0:
320,192,111330,1,2,0:0:0:0:
64,192,111663,1,2,0:0:0:0:
192,192,111830,1,8,0:0:0:0:
64,192,112163,1,2,0:0:0:0:
448,192,112163,1,4,0:0:0:0:
320,192,112330,1,2,0:0:0:0:
192,192,112496,1,2,0:0:0:0:
448,192,112663,1,8,0:0:0:0:
320,192,112830,128,8,113163:0:0:0:0:
64,192,113163,128,0,113496:0:0:0:0:
192,192,113496,1,2,0:0:0:0:
448,192,113496,1,4,0:0:0:0:
320,192,113996,1,0,0:0:0:15:soft-hitwhistle.wav
64,192,114163,1,0,0:0:0:13:soft-hitclap.wav
448,192,114496,1,0,0:0:0:15:soft-hitwhistle.wav
192,192,114996,1,0,0:0:0:15:soft-hitwhistle.wav
320,192,115330,1,0,0:0:0:15:soft-hitwhistle.wav
64,192,115496,1,0,0:0:0:13:soft-hitclap.wav
448,192,116163,1,0,0:0:0:15:soft-hitwhistle.wav
192,192,116830,1,0,0:0:0:13:soft-hitclap.wav
320,192,116996,1,0,0:0:0:15:soft-hitwhistle.wav
64,192,117330,1,0,0:0:0:15:soft-hitwhistle.wav
192,192,117996,1,0,0:0:0:15:soft-hitwhistle.wav
320,192,118163,1,0,0:0:0:13:soft-hitclap.wav
448,192,118830,1,0,0:0:0:15:soft-hitwhistle.wav
320,192,119330,1,0,0:0:0:15:soft-hitwhistle.wav
192,192,119496,1,0,0:0:0:13:soft-hitclap.wav
64,192,119830,1,0,0:0:0:15:soft-hitwhistle.wav
448,192,120330,1,0,0:0:0:15:soft-hitwhistle.wav
192,192,120663,1,0,0:0:0:15:soft-hitwhistle.wav
320,192,120830,1,0,0:0:0:13:soft-hitclap.wav
64,192,121496,1,0,0:0:0:15:soft-hitwhistle.wav
448,192,122163,1,0,0:0:0:13:soft-hitclap.wav
192,192,122330,1,0,0:0:0:15:soft-hitwhistle.wav
320,192,122663,1,0,0:0:0:15:soft-hitwhistle.wav
64,192,123330,1,0,0:0:0:15:soft-hitwhistle.wav
192,192,123496,1,0,0:0:0:13:soft-hitclap.wav
320,192,124163,1,0,0:0:0:20:soft-hitfinish.wav
448,192,124163,1,0,0:0:0:0:
64,192,124496,1,0,0:0:0:0:
192,192,124663,1,0,0:0:0:0:
448,192,124996,1,0,0:0:0:0:
320,192,125330,1,0,0:0:0:0:
192,192,125496,1,0,0:0:0:0:
64,192,125830,1,0,0:0:0:0:
448,192,125996,1,0,0:0:0:0:
320,192,126330,128,0,126830:0:0:0:0:
192,192,126830,1,0,0:0:0:0:
64,192,127330,1,0,0:0:0:0:
448,192,127830,1,0,0:0:0:0:
192,192,128330,1,0,0:0:0:0:
320,192,128830,1,0,0:0:0:0:
64,192,129163,1,0,0:0:0:0:
192,192,129496,128,0,130830:0:0:0:0:
448,192,130830,128,0,132163:0:0:0:0:
320,192,132163,1,0,0:0:0:0:
192,192,132580,1,0,0:0:0:0:
64,192,133080,1,0,0:0:0:0:
448,192,133413,1,0,0:0:0:0:
192,192,133746,1,0,0:0:0:0:
320,192,134163,1,0,0:0:0:0:
64,192,134663,1,0,0:0:0:0:
448,192,135496,1,0,0:0:0:0:
192,192,137163,1,0,0:0:0:0:
