osu file format v14

[General]
AudioFilename: audio.mp3
AudioLeadIn: 0
PreviewTime: 92163
Countdown: 0
SampleSet: Soft
StackLeniency: 0.7
Mode: 3
LetterboxInBreaks: 0
SpecialStyle: 0
WidescreenStoryboard: 0

[Editor]
DistanceSpacing: 0.1
BeatDivisor: 9
GridSize: 4
TimelineZoom: 2.404

[Metadata]
Title:Empty Stars
TitleUnicode:Empty Stars
Artist:Sound Souler
ArtistUnicode:Sound Souler
Creator:[Sick]Catcat
Version:Lyrids
Source:OverRapid
Tags:Irone Irone_osu featured artist fa Dynamix dnb Video Game Instrumental drum and bass drum'n'bass piano milkywaytraxx arcane drive team arcstar milkyway traveler artcore electronic
BeatmapID:2579706
BeatmapSetID:1240915

[Difficulty]
HPDrainRate:8
CircleSize:7
OverallDifficulty:8
ApproachRate:5
SliderMultiplier:1.4
SliderTickRate:1

[Events]
//Background and Video events
0,0,"empty stars.jpg",0,0
//Break Periods
//Storyboard Layer 0 (Background)
//Storyboard Layer 1 (Fail)
//Storyboard Layer 2 (Pass)
//Storyboard Layer 3 (Foreground)
//Storyboard Layer 4 (Overlay)
//Storyboard Sound Samples

[TimingPoints]
1497,333.333333333333,4,2,1,5,1,0
22830,-100,4,2,1,25,0,0
25496,-100,4,2,1,30,0,0
26496,-100,4,2,1,35,0,0
28163,-100,4,2,1,40,0,0
49496,-100,4,2,1,15,0,0
53330,-100,4,2,1,25,0,0
54163,-100,4,2,1,35,0,0
54830,-100,4,2,1,40,0,0
60163,-100,4,2,1,20,0,0
70830,-100,4,2,1,35,0,0
81496,-100,4,2,1,40,0,0
92163,-100,4,2,1,45,0,1
113496,-100,4,2,1,20,0,0
124163,-100,4,2,1,15,0,0
133080,-105.263157894737,4,2,1,15,0,0
133413,-111.111111111111,4,2,1,15,0,0
133746,-117.647058823529,4,2,1,15,0,0
134163,-121.212121212121,4,2,1,15,0,0
134663,-125,4,2,1,15,0,0

[HitObjects]
256,192,1497,128,0,6830:0:0:0:0:
402,192,6830,1,0,0:0:0:0:
475,192,6830,1,0,0:0:0:0:
36,192,6830,1,4,0:0:0:0:
109,192,6830,1,2,0:0:0:0:
182,192,6996,1,0,0:0:0:0:
329,192,7163,1,0,0:0:0:0:
475,192,7330,1,0,0:0:0:0:
36,192,9496,1,0,0:0:0:0:
109,192,9663,1,0,0:0:0:0:
256,192,9830,1,0,0:0:0:0:
402,192,9996,1,0,0:0:0:0:
475,192,12163,1,0,0:0:0:0:
402,192,12663,1,0,0:0:0:0:
329,192,12941,1,0,0:0:0:0:
256,192,13163,1,0,0:0:0:0:
182,192,13330,1,0,0:0:0:0:
109,192,13496,1,0,0:0:0:0:
36,192,13645,1,0,0:0:0:0:
256,192,13793,1,0,0:0:0:0:
182,192,14024,1,0,0:0:0:0:
256,192,14163,1,0,0:0:0:0:
329,192,14385,1,0,0:0:0:0:
109,192,14601,1,0,0:0:0:0:
36,192,14830,1,0,0:0:0:0:
109,192,15830,1,0,0:0:0:0:
402,192,16052,1,0,0:0:0:0:
256,192,16348,1,0,0:0:0:0:
182,192,17496,1,0,0:0:0:0:
36,192,17663,1,0,0:0:0:0:
109,192,17830,1,0,0:0:0:0:
182,192,17996,1,0,0:0:0:0:
256,192,18163,1,0,0:0:0:0:
329,192,18330,1,0,0:0:0:0:
402,192,18496,1,0,0:0:0:0:
475,192,18663,1,0,0:0:0:0:
36,192,18830,1,0,0:0:0:0:
182,192,18996,1,0,0:0:0:0:
329,192,19163,1,0,0:0:0:0:
475,192,19330,1,0,0:0:0:0:
256,192,19496,1,0,0:0:0:0:
109,192,19496,1,0,0:0:0:0:
402,192,19663,1,0,0:0:0:0:
182,192,19830,1,0,0:0:0:0:
329,192,19996,1,0,0:0:0:0:
109,192,20163,1,0,0:0:0:0:
329,192,20830,1,0,0:0:0:0:
182,192,20830,1,0,0:0:0:0:
475,192,20996,1,0,0:0:0:0:
109,192,21080,1,0,0:0:0:0:
256,192,21330,1,0,0:0:0:0:
475,192,21496,1,0,0:0:0:0:
36,192,21663,1,0,0:0:0:0:
475,192,21996,1,0,0:0:0:0:
182,192,22163,1,0,0:0:0:0:
36,192,22163,1,0,0:0:0:0:
182,192,22330,1,0,0:0:0:0:
36,192,22330,1,0,0:0:0:0:
475,192,22496,1,0,0:0:0:0:
182,192,22663,1,0,0:0:0:0:
36,192,22663,1,0,0:0:0:0:
329,192,22830,1,0,0:0:0:0:
109,192,22830,1,0,0:0:0:0:
329,192,22996,1,0,0:0:0:0:
329,192,23163,1,0,0:0:0:0:
182,192,23330,128,0,23496:0:0:0:0:
475,192,23496,1,0,0:0:0:0:
402,192,23496,1,0,0:0:0:0:
329,192,23663,1,0,0:0:0:0:
329,192,23830,1,0,0:0:0:0:
182,192,23996,1,0,0:0:0:0:
329,192,24080,1,0,0:0:0:0:
182,192,24163,1,0,0:0:0:0:
182,192,24330,128,0,24496:0:0:0:0:
402,192,24496,1,0,0:0:0:0:
402,192,24663,1,0,0:0:0:0:
256,192,24746,1,0,0:0:0:0:
182,192,24830,1,0,0:0:0:0:
36,192,24830,1,8,0:0:0:0:
329,192,24996,1,0,0:0:0:0:
329,192,25163,1,0,0:0:0:0:
182,192,25330,1,0,0:0:0:0:
36,192,25330,1,8,0:0:0:0:
402,192,25496,1,0,0:0:0:0:
475,192,25663,1,0,0:0:0:0:
329,192,25830,1,0,0:0:0:0:
182,192,25830,1,0,0:0:0:0:
36,192,25830,1,8,0:0:0:0:
402,192,25996,1,0,0:0:0:0:
256,192,26163,1,0,0:0:0:0:
329,192,26330,1,0,0:0:0:0:
109,192,26330,1,0,0:0:0:0:
402,192,26496,1,0,0:0:0:0:
182,192,26496,1,0,0:0:0:0:
36,192,26496,1,8,0:0:0:0:
475,192,26663,1,0,0:0:0:0:
256,192,26830,1,2,0:0:0:0:
109,192,26830,1,4,0:0:0:0:
475,192,26996,1,0,0:0:0:0:
402,192,26996,1,8,0:0:0:0:
475,192,27163,1,0,0:0:0:0:
402,192,27163,1,8,0:0:0:0:
182,192,27330,128,0,27496:0:0:0:0:
36,192,27330,128,0,27496:0:0:0:0:
475,192,27496,1,0,0:0:0:0:
402,192,27663,128,0,27913:0:0:0:0:
109,192,27663,128,2,27913:0:0:0:0:
256,192,27746,128,0,27913:0:0:0:0:
402,192,27996,1,0,0:0:0:0:
256,192,27996,1,0,0:0:0:0:
109,192,27996,1,8,0:0:0:0:
329,192,28163,1,0,0:0:0:0:
475,192,28163,1,0,0:0:0:0:
36,192,28163,1,4,0:0:0:0:
182,192,28163,1,2,0:0:0:0:
402,192,28330,1,0,0:0:0:0:
329,192,28496,1,0,0:0:0:0:
256,192,28496,1,0,0:0:0:0:
109,192,28496,1,8,0:0:0:0:
182,192,28663,1,0,0:0:0:0:
329,192,28830,1,0,0:0:0:0:
402,192,28996,1,0,0:0:0:0:
36,192,28996,1,2,0:0:0:0:
475,192,29163,1,0,0:0:0:0:
256,192,29163,1,0,0:0:0:0:
109,192,29163,1,8,0:0:0:0:
329,192,29330,1,0,0:0:0:0:
182,192,29496,1,0,0:0:0:0:
402,192,29663,1,0,0:0:0:0:
36,192,29663,1,2,0:0:0:0:
329,192,29830,1,0,0:0:0:0:
256,192,29830,1,0,0:0:0:0:
109,192,29830,1,8,0:0:0:0:
475,192,29996,1,0,0:0:0:0:
329,192,30163,1,0,0:0:0:0:
182,192,30330,1,0,0:0:0:0:
36,192,30330,1,2,0:0:0:0:
475,192,30496,1,0,0:0:0:0:
256,192,30496,1,0,0:0:0:0:
109,192,30496,1,8,0:0:0:0:
402,192,30663,1,0,0:0:0:0:
329,192,30830,1,0,0:0:0:0:
36,192,30830,1,2,0:0:0:0:
109,192,30996,1,0,0:0:0:0:
402,192,31163,1,0,0:0:0:0:
256,192,31163,1,0,0:0:0:0:
182,192,31163,1,8,0:0:0:0:
329,192,31330,1,0,0:0:0:0:
182,192,31496,1,0,0:0:0:0:
475,192,31663,1,0,0:0:0:0:
109,192,31663,1,2,0:0:0:0:
402,192,31830,1,0,0:0:0:0:
256,192,31830,1,0,0:0:0:0:
36,192,31830,1,8,0:0:0:0:
182,192,31996,1,0,0:0:0:0:
36,192,32163,1,0,0:0:0:0:
475,192,32330,1,0,0:0:0:0:
109,192,32330,1,2,0:0:0:0:
402,192,32496,1,0,0:0:0:0:
256,192,32496,1,0,0:0:0:0:
182,192,32496,1,8,0:0:0:0:
475,192,32663,1,0,0:0:0:0:
36,192,32663,1,2,0:0:0:0:
329,192,32830,1,0,0:0:0:0:
402,192,32996,1,0,0:0:0:0:
256,192,32996,1,0,0:0:0:0:
109,192,32996,1,8,0:0:0:0:
475,192,33163,1,0,0:0:0:0:
36,192,33163,1,2,0:0:0:0:
402,192,33330,1,0,0:0:0:0:
256,192,33330,1,0,0:0:0:0:
109,192,33330,1,8,0:0:0:0:
475,192,33496,1,0,0:0:0:0:
36,192,33496,1,2,0:0:0:0:
182,192,33663,1,0,0:0:0:0:
402,192,33830,1,0,0:0:0:0:
329,192,33830,1,0,0:0:0:0:
109,192,33830,1,8,0:0:0:0:
256,192,33996,1,0,0:0:0:0:
329,192,34163,1,0,0:0:0:0:
402,192,34330,1,0,0:0:0:0:
36,192,34330,1,2,0:0:0:0:
475,192,34496,1,0,0:0:0:0:
256,192,34496,1,0,0:0:0:0:
109,192,34496,1,8,0:0:0:0:
182,192,34663,1,0,0:0:0:0:
475,192,34830,1,0,0:0:0:0:
36,192,34830,1,2,0:0:0:0:
402,192,34996,1,0,0:0:0:0:
329,192,35163,1,0,0:0:0:0:
256,192,35163,1,0,0:0:0:0:
109,192,35163,1,8,0:0:0:0:
475,192,35330,1,0,0:0:0:0:
329,192,35496,1,0,0:0:0:0:
182,192,35663,1,0,0:0:0:0:
36,192,35663,1,2,0:0:0:0:
475,192,35830,1,0,0:0:0:0:
256,192,35830,1,0,0:0:0:0:
109,192,35830,1,8,0:0:0:0:
402,192,35996,1,0,0:0:0:0:
329,192,36163,1,0,0:0:0:0:
36,192,36163,1,2,0:0:0:0:
109,192,36330,1,0,0:0:0:0:
402,192,36496,1,0,0:0:0:0:
256,192,36496,1,0,0:0:0:0:
182,192,36496,1,8,0:0:0:0:
329,192,36663,1,0,0:0:0:0:
36,192,36830,1,0,0:0:0:0:
475,192,36996,1,0,0:0:0:0:
182,192,36996,1,2,0:0:0:0:
402,192,37163,1,0,0:0:0:0:
256,192,37163,1,0,0:0:0:0:
109,192,37163,1,8,0:0:0:0:
329,192,37330,1,0,0:0:0:0:
475,192,37496,1,0,0:0:0:0:
36,192,37496,1,2,0:0:0:0:
402,192,37663,1,0,0:0:0:0:
256,192,37663,1,0,0:0:0:0:
109,192,37663,1,8,0:0:0:0:
329,192,37830,1,0,0:0:0:0:
475,192,37996,1,0,0:0:0:0:
36,192,37996,1,2,0:0:0:0:
182,192,38163,1,0,0:0:0:0:
402,192,38330,1,0,0:0:0:0:
256,192,38330,1,0,0:0:0:0:
109,192,38330,1,8,0:0:0:0:
402,192,38496,1,0,0:0:0:0:
256,192,38496,1,0,0:0:0:0:
109,192,38496,1,8,0:0:0:0:
329,192,38663,1,0,0:0:0:0:
182,192,38663,1,2,0:0:0:0:
402,192,38830,1,0,0:0:0:0:
475,192,38830,1,0,0:0:0:0:
36,192,38830,1,2,0:0:0:0:
109,192,38830,1,4,0:0:0:0:
329,192,38996,1,0,0:0:0:0:
402,192,39163,1,0,0:0:0:0:
182,192,39163,1,0,0:0:0:0:
36,192,39163,1,8,0:0:0:0:
475,192,39330,1,0,0:0:0:0:
256,192,39330,1,0,0:0:0:0:
36,192,39496,1,0,0:0:0:0:
329,192,39663,1,0,0:0:0:0:
109,192,39663,1,2,0:0:0:0:
475,192,39830,1,0,0:0:0:0:
256,192,39830,1,0,0:0:0:0:
36,192,39830,1,8,0:0:0:0:
402,192,39996,1,0,0:0:0:0:
182,192,39996,1,0,0:0:0:0:
329,192,40163,1,0,0:0:0:0:
109,192,40330,1,0,0:0:0:0:
36,192,40330,1,2,0:0:0:0:
475,192,40496,1,0,0:0:0:0:
256,192,40496,1,0,0:0:0:0:
402,192,40496,1,8,0:0:0:0:
182,192,40663,1,0,0:0:0:0:
329,192,40830,1,0,0:0:0:0:
109,192,40830,1,0,0:0:0:0:
475,192,40996,1,0,0:0:0:0:
256,192,40996,1,2,0:0:0:0:
329,192,41163,1,0,0:0:0:0:
109,192,41163,1,0,0:0:0:0:
36,192,41163,1,8,0:0:0:0:
402,192,41330,1,0,0:0:0:0:
182,192,41330,1,0,0:0:0:0:
475,192,41496,1,0,0:0:0:0:
256,192,41496,1,2,0:0:0:0:
402,192,41663,1,0,0:0:0:0:
329,192,41830,1,0,0:0:0:0:
256,192,41830,1,0,0:0:0:0:
109,192,41830,1,8,0:0:0:0:
475,192,41996,1,0,0:0:0:0:
182,192,41996,1,0,0:0:0:0:
402,192,42163,1,0,0:0:0:0:
329,192,42330,1,0,0:0:0:0:
36,192,42330,1,2,0:0:0:0:
475,192,42496,1,0,0:0:0:0:
256,192,42496,1,0,0:0:0:0:
109,192,42496,1,8,0:0:0:0:
402,192,42663,1,0,0:0:0:0:
182,192,42830,1,0,0:0:0:0:
475,192,42996,1,0,0:0:0:0:
329,192,42996,1,2,0:0:0:0:
256,192,43163,1,0,0:0:0:0:
109,192,43163,1,0,0:0:0:0:
36,192,43163,1,8,0:0:0:0:
475,192,43330,1,0,0:0:0:0:
402,192,43330,1,2,0:0:0:0:
182,192,43496,1,0,0:0:0:0:
256,192,43663,1,0,0:0:0:0:
109,192,43663,1,0,0:0:0:0:
36,192,43663,1,8,0:0:0:0:
475,192,43830,1,0,0:0:0:0:
329,192,43830,1,2,0:0:0:0:
256,192,43996,1,0,0:0:0:0:
109,192,43996,1,0,0:0:0:0:
36,192,43996,1,8,0:0:0:0:
475,192,44163,1,0,0:0:0:0:
182,192,44163,1,2,0:0:0:0:
402,192,44330,1,0,0:0:0:0:
256,192,44330,1,0,0:0:0:0:
329,192,44496,1,0,0:0:0:0:
182,192,44496,1,0,0:0:0:0:
36,192,44496,1,8,0:0:0:0:
475,192,44663,1,0,0:0:0:0:
402,192,44663,1,0,0:0:0:0:
109,192,44830,1,0,0:0:0:0:
475,192,44996,1,0,0:0:0:0:
36,192,44996,1,2,0:0:0:0:
402,192,45163,1,0,0:0:0:0:
256,192,45163,1,0,0:0:0:0:
109,192,45163,1,8,0:0:0:0:
182,192,45330,1,0,0:0:0:0:
329,192,45330,1,0,0:0:0:0:
475,192,45496,1,0,0:0:0:0:
36,192,45496,1,2,0:0:0:0:
402,192,45663,1,0,0:0:0:0:
329,192,45830,1,0,0:0:0:0:
256,192,45830,1,0,0:0:0:0:
109,192,45830,1,8,0:0:0:0:
475,192,45996,1,0,0:0:0:0:
402,192,46163,1,0,0:0:0:0:
182,192,46330,1,0,0:0:0:0:
36,192,46330,1,2,0:0:0:0:
329,192,46496,1,0,0:0:0:0:
256,192,46496,1,0,0:0:0:0:
109,192,46496,1,8,0:0:0:0:
402,192,46663,1,0,0:0:0:0:
475,192,46830,1,0,0:0:0:0:
36,192,46830,1,2,0:0:0:0:
109,192,46996,1,0,0:0:0:0:
402,192,47163,1,0,0:0:0:0:
256,192,47163,1,0,0:0:0:0:
182,192,47163,1,8,0:0:0:0:
329,192,47330,1,0,0:0:0:0:
36,192,47330,1,0,0:0:0:0:
109,192,47496,1,0,0:0:0:0:
475,192,47663,1,0,0:0:0:0:
182,192,47663,1,2,0:0:0:0:
402,192,47830,1,0,0:0:0:0:
256,192,47830,1,0,0:0:0:0:
36,192,47830,1,8,0:0:0:0:
109,192,47996,1,0,0:0:0:0:
402,192,48163,1,0,0:0:0:0:
475,192,48163,1,0,0:0:0:0:
182,192,48163,1,8,0:0:0:0:
256,192,48163,1,4,0:0:0:0:
329,192,48330,1,0,0:0:0:0:
36,192,48330,1,2,0:0:0:0:
475,192,48496,1,0,0:0:0:0:
402,192,48663,1,0,0:0:0:0:
256,192,48663,1,0,0:0:0:0:
36,192,48663,1,8,0:0:0:0:
329,192,48830,1,0,0:0:0:0:
182,192,48830,1,2,0:0:0:0:
329,192,48996,1,0,0:0:0:0:
182,192,48996,1,2,0:0:0:0:
475,192,49163,1,0,0:0:0:0:
402,192,49163,1,0,0:0:0:0:
36,192,49163,1,8,0:0:0:0:
256,192,49330,1,0,0:0:0:0:
402,192,49496,1,0,0:0:0:0:
109,192,49496,1,0,0:0:0:0:
109,192,49663,1,0,0:0:0:0:
402,192,49830,1,0,0:0:0:0:
402,192,49996,1,0,0:0:0:0:
109,192,50163,1,0,0:0:0:0:
109,192,50330,1,0,0:0:0:0:
402,192,50496,1,0,0:0:0:0:
329,192,50663,1,0,0:0:0:0:
182,192,50830,1,0,0:0:0:0:
182,192,50996,1,0,0:0:0:0:
329,192,51163,1,0,0:0:0:0:
329,192,51330,1,0,0:0:0:0:
182,192,51496,1,0,0:0:0:0:
182,192,51663,1,0,0:0:0:0:
329,192,51830,1,0,0:0:0:0:
329,192,51996,1,0,0:0:0:0:
109,192,52163,1,0,0:0:0:0:
109,192,52330,1,0,0:0:0:0:
402,192,52496,1,0,0:0:0:0:
402,192,52663,1,0,0:0:0:0:
109,192,52830,1,0,0:0:0:0:
109,192,52996,1,0,0:0:0:0:
402,192,53163,1,0,0:0:0:0:
475,192,53330,1,0,0:0:0:0:
36,192,53496,1,0,0:0:0:0:
36,192,53663,1,0,0:0:0:0:
475,192,53830,1,0,0:0:0:0:
475,192,53996,1,0,0:0:0:0:
36,192,54163,1,0,0:0:0:0:
36,192,54330,1,0,0:0:0:0:
475,192,54496,1,0,0:0:0:0:
475,192,54663,1,0,0:0:0:0:
256,192,54830,1,0,0:0:0:0:
109,192,54830,1,2,0:0:0:0:
36,192,54830,1,4,0:0:0:0:
329,192,54996,1,0,0:0:0:0:
402,192,55163,1,0,0:0:0:0:
182,192,55163,1,8,0:0:0:0:
109,192,55330,1,0,0:0:0:0:
36,192,55330,1,2,0:0:0:0:
256,192,55496,1,0,0:0:0:0:
402,192,55663,1,0,0:0:0:0:
182,192,55663,1,8,0:0:0:0:
329,192,55830,1,0,0:0:0:0:
109,192,55996,1,0,0:0:0:0:
36,192,55996,1,2,0:0:0:0:
109,192,56163,1,0,0:0:0:0:
36,192,56163,1,2,0:0:0:0:
329,192,56330,1,0,0:0:0:0:
402,192,56496,1,0,0:0:0:0:
182,192,56496,1,8,0:0:0:0:
109,192,56663,1,0,0:0:0:0:
36,192,56663,1,2,0:0:0:0:
256,192,56830,1,0,0:0:0:0:
475,192,56996,1,0,0:0:0:0:
329,192,56996,1,8,0:0:0:0:
109,192,57163,1,0,0:0:0:0:
36,192,57163,1,2,0:0:0:0:
109,192,57330,1,0,0:0:0:0:
36,192,57330,1,2,0:0:0:0:
475,192,57496,1,0,0:0:0:0:
402,192,57496,1,0,0:0:0:0:
256,192,57496,1,2,0:0:0:0:
182,192,57663,1,0,0:0:0:0:
329,192,57830,1,0,0:0:0:0:
109,192,57830,1,8,0:0:0:0:
475,192,57996,1,0,0:0:0:0:
402,192,57996,1,2,0:0:0:0:
256,192,58163,1,0,0:0:0:0:
329,192,58330,1,0,0:0:0:0:
109,192,58330,1,8,0:0:0:0:
182,192,58496,1,0,0:0:0:0:
475,192,58663,1,0,0:0:0:0:
402,192,58663,1,2,0:0:0:0:
475,192,58830,1,0,0:0:0:0:
402,192,58830,1,2,0:0:0:0:
182,192,58996,1,0,0:0:0:0:
36,192,58996,1,8,0:0:0:0:
182,192,59163,1,0,0:0:0:0:
36,192,59163,1,8,0:0:0:0:
475,192,59330,1,0,0:0:0:0:
329,192,59330,1,2,0:0:0:0:
256,192,59330,1,4,0:0:0:0:
109,192,59496,1,0,0:0:0:0:
402,192,59663,1,0,0:0:0:0:
109,192,59830,1,0,0:0:0:0:
402,192,59996,1,0,0:0:0:0:
475,192,60163,1,0,0:0:0:0:
182,192,60163,1,2,0:0:0:0:
36,192,60163,1,8,0:0:0:0:
329,192,60163,1,4,0:0:0:0:
402,192,60385,1,0,0:0:0:0:
256,192,60496,1,0,0:0:0:0:
329,192,60719,1,0,0:0:0:0:
182,192,60830,1,0,0:0:0:0:
36,192,60830,128,0,61496:0:0:0:0:
329,192,61052,1,0,0:0:0:0:
475,192,61163,1,0,0:0:0:0:
182,192,61163,128,0,61496:0:0:0:0:
329,192,61385,1,0,0:0:0:0:
475,192,61496,1,0,0:0:0:0:
109,192,61496,1,0,0:0:0:0:
475,192,61830,1,0,0:0:0:0:
256,192,61830,1,0,0:0:0:0:
402,192,62052,1,0,0:0:0:0:
109,192,62052,1,0,0:0:0:0:
182,192,62163,1,0,0:0:0:0:
329,192,62385,1,0,0:0:0:0:
36,192,62385,1,0,0:0:0:0:
402,192,62496,1,0,0:0:0:0:
109,192,62496,1,0,0:0:0:0:
329,192,62719,1,0,0:0:0:0:
36,192,62719,1,0,0:0:0:0:
475,192,62830,1,0,0:0:0:0:
182,192,62830,1,0,0:0:0:0:
475,192,63052,1,0,0:0:0:0:
402,192,63163,1,0,0:0:0:0:
109,192,63163,1,0,0:0:0:0:
329,192,63385,1,0,0:0:0:0:
36,192,63385,1,0,0:0:0:0:
475,192,63496,1,0,0:0:0:0:
182,192,63496,1,0,0:0:0:0:
402,192,63719,1,0,0:0:0:0:
256,192,63830,1,0,0:0:0:0:
182,192,64052,1,0,0:0:0:0:
36,192,64052,1,0,0:0:0:0:
475,192,64163,128,0,65496:0:0:0:0:
329,192,64163,128,0,64496:0:0:0:0:
182,192,64496,128,0,64830:0:0:0:0:
36,192,64830,128,0,65163:0:0:0:0:
256,192,65163,128,0,65496:0:0:0:0:
329,192,65496,1,0,0:0:0:0:
36,192,65496,1,0,0:0:0:0:
109,192,65719,1,0,0:0:0:0:
256,192,65830,1,0,0:0:0:0:
402,192,65830,1,0,0:0:0:0:
182,192,66052,1,0,0:0:0:0:
36,192,66052,1,0,0:0:0:0:
475,192,66163,128,0,66830:0:0:0:0:
329,192,66163,1,0,0:0:0:0:
182,192,66385,1,0,0:0:0:0:
329,192,66496,128,0,66830:0:0:0:0:
36,192,66496,1,0,0:0:0:0:
182,192,66719,1,0,0:0:0:0:
402,192,66830,1,0,0:0:0:0:
36,192,66830,1,0,0:0:0:0:
256,192,67052,1,0,0:0:0:0:
402,192,67163,1,0,0:0:0:0:
36,192,67163,1,0,0:0:0:0:
475,192,67385,1,0,0:0:0:0:
256,192,67385,1,0,0:0:0:0:
402,192,67496,1,0,0:0:0:0:
182,192,67496,1,0,0:0:0:0:
329,192,67719,1,0,0:0:0:0:
109,192,67719,1,0,0:0:0:0:
402,192,67830,1,0,0:0:0:0:
182,192,67830,1,0,0:0:0:0:
475,192,68052,1,0,0:0:0:0:
256,192,68052,1,0,0:0:0:0:
182,192,68163,1,0,0:0:0:0:
36,192,68163,1,0,0:0:0:0:
402,192,68385,1,0,0:0:0:0:
256,192,68496,1,0,0:0:0:0:
109,192,68496,1,0,0:0:0:0:
36,192,68719,1,0,0:0:0:0:
475,192,68830,128,0,69496:0:0:0:0:
329,192,68830,1,0,0:0:0:0:
182,192,68830,1,0,0:0:0:0:
402,192,69052,1,0,0:0:0:0:
256,192,69163,1,0,0:0:0:0:
109,192,69163,1,0,0:0:0:0:
329,192,69385,1,0,0:0:0:0:
402,192,69496,1,0,0:0:0:0:
182,192,69496,1,0,0:0:0:0:
36,192,69496,1,4,0:0:0:0:
475,192,69830,1,0,0:0:0:0:
329,192,69858,1,0,0:0:0:0:
402,192,70163,1,0,0:0:0:0:
256,192,70191,1,0,0:0:0:0:
329,192,70496,1,0,0:0:0:0:
182,192,70524,1,0,0:0:0:0:
402,192,70830,1,0,0:0:0:0:
475,192,70830,1,0,0:0:0:0:
109,192,70830,1,2,0:0:0:0:
256,192,70830,1,4,0:0:0:0:
36,192,70996,1,0,0:0:0:0:
329,192,71163,1,0,0:0:0:0:
256,192,71163,1,0,0:0:0:0:
109,192,71163,1,8,0:0:0:0:
475,192,71330,1,0,0:0:0:0:
402,192,71496,1,0,0:0:0:0:
329,192,71663,1,0,0:0:0:0:
36,192,71663,1,2,0:0:0:0:
402,192,71830,1,0,0:0:0:0:
256,192,71830,1,0,0:0:0:0:
109,192,71830,1,8,0:0:0:0:
475,192,71996,1,0,0:0:0:0:
329,192,72163,1,0,0:0:0:0:
36,192,72163,1,2,0:0:0:0:
109,192,72330,1,0,0:0:0:0:
402,192,72496,1,0,0:0:0:0:
256,192,72496,1,0,0:0:0:0:
182,192,72496,1,8,0:0:0:0:
36,192,72663,1,0,0:0:0:0:
109,192,72830,1,0,0:0:0:0:
402,192,72996,1,0,0:0:0:0:
182,192,72996,1,2,0:0:0:0:
475,192,73163,1,0,0:0:0:0:
256,192,73163,1,0,0:0:0:0:
36,192,73163,1,8,0:0:0:0:
182,192,73330,1,0,0:0:0:0:
475,192,73496,1,0,0:0:0:0:
36,192,73496,1,2,0:0:0:0:
402,192,73663,1,0,0:0:0:0:
329,192,73830,1,0,0:0:0:0:
256,192,73830,1,0,0:0:0:0:
109,192,73830,1,8,0:0:0:0:
182,192,73996,1,0,0:0:0:0:
475,192,74163,1,0,0:0:0:0:
402,192,74330,1,0,0:0:0:0:
109,192,74330,1,2,0:0:0:0:
329,192,74496,1,0,0:0:0:0:
256,192,74496,1,0,0:0:0:0:
36,192,74496,1,8,0:0:0:0:
475,192,74663,1,0,0:0:0:0:
329,192,74830,1,0,0:0:0:0:
36,192,74830,1,2,0:0:0:0:
109,192,74996,1,0,0:0:0:0:
402,192,75163,1,0,0:0:0:0:
256,192,75163,1,0,0:0:0:0:
182,192,75163,1,8,0:0:0:0:
475,192,75330,1,0,0:0:0:0:
36,192,75330,1,2,0:0:0:0:
329,192,75496,1,0,0:0:0:0:
402,192,75663,1,0,0:0:0:0:
256,192,75663,1,0,0:0:0:0:
182,192,75663,1,8,0:0:0:0:
109,192,75830,1,0,0:0:0:0:
36,192,75830,1,2,0:0:0:0:
402,192,75996,1,0,0:0:0:0:
256,192,75996,1,0,0:0:0:0:
182,192,75996,1,8,0:0:0:0:
475,192,76163,1,0,0:0:0:0:
36,192,76163,1,2,0:0:0:0:
329,192,76330,1,0,0:0:0:0:
475,192,76496,1,0,0:0:0:0:
182,192,76496,1,0,0:0:0:0:
36,192,76496,1,8,0:0:0:0:
402,192,76663,1,0,0:0:0:0:
256,192,76663,1,0,0:0:0:0:
109,192,76830,1,0,0:0:0:0:
475,192,76996,1,0,0:0:0:0:
182,192,76996,1,2,0:0:0:0:
402,192,77163,1,0,0:0:0:0:
256,192,77163,1,0,0:0:0:0:
36,192,77163,1,8,0:0:0:0:
329,192,77330,1,0,0:0:0:0:
182,192,77330,1,0,0:0:0:0:
475,192,77496,1,0,0:0:0:0:
36,192,77496,1,2,0:0:0:0:
402,192,77663,1,0,0:0:0:0:
256,192,77663,1,0,0:0:0:0:
475,192,77830,1,0,0:0:0:0:
109,192,77830,1,0,0:0:0:0:
36,192,77830,1,8,0:0:0:0:
329,192,77996,1,0,0:0:0:0:
182,192,77996,1,0,0:0:0:0:
475,192,78163,1,0,0:0:0:0:
402,192,78330,1,0,0:0:0:0:
36,192,78330,1,2,0:0:0:0:
329,192,78496,1,0,0:0:0:0:
256,192,78496,1,0,0:0:0:0:
109,192,78496,1,8,0:0:0:0:
402,192,78663,1,0,0:0:0:0:
182,192,78663,1,0,0:0:0:0:
475,192,78830,1,0,0:0:0:0:
36,192,78830,1,2,0:0:0:0:
402,192,78996,1,0,0:0:0:0:
329,192,78996,1,0,0:0:0:0:
256,192,79163,1,0,0:0:0:0:
109,192,79163,1,0,0:0:0:0:
36,192,79163,1,8,0:0:0:0:
329,192,79330,1,0,0:0:0:0:
182,192,79330,1,0,0:0:0:0:
475,192,79496,1,0,0:0:0:0:
256,192,79663,1,0,0:0:0:0:
109,192,79663,1,2,0:0:0:0:
329,192,79830,1,0,0:0:0:0:
182,192,79830,1,0,0:0:0:0:
36,192,79830,1,8,0:0:0:0:
402,192,79996,1,0,0:0:0:0:
256,192,79996,1,0,0:0:0:0:
475,192,80163,1,0,0:0:0:0:
109,192,80163,1,2,0:0:0:0:
402,192,80330,1,0,0:0:0:0:
182,192,80330,1,0,0:0:0:0:
36,192,80330,1,8,0:0:0:0:
256,192,80496,1,0,0:0:0:0:
475,192,80663,1,0,0:0:0:0:
329,192,80663,1,2,0:0:0:0:
182,192,80830,1,0,0:0:0:0:
475,192,80996,1,0,0:0:0:0:
256,192,80996,1,0,0:0:0:0:
36,192,80996,1,8,0:0:0:0:
402,192,81163,1,0,0:0:0:0:
182,192,81163,1,0,0:0:0:0:
36,192,81163,1,8,0:0:0:0:
329,192,81330,1,0,0:0:0:0:
109,192,81330,1,2,0:0:0:0:
402,192,81496,128,0,82830:0:0:0:0:
475,192,81496,1,0,0:0:0:0:
36,192,81496,1,4,0:0:0:0:
256,192,81496,1,2,0:0:0:0:
182,192,81663,1,0,0:0:0:0:
256,192,81830,1,0,0:0:0:0:
109,192,81830,1,8,0:0:0:0:
329,192,81996,1,0,0:0:0:0:
182,192,82163,1,0,0:0:0:0:
329,192,82330,1,0,0:0:0:0:
36,192,82330,1,2,0:0:0:0:
256,192,82496,1,0,0:0:0:0:
109,192,82496,1,8,0:0:0:0:
182,192,82663,1,0,0:0:0:0:
329,192,82830,1,0,0:0:0:0:
475,192,82830,128,0,84163:0:0:0:0:
36,192,82830,1,2,0:0:0:0:
109,192,82996,1,0,0:0:0:0:
329,192,83163,1,0,0:0:0:0:
182,192,83163,1,8,0:0:0:0:
402,192,83330,1,0,0:0:0:0:
256,192,83496,1,0,0:0:0:0:
329,192,83663,1,0,0:0:0:0:
36,192,83663,1,2,0:0:0:0:
256,192,83830,1,0,0:0:0:0:
109,192,83830,1,8,0:0:0:0:
402,192,83996,1,0,0:0:0:0:
109,192,84163,1,0,0:0:0:0:
182,192,84163,1,0,0:0:0:0:
36,192,84163,128,2,85496:0:0:0:0:
256,192,84330,1,0,0:0:0:0:
402,192,84496,1,0,0:0:0:0:
329,192,84496,1,8,0:0:0:0:
475,192,84663,1,0,0:0:0:0:
329,192,84830,1,0,0:0:0:0:
182,192,84996,1,0,0:0:0:0:
475,192,84996,1,2,0:0:0:0:
402,192,85163,1,0,0:0:0:0:
256,192,85163,1,8,0:0:0:0:
329,192,85330,1,0,0:0:0:0:
109,192,85496,1,0,0:0:0:0:
475,192,85496,1,0,0:0:0:0:
256,192,85496,128,2,85996:0:0:0:0:
182,192,85663,1,0,0:0:0:0:
329,192,85830,1,0,0:0:0:0:
109,192,85830,1,8,0:0:0:0:
475,192,85996,128,0,86830:0:0:0:0:
402,192,85996,1,0,0:0:0:0:
182,192,86080,1,0,0:0:0:0:
36,192,86080,1,2,0:0:0:0:
182,192,86330,1,0,0:0:0:0:
36,192,86330,1,2,0:0:0:0:
109,192,86496,1,0,0:0:0:0:
256,192,86496,1,8,0:0:0:0:
109,192,86663,1,0,0:0:0:0:
256,192,86663,1,8,0:0:0:0:
329,192,86830,1,0,0:0:0:0:
402,192,86830,128,0,88163:0:0:0:0:
36,192,86830,1,2,0:0:0:0:
182,192,86996,1,0,0:0:0:0:
256,192,87163,1,0,0:0:0:0:
109,192,87163,1,8,0:0:0:0:
329,192,87330,1,0,0:0:0:0:
182,192,87330,1,2,0:0:0:0:
36,192,87496,1,0,0:0:0:0:
256,192,87663,1,0,0:0:0:0:
109,192,87663,1,2,0:0:0:0:
329,192,87830,1,0,0:0:0:0:
182,192,87830,1,8,0:0:0:0:
109,192,87996,1,0,0:0:0:0:
329,192,88163,1,0,0:0:0:0:
475,192,88163,128,0,89496:0:0:0:0:
36,192,88163,1,2,0:0:0:0:
182,192,88330,1,0,0:0:0:0:
402,192,88496,1,0,0:0:0:0:
256,192,88496,1,8,0:0:0:0:
109,192,88663,1,0,0:0:0:0:
36,192,88663,1,2,0:0:0:0:
182,192,88830,1,0,0:0:0:0:
36,192,88996,1,0,0:0:0:0:
109,192,88996,1,2,0:0:0:0:
402,192,89163,1,0,0:0:0:0:
256,192,89163,1,8,0:0:0:0:
329,192,89330,1,0,0:0:0:0:
182,192,89496,1,0,0:0:0:0:
109,192,89496,128,0,90830:0:0:0:0:
36,192,89496,1,2,0:0:0:0:
475,192,89663,1,0,0:0:0:0:
402,192,89830,1,0,0:0:0:0:
256,192,89830,1,8,0:0:0:0:
475,192,89996,1,0,0:0:0:0:
182,192,89996,1,2,0:0:0:0:
36,192,90163,1,0,0:0:0:0:
182,192,90330,1,0,0:0:0:0:
475,192,90330,1,2,0:0:0:0:
402,192,90496,1,0,0:0:0:0:
329,192,90496,1,8,0:0:0:0:
256,192,90663,1,0,0:0:0:0:
475,192,90830,1,0,0:0:0:0:
329,192,90830,1,0,0:0:0:0:
36,192,90830,1,4,0:0:0:0:
109,192,90996,1,0,0:0:0:0:
402,192,91163,1,0,0:0:0:0:
256,192,91330,1,0,0:0:0:0:
109,192,91496,1,0,0:0:0:0:
36,192,91496,1,8,0:0:0:0:
475,192,91663,1,0,0:0:0:0:
256,192,91663,1,2,0:0:0:0:
109,192,91746,1,0,0:0:0:0:
36,192,91746,1,8,0:0:0:0:
402,192,91830,1,0,0:0:0:0:
329,192,91996,1,0,0:0:0:0:
109,192,91996,1,0,0:0:0:0:
36,192,91996,1,8,0:0:0:0:
402,192,92163,1,0,0:0:0:0:
475,192,92163,1,0,0:0:0:0:
36,192,92163,1,4,0:0:0:0:
256,192,92163,1,2,0:0:0:0:
182,192,92330,1,0,0:0:0:0:
475,192,92496,1,0,0:0:0:0:
402,192,92496,1,0,0:0:0:0:
256,192,92496,1,8,0:0:0:0:
36,192,92663,1,0,0:0:0:0:
182,192,92746,1,0,0:0:0:0:
329,192,92830,1,0,0:0:0:0:
475,192,92913,1,0,0:0:0:0:
109,192,92996,1,0,0:0:0:0:
36,192,92996,1,2,0:0:0:0:
475,192,93163,1,0,0:0:0:0:
402,192,93163,1,0,0:0:0:0:
256,192,93163,1,8,0:0:0:0:
109,192,93330,1,0,0:0:0:0:
182,192,93413,1,0,0:0:0:0:
329,192,93496,1,0,0:0:0:0:
475,192,93663,1,0,0:0:0:0:
402,192,93663,1,2,0:0:0:0:
256,192,93830,1,0,0:0:0:0:
109,192,93830,1,0,0:0:0:0:
36,192,93830,1,8,0:0:0:0:
329,192,93996,1,0,0:0:0:0:
182,192,94080,1,0,0:0:0:0:
402,192,94163,1,0,0:0:0:0:
475,192,94163,1,2,0:0:0:0:
402,192,94330,1,0,0:0:0:0:
475,192,94330,1,2,0:0:0:0:
36,192,94496,1,0,0:0:0:0:
182,192,94496,1,0,0:0:0:0:
329,192,94496,1,8,0:0:0:0:
256,192,94830,1,0,0:0:0:0:
109,192,94830,1,2,0:0:0:0:
402,192,94996,1,0,0:0:0:0:
475,192,95163,1,0,0:0:0:0:
182,192,95163,1,0,0:0:0:0:
36,192,95163,1,8,0:0:0:0:
109,192,95330,1,0,0:0:0:0:
256,192,95413,1,0,0:0:0:0:
475,192,95496,1,0,0:0:0:0:
329,192,95580,1,0,0:0:0:0:
109,192,95663,1,0,0:0:0:0:
36,192,95663,1,2,0:0:0:0:
475,192,95830,1,0,0:0:0:0:
402,192,95830,1,0,0:0:0:0:
182,192,95830,1,8,0:0:0:0:
329,192,95996,1,0,0:0:0:0:
256,192,96080,1,0,0:0:0:0:
182,192,96163,1,0,0:0:0:0:
109,192,96330,1,0,0:0:0:0:
36,192,96330,1,2,0:0:0:0:
475,192,96496,1,0,0:0:0:0:
402,192,96496,1,0,0:0:0:0:
256,192,96496,1,8,0:0:0:0:
109,192,96663,1,0,0:0:0:0:
36,192,96663,1,2,0:0:0:0:
182,192,96746,1,0,0:0:0:0:
329,192,96830,1,0,0:0:0:0:
475,192,96996,1,0,0:0:0:0:
402,192,96996,1,0,0:0:0:0:
256,192,96996,1,8,0:0:0:0:
109,192,97163,1,0,0:0:0:0:
36,192,97163,1,2,0:0:0:0:
475,192,97330,1,0,0:0:0:0:
402,192,97330,1,0,0:0:0:0:
256,192,97330,1,8,0:0:0:0:
329,192,97496,1,0,0:0:0:0:
36,192,97496,1,2,0:0:0:0:
109,192,97663,1,0,0:0:0:0:
475,192,97830,1,0,0:0:0:0:
402,192,97830,1,0,0:0:0:0:
182,192,97830,1,8,0:0:0:0:
36,192,97996,1,0,0:0:0:0:
182,192,98080,1,0,0:0:0:0:
329,192,98163,1,0,0:0:0:0:
475,192,98246,1,0,0:0:0:0:
109,192,98330,1,0,0:0:0:0:
36,192,98330,1,2,0:0:0:0:
475,192,98496,1,0,0:0:0:0:
402,192,98496,1,0,0:0:0:0:
256,192,98496,1,8,0:0:0:0:
329,192,98663,1,0,0:0:0:0:
182,192,98746,1,0,0:0:0:0:
36,192,98830,1,0,0:0:0:0:
475,192,98996,1,0,0:0:0:0:
329,192,98996,1,2,0:0:0:0:
256,192,99163,1,0,0:0:0:0:
182,192,99163,1,0,0:0:0:0:
36,192,99163,1,8,0:0:0:0:
109,192,99330,1,0,0:0:0:0:
182,192,99413,1,0,0:0:0:0:
475,192,99496,1,0,0:0:0:0:
329,192,99496,1,2,0:0:0:0:
475,192,99663,1,0,0:0:0:0:
329,192,99663,1,2,0:0:0:0:
256,192,99830,1,0,0:0:0:0:
182,192,99830,1,0,0:0:0:0:
36,192,99830,1,8,0:0:0:0:
475,192,100163,1,0,0:0:0:0:
256,192,100163,1,2,0:0:0:0:
402,192,100330,1,0,0:0:0:0:
329,192,100496,1,0,0:0:0:0:
182,192,100496,1,0,0:0:0:0:
36,192,100496,1,8,0:0:0:0:
475,192,100663,1,0,0:0:0:0:
329,192,100746,1,0,0:0:0:0:
182,192,100830,1,0,0:0:0:0:
36,192,100913,1,0,0:0:0:0:
475,192,100996,1,0,0:0:0:0:
256,192,100996,1,2,0:0:0:0:
329,192,101163,1,0,0:0:0:0:
182,192,101163,1,0,0:0:0:0:
36,192,101163,1,8,0:0:0:0:
475,192,101330,1,0,0:0:0:0:
329,192,101413,1,0,0:0:0:0:
256,192,101496,1,0,0:0:0:0:
182,192,101663,1,0,0:0:0:0:
36,192,101663,1,2,0:0:0:0:
475,192,101830,1,0,0:0:0:0:
402,192,101830,1,0,0:0:0:0:
256,192,101830,1,8,0:0:0:0:
182,192,101996,1,0,0:0:0:0:
36,192,101996,1,2,0:0:0:0:
329,192,102163,1,0,0:0:0:0:
402,192,102330,1,0,0:0:0:0:
256,192,102330,1,0,0:0:0:0:
109,192,102330,1,8,0:0:0:0:
402,192,102496,1,0,0:0:0:0:
256,192,102496,1,0,0:0:0:0:
109,192,102496,1,8,0:0:0:0:
329,192,102663,1,0,0:0:0:0:
182,192,102663,1,2,0:0:0:0:
475,192,102830,1,0,0:0:0:0:
36,192,102830,1,2,0:0:0:0:
182,192,102996,1,0,0:0:0:0:
475,192,103163,1,0,0:0:0:0:
402,192,103163,1,0,0:0:0:0:
256,192,103163,1,8,0:0:0:0:
109,192,103330,1,0,0:0:0:0:
36,192,103330,1,2,0:0:0:0:
329,192,103413,1,0,0:0:0:0:
182,192,103496,1,0,0:0:0:0:
109,192,103663,1,0,0:0:0:0:
36,192,103663,1,2,0:0:0:0:
475,192,103830,1,0,0:0:0:0:
402,192,103830,1,0,0:0:0:0:
256,192,103830,1,8,0:0:0:0:
109,192,103996,1,0,0:0:0:0:
182,192,104080,1,0,0:0:0:0:
256,192,104163,1,0,0:0:0:0:
475,192,104330,1,0,0:0:0:0:
402,192,104330,1,2,0:0:0:0:
256,192,104496,1,0,0:0:0:0:
109,192,104496,1,0,0:0:0:0:
36,192,104496,1,8,0:0:0:0:
182,192,104663,1,0,0:0:0:0:
329,192,104746,1,0,0:0:0:0:
402,192,104830,1,0,0:0:0:0:
475,192,104830,1,2,0:0:0:0:
475,192,104996,1,0,0:0:0:0:
402,192,104996,1,2,0:0:0:0:
36,192,105163,1,0,0:0:0:0:
182,192,105163,1,0,0:0:0:0:
329,192,105163,1,8,0:0:0:0:
109,192,105496,1,0,0:0:0:0:
36,192,105496,1,2,0:0:0:0:
402,192,105663,1,0,0:0:0:0:
475,192,105830,1,0,0:0:0:0:
256,192,105830,1,0,0:0:0:0:
182,192,105830,1,8,0:0:0:0:
109,192,105996,1,0,0:0:0:0:
36,192,105996,1,2,0:0:0:0:
329,192,106080,1,0,0:0:0:0:
475,192,106163,1,0,0:0:0:0:
109,192,106330,1,0,0:0:0:0:
36,192,106330,1,2,0:0:0:0:
475,192,106496,1,0,0:0:0:0:
256,192,106496,1,0,0:0:0:0:
182,192,106496,1,8,0:0:0:0:
402,192,106663,1,0,0:0:0:0:
256,192,106746,1,0,0:0:0:0:
109,192,106830,1,0,0:0:0:0:
475,192,106996,1,0,0:0:0:0:
36,192,106996,1,2,0:0:0:0:
402,192,107163,1,0,0:0:0:0:
256,192,107163,1,0,0:0:0:0:
109,192,107163,1,8,0:0:0:0:
329,192,107330,1,0,0:0:0:0:
182,192,107413,1,0,0:0:0:0:
36,192,107413,1,2,0:0:0:0:
402,192,107496,1,0,0:0:0:0:
182,192,107663,1,0,0:0:0:0:
36,192,107663,1,2,0:0:0:0:
402,192,107830,1,0,0:0:0:0:
256,192,107830,1,0,0:0:0:0:
109,192,107830,1,8,0:0:0:0:
329,192,107996,1,0,0:0:0:0:
182,192,107996,1,2,0:0:0:0:
402,192,108163,1,0,0:0:0:0:
475,192,108163,1,0,0:0:0:0:
36,192,108163,1,4,0:0:0:0:
109,192,108163,1,2,0:0:0:0:
329,192,108330,1,0,0:0:0:0:
475,192,108496,1,0,0:0:0:0:
256,192,108496,1,0,0:0:0:0:
36,192,108496,1,8,0:0:0:0:
182,192,108663,1,0,0:0:0:0:
109,192,108663,1,2,0:0:0:0:
475,192,108746,1,0,0:0:0:0:
329,192,108830,1,0,0:0:0:0:
109,192,108996,1,0,0:0:0:0:
182,192,108996,1,2,0:0:0:0:
475,192,109163,1,0,0:0:0:0:
402,192,109163,1,0,0:0:0:0:
256,192,109163,1,8,0:0:0:0:
36,192,109330,1,0,0:0:0:0:
182,192,109413,1,0,0:0:0:0:
329,192,109496,1,0,0:0:0:0:
109,192,109663,1,0,0:0:0:0:
36,192,109663,1,2,0:0:0:0:
475,192,109830,1,0,0:0:0:0:
402,192,109830,1,0,0:0:0:0:
256,192,109830,1,8,0:0:0:0:
182,192,109996,1,0,0:0:0:0:
36,192,109996,1,2,0:0:0:0:
329,192,110080,1,0,0:0:0:0:
402,192,110163,1,0,0:0:0:0:
182,192,110330,1,0,0:0:0:0:
36,192,110330,1,2,0:0:0:0:
475,192,110496,1,0,0:0:0:0:
402,192,110496,1,0,0:0:0:0:
256,192,110496,1,8,0:0:0:0:
329,192,110830,1,0,0:0:0:0:
475,192,110830,1,0,0:0:0:0:
36,192,110830,1,4,0:0:0:0:
182,192,110830,1,2,0:0:0:0:
109,192,110996,1,0,0:0:0:0:
475,192,111163,1,0,0:0:0:0:
402,192,111163,1,0,0:0:0:0:
256,192,111163,1,8,0:0:0:0:
109,192,111330,1,0,0:0:0:0:
36,192,111330,1,2,0:0:0:0:
182,192,111413,1,0,0:0:0:0:
329,192,111496,1,0,0:0:0:0:
402,192,111580,1,0,0:0:0:0:
109,192,111663,1,0,0:0:0:0:
36,192,111663,1,2,0:0:0:0:
475,192,111830,1,0,0:0:0:0:
402,192,111830,1,0,0:0:0:0:
256,192,111830,1,8,0:0:0:0:
329,192,111996,1,0,0:0:0:0:
402,192,112163,1,0,0:0:0:0:
475,192,112163,1,0,0:0:0:0:
36,192,112163,1,8,0:0:0:0:
182,192,112163,1,4,0:0:0:0:
109,192,112330,1,0,0:0:0:0:
36,192,112330,1,2,0:0:0:0:
475,192,112496,1,0,0:0:0:0:
402,192,112496,1,2,0:0:0:0:
402,192,112663,1,0,0:0:0:0:
256,192,112663,1,0,0:0:0:0:
36,192,112663,1,8,0:0:0:0:
475,192,112830,1,0,0:0:0:0:
329,192,112830,1,0,0:0:0:0:
182,192,112830,1,8,0:0:0:0:
109,192,112996,1,0,0:0:0:0:
36,192,112996,1,2,0:0:0:0:
475,192,113080,1,0,0:0:0:0:
329,192,113080,1,0,0:0:0:0:
182,192,113080,1,8,0:0:0:0:
475,192,113330,1,0,0:0:0:0:
329,192,113330,1,0,0:0:0:0:
182,192,113330,1,8,0:0:0:0:
256,192,113496,1,0,0:0:0:0:
475,192,113496,1,0,0:0:0:0:
36,192,113496,1,4,0:0:0:0:
109,192,113496,1,2,0:0:0:0:
402,192,113830,1,0,0:0:0:0:
256,192,113996,1,0,0:0:0:0:
36,192,113996,1,2,0:0:0:0:
36,192,114163,1,8,0:0:0:0:
402,192,114330,1,0,0:0:0:0:
329,192,114496,1,0,0:0:0:0:
36,192,114496,1,2,0:0:0:0:
256,192,114663,1,0,0:0:0:0:
182,192,114830,1,0,0:0:0:0:
475,192,114996,1,0,0:0:0:0:
36,192,114996,1,2,0:0:0:0:
256,192,115163,1,0,0:0:0:0:
402,192,115330,1,0,0:0:0:0:
36,192,115330,1,2,0:0:0:0:
36,192,115496,1,8,0:0:0:0:
329,192,115663,1,0,0:0:0:0:
36,192,115830,1,0,0:0:0:0:
109,192,115996,1,0,0:0:0:0:
475,192,116163,1,0,0:0:0:0:
182,192,116163,1,2,0:0:0:0:
36,192,116330,1,0,0:0:0:0:
256,192,116496,1,0,0:0:0:0:
109,192,116663,1,0,0:0:0:0:
475,192,116830,1,8,0:0:0:0:
475,192,116996,1,0,0:0:0:0:
256,192,116996,1,2,0:0:0:0:
109,192,117163,1,0,0:0:0:0:
329,192,117330,1,0,0:0:0:0:
475,192,117330,1,2,0:0:0:0:
36,192,117496,1,0,0:0:0:0:
109,192,117663,1,0,0:0:0:0:
329,192,117830,1,0,0:0:0:0:
475,192,117996,1,0,0:0:0:0:
256,192,117996,1,2,0:0:0:0:
475,192,118163,1,8,0:0:0:0:
329,192,118330,1,0,0:0:0:0:
256,192,118496,1,0,0:0:0:0:
182,192,118663,1,0,0:0:0:0:
475,192,118830,1,0,0:0:0:0:
36,192,118830,1,2,0:0:0:0:
329,192,119163,1,0,0:0:0:0:
475,192,119330,1,0,0:0:0:0:
36,192,119330,1,2,0:0:0:0:
475,192,119496,1,8,0:0:0:0:
182,192,119663,1,0,0:0:0:0:
475,192,119830,1,0,0:0:0:0:
36,192,119830,1,2,0:0:0:0:
402,192,119996,1,0,0:0:0:0:
182,192,120163,1,0,0:0:0:0:
402,192,120330,1,0,0:0:0:0:
36,192,120330,1,2,0:0:0:0:
475,192,120496,1,0,0:0:0:0:
402,192,120663,1,0,0:0:0:0:
36,192,120663,1,2,0:0:0:0:
36,192,120830,1,8,0:0:0:0:
329,192,120996,1,0,0:0:0:0:
182,192,121163,1,0,0:0:0:0:
402,192,121330,1,0,0:0:0:0:
475,192,121496,1,0,0:0:0:0:
109,192,121496,1,2,0:0:0:0:
182,192,121830,1,0,0:0:0:0:
329,192,121996,1,0,0:0:0:0:
475,192,122163,1,8,0:0:0:0:
475,192,122330,1,0,0:0:0:0:
182,192,122330,1,2,0:0:0:0:
475,192,122663,1,0,0:0:0:0:
36,192,122663,1,2,0:0:0:0:
402,192,122830,1,0,0:0:0:0:
329,192,122996,1,0,0:0:0:0:
256,192,123163,1,0,0:0:0:0:
475,192,123330,1,0,0:0:0:0:
109,192,123330,1,2,0:0:0:0:
475,192,123496,1,0,0:0:0:0:
256,192,123496,1,8,0:0:0:0:
182,192,123663,1,0,0:0:0:0:
329,192,123830,1,0,0:0:0:0:
256,192,123996,1,0,0:0:0:0:
475,192,124163,1,0,0:0:0:0:
402,192,124163,1,0,0:0:0:0:
36,192,124163,1,4,0:0:0:0:
182,192,124496,1,0,0:0:0:0:
256,192,124663,1,0,0:0:0:0:
475,192,124996,1,0,0:0:0:0:
402,192,125330,1,0,0:0:0:0:
256,192,125496,1,0,0:0:0:0:
329,192,125830,1,0,0:0:0:0:
182,192,125996,1,0,0:0:0:0:
329,192,126330,1,0,0:0:0:0:
182,192,126496,1,0,0:0:0:0:
109,192,126663,1,0,0:0:0:0:
36,192,126830,1,0,0:0:0:0:
256,192,127330,1,0,0:0:0:0:
36,192,127663,1,0,0:0:0:0:
329,192,127830,1,0,0:0:0:0:
402,192,128330,1,0,0:0:0:0:
329,192,128830,1,0,0:0:0:0:
256,192,129163,1,0,0:0:0:0:
402,192,129496,1,0,0:0:0:0:
256,192,129524,1,0,0:0:0:0:
109,192,129552,1,0,0:0:0:0:
329,192,130830,1,0,0:0:0:0:
182,192,130858,1,0,0:0:0:0:
36,192,130885,1,0,0:0:0:0:
475,192,132163,1,0,0:0:0:0:
402,192,132330,1,0,0:0:0:0:
329,192,132580,1,0,0:0:0:0:
256,192,132830,1,0,0:0:0:0:
182,192,133080,1,0,0:0:0:0:
109,192,133413,1,0,0:0:0:0:
36,192,133746,1,0,0:0:0:0:
329,192,134163,1,0,0:0:0:0:
256,192,134663,128,0,140163:0:0:0:0:
109,192,135496,128,0,140163:0:0:0:0:
329,192,137163,128,0,140163:0:0:0:0:
475,192,137205,128,0,140163:0:0:0:0:
