osu file format v14

[General]
AudioFilename: audio.mp3
AudioLeadIn: 0
PreviewTime: 92163
Countdown: 0
SampleSet: Soft
StackLeniency: 0.7
Mode: 3
LetterboxInBreaks: 0
SpecialStyle: 0
WidescreenStoryboard: 1

[Editor]
DistanceSpacing: 0.1
BeatDivisor: 9
GridSize: 4
TimelineZoom: 2.300001

[Metadata]
Title:Empty Stars
TitleUnicode:Empty Stars
Artist:Sound Souler
ArtistUnicode:Sound Souler
Creator:[Sick]Catcat
Version:Easy
Source:OverRapid
Tags:Irone Irone_osu featured artist fa Dynamix dnb Video Game Instrumental drum and bass drum'n'bass piano milkywaytraxx arcane drive team arcstar milkyway traveler artcore electronic
BeatmapID:2579705
BeatmapSetID:1240915

[Difficulty]
HPDrainRate:7
CircleSize:7
OverallDifficulty:7
ApproachRate:5
SliderMultiplier:1.4
SliderTickRate:1

[Events]
//Background and Video events
0,0,"empty stars.jpg",0,0
//Break Periods
//Storyboard Layer 0 (Background)
//Storyboard Layer 1 (Fail)
//Storyboard Layer 2 (Pass)
//Storyboard Layer 3 (Foreground)
//Storyboard Layer 4 (Overlay)
//Storyboard Sound Samples

[TimingPoints]
1497,333.333333333333,4,2,1,5,1,0
22830,-100,4,2,1,25,0,0
25496,-100,4,2,1,30,0,0
26496,-100,4,2,1,35,0,0
28163,-100,4,2,1,40,0,0
49496,-100,4,2,1,15,0,0
53330,-100,4,2,1,25,0,0
54163,-100,4,2,1,35,0,0
54830,-100,4,2,1,40,0,0
60163,-100,4,2,1,20,0,0
70830,-100,4,2,1,35,0,0
81496,-100,4,2,1,40,0,0
92163,-100,4,2,1,45,0,1
113496,-100,4,2,1,20,0,0
124163,-100,4,2,1,15,0,0

[HitObjects]
256,192,1497,128,0,6830:0:0:0:0:
475,192,6830,1,2,0:0:0:0:
36,192,6830,1,4,0:0:0:0:
182,192,7330,1,0,0:0:0:0:
475,192,9496,1,0,0:0:0:0:
329,192,9996,1,0,0:0:0:0:
475,192,12163,1,0,0:0:0:0:
109,192,12663,128,0,13496:0:0:0:0:
402,192,13496,128,0,14830:0:0:0:0:
256,192,14830,1,0,0:0:0:0:
109,192,15830,1,0,0:0:0:0:
402,192,16052,1,0,0:0:0:0:
256,192,16348,1,0,0:0:0:0:
36,192,17496,1,0,0:0:0:0:
475,192,17830,1,0,0:0:0:0:
329,192,18163,1,0,0:0:0:0:
182,192,18496,1,0,0:0:0:0:
36,192,18830,1,0,0:0:0:0:
402,192,19163,1,0,0:0:0:0:
256,192,19496,1,0,0:0:0:0:
109,192,19830,1,0,0:0:0:0:
475,192,20163,1,0,0:0:0:0:
109,192,21080,1,0,0:0:0:0:
402,192,21330,1,0,0:0:0:0:
182,192,21663,1,0,0:0:0:0:
402,192,22830,1,0,0:0:0:0:
256,192,23496,1,0,0:0:0:0:
256,192,24830,1,8,0:0:0:0:
256,192,25330,1,8,0:0:0:0:
36,192,25496,1,0,0:0:0:0:
182,192,25830,1,8,0:0:0:0:
256,192,26163,1,0,0:0:0:0:
402,192,26496,1,8,0:0:0:0:
475,192,26830,1,2,0:0:0:0:
36,192,26830,1,4,0:0:0:0:
182,192,26996,1,8,0:0:0:0:
329,192,27163,1,8,0:0:0:0:
109,192,27496,1,0,0:0:0:0:
256,192,27663,1,2,0:0:0:0:
256,192,27996,1,8,0:0:0:0:
475,192,28163,1,2,0:0:0:0:
36,192,28163,1,4,0:0:0:0:
329,192,28496,1,8,0:0:0:0:
329,192,28996,1,2,0:0:0:0:
36,192,29163,1,8,0:0:0:0:
475,192,29496,1,0,0:0:0:0:
329,192,29663,1,2,0:0:0:0:
36,192,29830,1,8,0:0:0:0:
402,192,30330,1,2,0:0:0:0:
36,192,30496,1,8,0:0:0:0:
256,192,30663,1,0,0:0:0:0:
475,192,30830,1,2,0:0:0:0:
329,192,31163,1,8,0:0:0:0:
36,192,31663,1,2,0:0:0:0:
329,192,31830,1,8,0:0:0:0:
256,192,32163,1,0,0:0:0:0:
36,192,32330,1,2,0:0:0:0:
329,192,32496,1,8,0:0:0:0:
36,192,32663,1,2,0:0:0:0:
402,192,32996,1,8,0:0:0:0:
109,192,33163,1,2,0:0:0:0:
402,192,33330,1,8,0:0:0:0:
109,192,33496,1,2,0:0:0:0:
475,192,33830,1,8,0:0:0:0:
109,192,34330,1,2,0:0:0:0:
475,192,34496,1,8,0:0:0:0:
109,192,34830,1,2,0:0:0:0:
256,192,34996,1,0,0:0:0:0:
475,192,35163,1,8,0:0:0:0:
109,192,35663,1,2,0:0:0:0:
475,192,35830,1,8,0:0:0:0:
402,192,36163,1,2,0:0:0:0:
256,192,36330,1,0,0:0:0:0:
36,192,36496,1,8,0:0:0:0:
402,192,36996,1,2,0:0:0:0:
36,192,37163,1,8,0:0:0:0:
475,192,37496,1,2,0:0:0:0:
36,192,37663,1,8,0:0:0:0:
475,192,37996,1,2,0:0:0:0:
109,192,38330,1,8,0:0:0:0:
329,192,38496,1,8,0:0:0:0:
182,192,38663,1,2,0:0:0:0:
475,192,38830,1,4,0:0:0:0:
36,192,38830,1,2,0:0:0:0:
256,192,39163,1,8,0:0:0:0:
402,192,39330,1,0,0:0:0:0:
182,192,39663,1,2,0:0:0:0:
36,192,39996,1,0,0:0:0:0:
402,192,40330,1,2,0:0:0:0:
256,192,40496,1,8,0:0:0:0:
109,192,40830,1,0,0:0:0:0:
329,192,40996,1,0,0:0:0:0:
182,192,41163,1,8,0:0:0:0:
402,192,41330,1,0,0:0:0:0:
36,192,41496,1,2,0:0:0:0:
475,192,41830,1,8,0:0:0:0:
329,192,41996,1,0,0:0:0:0:
182,192,42330,1,2,0:0:0:0:
329,192,42496,1,8,0:0:0:0:
36,192,42996,1,2,0:0:0:0:
329,192,43163,1,8,0:0:0:0:
36,192,43330,1,2,0:0:0:0:
402,192,43663,1,8,0:0:0:0:
256,192,43830,1,2,0:0:0:0:
109,192,43996,1,8,0:0:0:0:
475,192,44163,1,2,0:0:0:0:
36,192,44496,1,8,0:0:0:0:
402,192,44663,1,0,0:0:0:0:
109,192,44996,1,2,0:0:0:0:
329,192,45163,1,8,0:0:0:0:
182,192,45330,1,0,0:0:0:0:
36,192,45496,1,2,0:0:0:0:
475,192,45830,1,8,0:0:0:0:
36,192,46330,1,2,0:0:0:0:
475,192,46496,1,8,0:0:0:0:
36,192,46830,1,2,0:0:0:0:
329,192,47163,1,8,0:0:0:0:
109,192,47330,1,0,0:0:0:0:
475,192,47663,1,2,0:0:0:0:
256,192,47830,1,8,0:0:0:0:
402,192,48163,1,4,0:0:0:0:
182,192,48163,1,8,0:0:0:0:
36,192,48330,1,2,0:0:0:0:
329,192,48663,1,8,0:0:0:0:
182,192,48830,1,2,0:0:0:0:
182,192,48996,1,2,0:0:0:0:
475,192,49163,128,8,49496:0:0:0:0:
256,192,49496,128,0,50663:0:0:0:0:
402,192,50663,128,0,52163:0:0:0:0:
182,192,52163,128,0,53330:0:0:0:0:
329,192,53330,128,0,54830:0:0:0:0:
475,192,54830,1,2,0:0:0:0:
36,192,54830,1,4,0:0:0:0:
182,192,55163,1,8,0:0:0:0:
36,192,55330,1,2,0:0:0:0:
402,192,55663,1,8,0:0:0:0:
109,192,55996,1,2,0:0:0:0:
475,192,56163,1,2,0:0:0:0:
109,192,56496,1,8,0:0:0:0:
475,192,56663,1,2,0:0:0:0:
109,192,56996,1,8,0:0:0:0:
475,192,57163,1,2,0:0:0:0:
475,192,57330,1,2,0:0:0:0:
256,192,57496,1,2,0:0:0:0:
36,192,57830,1,8,0:0:0:0:
402,192,57996,1,2,0:0:0:0:
36,192,58330,1,8,0:0:0:0:
402,192,58663,1,2,0:0:0:0:
109,192,58830,1,2,0:0:0:0:
256,192,58996,1,8,0:0:0:0:
402,192,59163,1,8,0:0:0:0:
329,192,59330,1,2,0:0:0:0:
182,192,59330,1,4,0:0:0:0:
475,192,60163,1,4,0:0:0:0:
36,192,60163,1,10,0:0:0:0:
402,192,60496,1,0,0:0:0:0:
256,192,60830,1,0,0:0:0:0:
109,192,61163,1,0,0:0:0:0:
475,192,61496,1,0,0:0:0:0:
36,192,61830,1,0,0:0:0:0:
402,192,62163,1,0,0:0:0:0:
109,192,62496,1,0,0:0:0:0:
475,192,62830,1,0,0:0:0:0:
36,192,63163,1,0,0:0:0:0:
329,192,63496,1,0,0:0:0:0:
182,192,63830,1,0,0:0:0:0:
475,192,64163,1,0,0:0:0:0:
256,192,64496,1,0,0:0:0:0:
329,192,64830,1,0,0:0:0:0:
402,192,65163,1,0,0:0:0:0:
36,192,65496,1,0,0:0:0:0:
109,192,65830,1,0,0:0:0:0:
256,192,66163,1,0,0:0:0:0:
402,192,66496,1,0,0:0:0:0:
36,192,66830,1,0,0:0:0:0:
475,192,67163,1,0,0:0:0:0:
109,192,67496,1,0,0:0:0:0:
402,192,67830,1,0,0:0:0:0:
36,192,68163,1,0,0:0:0:0:
475,192,68496,1,0,0:0:0:0:
329,192,68830,1,0,0:0:0:0:
182,192,69163,1,0,0:0:0:0:
475,192,69496,1,0,0:0:0:0:
36,192,69496,1,4,0:0:0:0:
402,192,69830,1,0,0:0:0:0:
329,192,70163,1,0,0:0:0:0:
256,192,70496,1,0,0:0:0:0:
475,192,70830,1,4,0:0:0:0:
36,192,70830,1,2,0:0:0:0:
182,192,71163,1,8,0:0:0:0:
475,192,71663,1,2,0:0:0:0:
182,192,71830,1,8,0:0:0:0:
36,192,72163,1,2,0:0:0:0:
402,192,72496,1,8,0:0:0:0:
36,192,72996,1,2,0:0:0:0:
402,192,73163,1,8,0:0:0:0:
329,192,73496,1,2,0:0:0:0:
109,192,73830,1,8,0:0:0:0:
329,192,74330,1,2,0:0:0:0:
109,192,74496,1,8,0:0:0:0:
36,192,74830,1,2,0:0:0:0:
256,192,75163,1,8,0:0:0:0:
36,192,75330,1,2,0:0:0:0:
256,192,75663,1,8,0:0:0:0:
109,192,75830,1,2,0:0:0:0:
256,192,75996,1,8,0:0:0:0:
475,192,76163,1,2,0:0:0:0:
256,192,76496,1,8,0:0:0:0:
402,192,76663,1,0,0:0:0:0:
256,192,76996,1,2,0:0:0:0:
402,192,77163,1,8,0:0:0:0:
475,192,77496,1,2,0:0:0:0:
36,192,77663,1,0,0:0:0:0:
402,192,77830,1,8,0:0:0:0:
109,192,77996,1,0,0:0:0:0:
36,192,78330,1,2,0:0:0:0:
256,192,78496,1,8,0:0:0:0:
475,192,78663,1,0,0:0:0:0:
256,192,78830,1,2,0:0:0:0:
109,192,79163,1,8,0:0:0:0:
402,192,79330,1,0,0:0:0:0:
109,192,79663,1,2,0:0:0:0:
402,192,79830,1,8,0:0:0:0:
256,192,79996,1,0,0:0:0:0:
475,192,80163,1,2,0:0:0:0:
109,192,80330,1,8,0:0:0:0:
402,192,80663,1,2,0:0:0:0:
329,192,80996,1,8,0:0:0:0:
182,192,81163,1,8,0:0:0:0:
329,192,81330,1,2,0:0:0:0:
402,192,81496,128,2,82830:0:0:0:0:
36,192,81496,1,4,0:0:0:0:
109,192,81830,1,8,0:0:0:0:
109,192,82496,1,8,0:0:0:0:
182,192,82830,128,2,84163:0:0:0:0:
329,192,83163,1,8,0:0:0:0:
329,192,83830,1,8,0:0:0:0:
36,192,84163,128,2,85496:0:0:0:0:
475,192,84496,1,8,0:0:0:0:
475,192,85163,1,8,0:0:0:0:
109,192,85496,128,2,86830:0:0:0:0:
256,192,85830,1,8,0:0:0:0:
256,192,86496,1,8,0:0:0:0:
402,192,86830,128,2,88163:0:0:0:0:
36,192,87163,1,8,0:0:0:0:
36,192,87830,1,8,0:0:0:0:
182,192,88163,128,2,89496:0:0:0:0:
329,192,88496,1,8,0:0:0:0:
329,192,89163,1,8,0:0:0:0:
36,192,89496,128,2,90830:0:0:0:0:
256,192,89830,1,8,0:0:0:0:
256,192,90496,1,8,0:0:0:0:
475,192,90830,1,0,0:0:0:0:
329,192,90830,1,4,0:0:0:0:
182,192,91496,1,8,0:0:0:0:
182,192,91746,1,8,0:0:0:0:
182,192,91996,1,8,0:0:0:0:
475,192,92163,1,2,0:0:0:0:
329,192,92163,1,4,0:0:0:0:
256,192,92496,1,0,0:0:0:0:
109,192,92496,1,8,0:0:0:0:
475,192,92996,1,2,0:0:0:0:
256,192,93163,1,0,0:0:0:0:
109,192,93163,1,8,0:0:0:0:
475,192,93663,1,2,0:0:0:0:
256,192,93830,1,0,0:0:0:0:
109,192,93830,1,8,0:0:0:0:
329,192,94163,1,2,0:0:0:0:
475,192,94330,1,2,0:0:0:0:
256,192,94496,1,0,0:0:0:0:
109,192,94496,1,8,0:0:0:0:
36,192,94830,1,2,0:0:0:0:
402,192,95163,1,0,0:0:0:0:
256,192,95163,1,8,0:0:0:0:
36,192,95663,1,2,0:0:0:0:
402,192,95830,1,0,0:0:0:0:
256,192,95830,1,8,0:0:0:0:
36,192,96330,1,2,0:0:0:0:
402,192,96496,1,0,0:0:0:0:
256,192,96496,1,8,0:0:0:0:
36,192,96663,1,2,0:0:0:0:
402,192,96996,1,0,0:0:0:0:
256,192,96996,1,8,0:0:0:0:
36,192,97163,1,2,0:0:0:0:
256,192,97330,1,8,0:0:0:0:
109,192,97496,1,2,0:0:0:0:
329,192,97830,1,0,0:0:0:0:
475,192,97830,1,8,0:0:0:0:
109,192,98330,1,2,0:0:0:0:
329,192,98496,1,0,0:0:0:0:
475,192,98496,1,8,0:0:0:0:
109,192,98996,1,2,0:0:0:0:
329,192,99163,1,0,0:0:0:0:
475,192,99163,1,8,0:0:0:0:
36,192,99496,1,2,0:0:0:0:
182,192,99663,1,2,0:0:0:0:
329,192,99830,1,0,0:0:0:0:
475,192,99830,1,8,0:0:0:0:
402,192,100163,1,2,0:0:0:0:
36,192,100496,1,0,0:0:0:0:
182,192,100496,1,8,0:0:0:0:
402,192,100996,1,2,0:0:0:0:
36,192,101163,1,0,0:0:0:0:
182,192,101163,1,8,0:0:0:0:
402,192,101663,1,2,0:0:0:0:
36,192,101830,1,0,0:0:0:0:
182,192,101830,1,8,0:0:0:0:
402,192,101996,1,2,0:0:0:0:
36,192,102330,1,0,0:0:0:0:
182,192,102330,1,8,0:0:0:0:
475,192,102496,1,8,0:0:0:0:
109,192,102663,1,2,0:0:0:0:
256,192,102830,1,2,0:0:0:0:
402,192,103163,1,0,0:0:0:0:
109,192,103163,1,8,0:0:0:0:
256,192,103330,1,2,0:0:0:0:
256,192,103663,1,2,0:0:0:0:
402,192,103830,1,0,0:0:0:0:
109,192,103830,1,8,0:0:0:0:
475,192,104330,1,2,0:0:0:0:
256,192,104496,1,0,0:0:0:0:
109,192,104496,1,8,0:0:0:0:
475,192,104830,1,2,0:0:0:0:
36,192,104996,1,2,0:0:0:0:
402,192,105163,1,0,0:0:0:0:
256,192,105163,1,8,0:0:0:0:
36,192,105496,1,2,0:0:0:0:
475,192,105830,1,0,0:0:0:0:
256,192,105830,1,8,0:0:0:0:
36,192,105996,1,2,0:0:0:0:
36,192,106330,1,2,0:0:0:0:
475,192,106496,1,0,0:0:0:0:
256,192,106496,1,8,0:0:0:0:
36,192,106996,1,2,0:0:0:0:
475,192,107163,1,0,0:0:0:0:
256,192,107163,1,8,0:0:0:0:
109,192,107413,1,2,0:0:0:0:
402,192,107663,1,2,0:0:0:0:
256,192,107830,1,0,0:0:0:0:
109,192,107830,1,8,0:0:0:0:
402,192,107996,1,2,0:0:0:0:
475,192,108163,1,2,0:0:0:0:
36,192,108163,1,4,0:0:0:0:
329,192,108496,1,0,0:0:0:0:
182,192,108496,1,8,0:0:0:0:
36,192,108663,1,2,0:0:0:0:
475,192,108996,1,2,0:0:0:0:
329,192,109163,1,0,0:0:0:0:
182,192,109163,1,8,0:0:0:0:
475,192,109663,1,2,0:0:0:0:
329,192,109830,1,0,0:0:0:0:
182,192,109830,1,8,0:0:0:0:
475,192,109996,1,2,0:0:0:0:
36,192,110330,1,2,0:0:0:0:
402,192,110496,1,0,0:0:0:0:
256,192,110496,1,8,0:0:0:0:
475,192,110830,1,2,0:0:0:0:
109,192,110830,1,4,0:0:0:0:
402,192,111163,1,0,0:0:0:0:
256,192,111163,1,8,0:0:0:0:
36,192,111330,1,2,0:0:0:0:
36,192,111663,1,2,0:0:0:0:
402,192,111830,1,0,0:0:0:0:
256,192,111830,1,8,0:0:0:0:
475,192,112163,1,4,0:0:0:0:
109,192,112163,1,8,0:0:0:0:
256,192,112330,1,2,0:0:0:0:
256,192,112496,1,2,0:0:0:0:
109,192,112663,1,8,0:0:0:0:
402,192,112830,1,8,0:0:0:0:
109,192,113080,1,8,0:0:0:0:
402,192,113330,1,8,0:0:0:0:
256,192,113496,1,2,0:0:0:0:
36,192,113496,1,4,0:0:0:0:
182,192,113830,1,0,0:0:0:0:
329,192,113996,1,2,0:0:0:0:
182,192,114330,1,0,0:0:0:0:
329,192,114496,1,2,0:0:0:0:
475,192,114830,1,0,0:0:0:0:
109,192,114996,1,2,0:0:0:0:
402,192,115163,1,0,0:0:0:0:
256,192,115330,1,2,0:0:0:0:
329,192,115663,1,0,0:0:0:0:
256,192,115830,1,0,0:0:0:0:
182,192,115996,1,0,0:0:0:0:
109,192,116163,1,2,0:0:0:0:
36,192,116496,1,0,0:0:0:0:
402,192,116663,1,0,0:0:0:0:
36,192,116996,1,2,0:0:0:0:
402,192,117163,1,0,0:0:0:0:
36,192,117496,1,0,0:0:0:0:
182,192,117663,1,0,0:0:0:0:
402,192,117830,1,0,0:0:0:0:
256,192,117996,1,2,0:0:0:0:
182,192,118330,1,0,0:0:0:0:
256,192,118496,1,0,0:0:0:0:
329,192,118663,1,0,0:0:0:0:
402,192,118830,1,2,0:0:0:0:
109,192,119163,1,0,0:0:0:0:
256,192,119330,1,2,0:0:0:0:
475,192,119663,1,0,0:0:0:0:
182,192,119996,1,0,0:0:0:0:
36,192,120163,1,0,0:0:0:0:
475,192,120496,1,0,0:0:0:0:
329,192,120663,1,2,0:0:0:0:
256,192,120996,1,0,0:0:0:0:
36,192,121163,1,0,0:0:0:0:
402,192,121330,1,0,0:0:0:0:
182,192,121496,1,2,0:0:0:0:
109,192,121830,1,0,0:0:0:0:
402,192,121996,1,0,0:0:0:0:
256,192,122330,1,2,0:0:0:0:
402,192,122663,1,2,0:0:0:0:
109,192,122830,1,0,0:0:0:0:
475,192,123163,1,0,0:0:0:0:
329,192,123330,1,2,0:0:0:0:
182,192,123496,1,8,0:0:0:0:
402,192,123830,1,0,0:0:0:0:
256,192,123996,1,0,0:0:0:0:
109,192,124163,1,0,0:0:0:0:
36,192,124163,1,4,0:0:0:0:
182,192,124496,1,0,0:0:0:0:
329,192,124663,1,0,0:0:0:0:
475,192,124996,1,0,0:0:0:0:
402,192,125330,1,0,0:0:0:0:
256,192,125496,1,0,0:0:0:0:
402,192,125830,1,0,0:0:0:0:
109,192,125996,1,0,0:0:0:0:
256,192,126330,1,0,0:0:0:0:
182,192,126496,1,0,0:0:0:0:
109,192,126663,1,0,0:0:0:0:
36,192,126830,1,0,0:0:0:0:
182,192,127330,1,0,0:0:0:0:
36,192,127663,1,0,0:0:0:0:
329,192,127830,1,0,0:0:0:0:
402,192,128330,1,0,0:0:0:0:
329,192,128830,1,0,0:0:0:0:
256,192,129163,1,0,0:0:0:0:
182,192,129496,1,0,0:0:0:0:
109,192,130830,1,0,0:0:0:0:
475,192,132163,128,0,132830:0:0:0:0:
402,192,132830,128,0,134663:0:0:0:0:
256,192,134663,128,0,135496:0:0:0:0:
109,192,135496,128,0,137163:0:0:0:0:
36,192,137163,128,0,140163:0:0:0:0:
