osu file format v14

[General]
AudioFilename: audio.mp3
AudioLeadIn: 0
PreviewTime: 74278
Countdown: 0
SampleSet: Normal
StackLeniency: 0.7
Mode: 1
LetterboxInBreaks: 0
WidescreenStoryboard: 0

[Editor]
Bookmarks: 5454,12513,19572,26631,31925,33690,40749,47807,54866,61925,68984,74278,76043,83102,90160,97219,104278,111337,118396,125454,130749,132513
DistanceSpacing: 0.1
BeatDivisor: 3
GridSize: 32
TimelineZoom: 2.1

[Metadata]
Title:Diminitive
TitleUnicode:Diminitive
Artist:Sound Souler
ArtistUnicode:Sound Souler
Creator:eiri-
Version:Kantan
Source:OverRapid
Tags:Ayyri Trynna Featured Artist FA Video Game Instrumental Electronic
BeatmapID:2462304
BeatmapSetID:1180896

[Difficulty]
HPDrainRate:9
CircleSize:2
OverallDifficulty:3
ApproachRate:10
SliderMultiplier:1.4
SliderTickRate:1

[Events]
//Background and Video events
0,0,"Diminitive.jpg",0,-130
//Break Periods
//Storyboard Layer 0 (Background)
//Storyboard Layer 1 (Fail)
//Storyboard Layer 2 (Pass)
//Storyboard Layer 3 (Foreground)
//Storyboard Layer 4 (Overlay)
//Storyboard Sound Samples

[TimingPoints]
5455,441.176470588235,4,1,0,75,1,0

[HitObjects]
256,192,5454,5,8,0:0:0:0:
256,192,5896,1,8,0:0:0:0:
256,192,6337,1,0,0:0:0:0:
256,192,7219,1,8,0:0:0:0:
256,192,8984,1,8,0:0:0:0:
256,192,9866,1,8,0:0:0:0:
256,192,10307,1,0,0:0:0:0:
256,192,10749,1,8,0:0:0:0:
256,192,11337,1,0,0:0:0:0:
256,192,11631,1,8,0:0:0:0:
256,192,12513,1,12,0:0:0:0:
256,192,12954,1,8,0:0:0:0:
256,192,13396,1,0,0:0:0:0:
256,192,14278,1,0,0:0:0:0:
256,192,14719,1,8,0:0:0:0:
256,192,15160,1,0,0:0:0:0:
256,192,16043,1,8,0:0:0:0:
256,192,16484,1,0,0:0:0:0:
256,192,16925,1,8,0:0:0:0:
256,192,17366,1,0,0:0:0:0:
256,192,19572,1,0,0:0:0:0:
256,192,20013,1,0,0:0:0:0:
256,192,20454,1,0,0:0:0:0:
256,192,21337,1,0,0:0:0:0:
256,192,22219,1,0,0:0:0:0:
256,192,22660,1,8,0:0:0:0:
256,192,23102,1,0,0:0:0:0:
256,192,23984,1,0,0:0:0:0:
256,192,24425,1,8,0:0:0:0:
256,192,24866,1,0,0:0:0:0:
256,192,25307,1,0,0:0:0:0:
256,192,25749,1,0,0:0:0:0:
256,192,26631,1,8,0:0:0:0:
256,192,27072,1,8,0:0:0:0:
256,192,27513,1,0,0:0:0:0:
256,192,28396,1,0,0:0:0:0:
256,192,28837,1,8,0:0:0:0:
256,192,29278,1,0,0:0:0:0:
256,192,30160,1,0,0:0:0:0:
256,192,30602,1,8,0:0:0:0:
256,192,31043,1,0,0:0:0:0:
256,192,31484,1,8,0:0:0:0:
256,192,31925,1,0,0:0:0:0:
256,192,33690,1,8,0:0:0:0:
256,192,34131,1,8,0:0:0:0:
256,192,34572,1,0,0:0:0:0:
256,192,35454,1,0,0:0:0:0:
256,192,35896,1,8,0:0:0:0:
256,192,36337,1,0,0:0:0:0:
256,192,36778,1,8,0:0:0:0:
256,192,37219,1,0,0:0:0:0:
256,192,38543,1,8,0:0:0:0:
256,192,38984,1,0,0:0:0:0:
256,192,39425,1,8,0:0:0:0:
256,192,39866,1,8,0:0:0:0:
256,192,40749,1,0,0:0:0:0:
256,192,41190,1,8,0:0:0:0:
256,192,41631,1,0,0:0:0:0:
256,192,42072,1,0,0:0:0:0:
256,192,42513,1,8,0:0:0:0:
256,192,43396,1,0,0:0:0:0:
256,192,44278,1,0,0:0:0:0:
256,192,44719,1,8,0:0:0:0:
256,192,45013,1,0,0:0:0:0:
256,192,46043,1,0,0:0:0:0:
256,192,47807,1,8,0:0:0:0:
256,192,48690,1,8,0:0:0:0:
256,192,49131,1,0,0:0:0:0:
256,192,49572,1,8,0:0:0:0:
256,192,50454,1,0,0:0:0:0:
256,192,51337,1,8,0:0:0:0:
256,192,53102,1,8,0:0:0:0:
256,192,53984,1,8,0:0:0:0:
256,192,54425,1,0,0:0:0:0:
256,192,54866,1,8,0:0:0:0:
256,192,55749,1,0,0:0:0:0:
256,192,56631,1,8,0:0:0:0:
256,192,57513,1,8,0:0:0:0:
256,192,57954,1,0,0:0:0:0:
256,192,58396,1,8,0:0:0:0:
256,192,60160,1,0,0:0:0:0:
256,192,61043,1,8,0:0:0:0:
256,192,61925,1,12,0:0:0:0:
256,192,62366,1,0,0:0:0:0:
256,192,62807,1,8,0:0:0:0:
256,192,63690,1,0,0:0:0:0:
256,192,64131,1,8,0:0:0:0:
256,192,64572,1,0,0:0:0:0:
256,192,65454,1,8,0:0:0:0:
256,192,66337,1,0,0:0:0:0:
256,192,67219,1,8,0:0:0:0:
256,192,67660,1,8,0:0:0:0:
256,192,68102,1,8,0:0:0:0:
256,192,68984,1,8,0:0:0:0:
256,192,69866,1,0,0:0:0:0:
256,192,70749,1,8,0:0:0:0:
256,192,72513,1,8,0:0:0:0:
256,192,72954,1,8,0:0:0:0:
256,192,73396,1,8,0:0:0:0:
256,192,73837,1,8,0:0:0:0:
256,192,74278,1,0,0:0:0:0:
256,192,76043,1,0,0:0:0:0:
256,192,76484,1,8,0:0:0:0:
256,192,76925,1,0,0:0:0:0:
256,192,77366,1,8,0:0:0:0:
256,192,77807,1,0,0:0:0:0:
256,192,79131,1,8,0:0:0:0:
256,192,79572,1,0,0:0:0:0:
256,192,80454,1,0,0:0:0:0:
256,192,80896,1,8,0:0:0:0:
256,192,81337,1,0,0:0:0:0:
256,192,82219,1,0,0:0:0:0:
256,192,82660,1,8,0:0:0:0:
256,192,83102,1,8,0:0:0:0:
256,192,83984,1,0,0:0:0:0:
256,192,84425,1,8,0:0:0:0:
256,192,84866,1,0,0:0:0:0:
256,192,86190,1,8,0:0:0:0:
256,192,86631,1,0,0:0:0:0:
256,192,87513,1,0,0:0:0:0:
256,192,87954,1,8,0:0:0:0:
256,192,88396,1,0,0:0:0:0:
256,192,89278,1,0,0:0:0:0:
256,192,90160,1,0,0:0:0:0:
256,192,90602,1,8,0:0:0:0:
256,192,91043,1,0,0:0:0:0:
256,192,91484,1,8,0:0:0:0:
256,192,91925,1,0,0:0:0:0:
256,192,93249,1,8,0:0:0:0:
256,192,93690,1,0,0:0:0:0:
256,192,94572,1,0,0:0:0:0:
256,192,95013,1,8,0:0:0:0:
256,192,95454,1,0,0:0:0:0:
256,192,96337,1,0,0:0:0:0:
256,192,96778,1,8,0:0:0:0:
256,192,97219,1,8,0:0:0:0:
256,192,98102,1,0,0:0:0:0:
256,192,98543,1,8,0:0:0:0:
256,192,98984,1,0,0:0:0:0:
256,192,100307,1,8,0:0:0:0:
256,192,100749,1,0,0:0:0:0:
256,192,101631,1,0,0:0:0:0:
256,192,102072,1,8,0:0:0:0:
256,192,102513,1,0,0:0:0:0:
256,192,104278,1,12,0:0:0:0:
256,192,104719,1,8,0:0:0:0:
256,192,105160,1,0,0:0:0:0:
256,192,105602,1,8,0:0:0:0:
256,192,106043,1,0,0:0:0:0:
256,192,106925,1,8,0:0:0:0:
256,192,107807,1,0,0:0:0:0:
256,192,108690,1,0,0:0:0:0:
256,192,109131,1,8,0:0:0:0:
256,192,109572,1,0,0:0:0:0:
256,192,111337,1,0,0:0:0:0:
256,192,112219,1,8,0:0:0:0:
256,192,112660,1,8,0:0:0:0:
256,192,113102,1,0,0:0:0:0:
256,192,113543,1,8,0:0:0:0:
256,192,113984,1,0,0:0:0:0:
256,192,114866,1,8,0:0:0:0:
256,192,115749,1,0,0:0:0:0:
256,192,116190,1,8,0:0:0:0:
256,192,116631,1,0,0:0:0:0:
256,192,118396,1,8,0:0:0:0:
256,192,119278,1,8,0:0:0:0:
256,192,119719,1,8,0:0:0:0:
256,192,120160,1,0,0:0:0:0:
256,192,120602,1,8,0:0:0:0:
256,192,121043,1,0,0:0:0:0:
256,192,121925,1,0,0:0:0:0:
256,192,122807,1,0,0:0:0:0:
256,192,123249,1,8,0:0:0:0:
256,192,123690,1,0,0:0:0:0:
256,192,125454,1,0,0:0:0:0:
256,192,126337,1,0,0:0:0:0:
256,192,126778,1,8,0:0:0:0:
256,192,127219,1,8,0:0:0:0:
256,192,127660,1,8,0:0:0:0:
256,192,128102,1,0,0:0:0:0:
256,192,128984,1,8,0:0:0:0:
256,192,129866,1,0,0:0:0:0:
256,192,130307,1,0,0:0:0:0:
256,192,130749,1,8,0:0:0:0:
256,192,130896,8,0,132513,0:0:0:0:
