osu file format v14

[General]
AudioFilename: audio.mp3
AudioLeadIn: 0
PreviewTime: 43775
Countdown: 0
SampleSet: Normal
StackLeniency: 0.7
Mode: 1
LetterboxInBreaks: 0
WidescreenStoryboard: 0

[Editor]
DistanceSpacing: 0.1
BeatDivisor: 8
GridSize: 4
TimelineZoom: 1.8

[Metadata]
Title:Dead Soul
TitleUnicode:Dead Soul
Artist:Sound Souler
ArtistUnicode:Sound Souler
Creator:POCARI SWEAT
Version:Oni
Source:osu!
Tags:BOFU2017 Electronic Instrumental fa featured artist BMS
BeatmapID:2333503
BeatmapSetID:1116828

[Difficulty]
HPDrainRate:5
CircleSize:5
OverallDifficulty:5
ApproachRate:5
SliderMultiplier:1.4
SliderTickRate:1

[Events]
//Background and Video events
0,0,"maxresdefault.jpg",0,0
//Break Periods
2,74884,80757
//Storyboard Layer 0 (Background)
//Storyboard Layer 1 (Fail)
//Storyboard Layer 2 (Pass)
//Storyboard Layer 3 (Foreground)
//Storyboard Layer 4 (Overlay)
//Storyboard Sound Samples

[TimingPoints]
1957,454.545454545455,4,1,0,65,1,0
1957,-111.111111111111,4,1,0,65,0,0
9229,-100,4,1,0,80,0,0
9457,-105.263157894737,4,1,0,80,0,0
16047,-95.2380952380952,4,1,0,90,0,0
16502,-100,4,1,0,90,0,0
31047,-101.010101010101,4,1,0,90,0,0
31388,-104.166666666667,4,1,0,90,0,0
31502,-105.263157894737,4,1,0,90,0,0
31729,-107.52688172043,4,1,0,90,0,0
31957,-109.89010989011,4,1,0,90,0,0
32184,-112.359550561798,4,1,0,90,0,0
32411,-114.942528735632,4,1,0,90,0,0
32865,-120.481927710843,4,1,0,90,0,0
33206,-125,4,1,0,90,0,0
34229,-117.647058823529,4,1,0,90,0,0
34684,-125,4,1,0,90,0,0
37866,-117.647058823529,4,1,0,90,0,0
38320,-131.578947368421,4,1,0,90,0,0
38547,-128.205128205128,4,1,0,90,0,0
38775,-125,4,1,0,90,0,0
39002,-121.951219512195,4,1,0,90,0,0
39229,-119.047619047619,4,1,0,90,0,0
39457,-113.636363636364,4,1,0,90,0,0
39684,-113.636363636364,4,1,0,90,0,0
39911,-111.111111111111,4,1,0,90,0,0
40138,-108.695652173913,4,1,0,90,0,0
40366,-106.382978723404,4,1,0,90,0,0
40479,-105.263157894737,4,1,0,90,0,0
40593,-104.166666666667,4,1,0,90,0,0
40820,-102.040816326531,4,1,0,90,0,0
40934,-101.010101010101,4,1,0,90,0,0
41047,-100,4,1,0,90,0,0
41274,-98.0392156862745,4,1,0,90,0,0
41502,-92.5925925925926,4,1,0,90,0,0
41956,-92.5925925925926,4,1,0,90,0,0
42184,-90.9090909090909,4,1,0,90,0,0
42297,-90.0900900900901,4,1,0,90,0,0
42411,-89.2857142857143,4,1,0,90,0,0
42638,-87.719298245614,4,1,0,90,0,0
42752,-86.9565217391304,4,1,0,90,0,0
42866,-86.2068965517241,4,1,0,90,0,0
43093,-84.7457627118644,4,1,0,90,0,0
43320,-83.3333333333333,4,1,0,90,0,0
43434,-82.6446280991736,4,1,0,90,0,0
43547,-81.9672131147541,4,1,0,90,0,0
43661,-81.3008130081301,4,1,0,90,0,0
43775,-80.6451612903226,4,1,0,90,0,0
45138,-76.9230769230769,4,1,0,90,0,0
45593,-100,4,1,0,90,0,1
48775,-95.2380952380952,4,1,0,90,0,1
49229,-100,4,1,0,90,0,1
52411,-95.2380952380952,4,1,0,90,0,1
52866,-100,4,1,0,90,0,1
56047,-95.2380952380952,4,1,0,90,0,1
56275,-100,4,1,0,90,0,1
59684,-90.9090909090909,4,1,0,90,0,1
60138,-95.2380952380952,4,1,0,90,0,1
69002,-95.2380952380952,4,1,0,90,0,1
74229,-86.9565217391304,4,1,0,90,0,1
74684,-95.2380952380952,4,1,0,60,0,0
74741,-95.2380952380952,4,1,0,40,0,0
76502,-105.263157894737,4,1,0,40,0,0
78320,-117.647058823529,4,1,0,40,0,0
80138,-133.333333333333,4,1,0,40,0,0
81900,-133.333333333333,4,1,0,60,0,0
84115,-131.578947368421,4,1,0,60,0,0
85934,-129.87012987013,4,1,0,60,0,0
87751,-128.205128205128,4,1,0,60,0,0
89570,-126.582278481013,4,1,0,60,0,0
91387,-125,4,1,0,60,0,0
96502,-125,4,1,0,80,0,0
99684,-105.263157894737,4,1,0,80,0,0
100138,-111.111111111111,4,1,0,80,0,0
103320,-95.2380952380952,4,1,0,80,0,0
103775,-133.333333333333,4,1,0,80,0,0
104002,-129.87012987013,4,1,0,80,0,0
104116,-128.205128205128,4,1,0,80,0,0
104229,-126.582278481013,4,1,0,80,0,0
104457,-123.456790123457,4,1,0,80,0,0
104684,-120.481927710843,4,1,0,80,0,0
104911,-117.647058823529,4,1,0,80,0,0
105138,-114.942528735632,4,1,0,80,0,0
105366,-112.359550561798,4,1,0,80,0,0
105593,-109.89010989011,4,1,0,80,0,0
105820,-107.52688172043,4,1,0,80,0,0
106047,-105.263157894737,4,1,0,80,0,0
106275,-103.092783505155,4,1,0,80,0,0
106502,-101.010101010101,4,1,0,80,0,0
106729,-99.009900990099,4,1,0,80,0,0
106957,-97.0873786407767,4,1,0,80,0,0
107411,-93.4579439252336,4,1,0,80,0,0
107638,-91.743119266055,4,1,0,80,0,0
107866,-90.0900900900901,4,1,0,80,0,0
108093,-88.4955752212389,4,1,0,80,0,0
108207,-87.719298245614,4,1,0,80,0,0
108320,-86.9565217391304,4,1,0,80,0,0
108547,-85.4700854700855,4,1,0,80,0,0
108661,-84.7457627118644,4,1,0,80,0,0
108775,-84.0336134453781,4,1,0,80,0,0
108888,-83.3333333333333,4,1,0,80,0,0
109002,-82.6446280991736,4,1,0,80,0,0
109229,-50,4,1,0,80,0,0
110593,-75.7575757575758,4,1,0,90,0,0
111047,-100,4,1,0,90,0,1
114229,-95.2380952380952,4,1,0,90,0,1
114457,-100,4,1,0,90,0,1
117865,-95.2380952380952,4,1,0,90,0,1
118320,-100,4,1,0,90,0,1
125138,-90.9090909090909,4,1,0,90,0,1
125592,-83.3333333333333,4,1,0,90,0,1
128775,-76.9230769230769,4,1,0,90,0,1
129002,-83.3333333333333,4,1,0,90,0,1
139683,-86.9565217391304,4,1,0,90,0,1
140138,-100,4,1,0,60,0,0

[HitObjects]
104,80,1957,5,0,0:0:0:0:
104,80,2297,1,8,0:0:0:0:
104,80,2411,1,0,0:0:0:0:
104,80,2638,1,8,0:0:0:0:
104,80,2866,1,0,0:0:0:0:
104,80,3206,1,8,0:0:0:0:
104,80,3320,1,0,0:0:0:0:
104,80,3547,1,8,0:0:0:0:
104,80,3775,1,0,0:0:0:0:
104,80,4115,1,8,0:0:0:0:
104,80,4229,1,0,0:0:0:0:
104,80,4456,1,8,0:0:0:0:
104,80,4684,1,0,0:0:0:0:
104,80,5024,1,8,0:0:0:0:
104,80,5138,1,0,0:0:0:0:
104,80,5365,1,8,0:0:0:0:
104,80,5593,1,0,0:0:0:0:
104,80,5933,1,8,0:0:0:0:
104,80,6047,1,0,0:0:0:0:
104,80,6274,1,8,0:0:0:0:
104,80,6502,1,0,0:0:0:0:
104,80,6842,1,8,0:0:0:0:
104,80,6956,1,0,0:0:0:0:
104,80,7183,1,8,0:0:0:0:
104,80,7411,1,0,0:0:0:0:
104,80,7751,1,8,0:0:0:0:
104,80,7865,1,0,0:0:0:0:
104,80,8092,1,8,0:0:0:0:
104,80,8320,1,0,0:0:0:0:
104,80,8660,1,8,0:0:0:0:
104,80,8774,1,0,0:0:0:0:
104,80,9001,1,0,0:0:0:0:
181,91,9229,1,12,0:0:0:0:
183,89,9570,1,8,0:0:0:0:
183,89,9684,1,0,0:0:0:0:
183,89,9911,1,8,0:0:0:0:
183,89,10138,1,0,0:0:0:0:
183,89,10366,1,8,0:0:0:0:
166,68,10820,1,8,0:0:0:0:
162,91,11047,1,0,0:0:0:0:
183,89,11388,1,8,0:0:0:0:
183,89,11502,1,0,0:0:0:0:
183,89,11729,1,8,0:0:0:0:
183,89,11956,1,0,0:0:0:0:
183,89,12184,1,8,0:0:0:0:
166,68,12638,1,8,0:0:0:0:
162,91,12866,1,0,0:0:0:0:
183,89,13207,1,8,0:0:0:0:
183,89,13321,1,0,0:0:0:0:
183,89,13548,1,8,0:0:0:0:
183,89,13775,1,0,0:0:0:0:
183,89,14003,1,8,0:0:0:0:
166,68,14457,1,8,0:0:0:0:
231,114,15025,1,8,0:0:0:0:
231,113,15366,1,8,0:0:0:0:
231,113,15820,1,0,0:0:0:0:
231,113,16047,1,12,0:0:0:0:
231,113,16502,1,0,0:0:0:0:
231,113,16843,1,8,0:0:0:0:
231,113,16957,1,0,0:0:0:0:
231,113,17184,1,8,0:0:0:0:
231,113,17411,1,0,0:0:0:0:
231,113,17752,1,8,0:0:0:0:
231,113,17866,1,0,0:0:0:0:
231,113,18093,1,8,0:0:0:0:
231,113,18320,1,0,0:0:0:0:
231,113,18547,1,8,0:0:0:0:
231,113,19002,1,8,0:0:0:0:
231,113,19229,1,0,0:0:0:0:
231,113,19457,1,8,0:0:0:0:
155,90,19570,1,0,0:0:0:0:
231,113,19684,1,0,0:0:0:0:
231,113,19911,1,8,0:0:0:0:
231,113,20138,1,0,0:0:0:0:
231,113,20479,1,8,0:0:0:0:
231,113,20593,1,0,0:0:0:0:
231,113,20820,1,8,0:0:0:0:
231,113,21047,1,0,0:0:0:0:
231,113,21388,1,8,0:0:0:0:
231,113,21502,1,0,0:0:0:0:
231,113,21729,1,8,0:0:0:0:
231,113,21956,1,0,0:0:0:0:
231,113,22183,1,8,0:0:0:0:
231,113,22638,1,8,0:0:0:0:
231,113,22865,1,0,0:0:0:0:
231,113,23093,1,8,0:0:0:0:
155,90,23206,1,8,0:0:0:0:
231,113,23320,1,0,0:0:0:0:
231,113,23547,1,8,0:0:0:0:
231,113,23775,1,0,0:0:0:0:
231,113,24116,1,8,0:0:0:0:
231,113,24230,1,0,0:0:0:0:
231,113,24457,1,8,0:0:0:0:
231,113,24684,1,0,0:0:0:0:
231,113,25025,1,8,0:0:0:0:
231,113,25139,1,0,0:0:0:0:
231,113,25366,1,8,0:0:0:0:
231,113,25593,1,0,0:0:0:0:
231,113,25820,1,8,0:0:0:0:
231,113,26275,1,8,0:0:0:0:
231,113,26502,1,0,0:0:0:0:
231,113,26730,1,8,0:0:0:0:
138,142,26843,1,0,0:0:0:0:
231,113,26957,1,0,0:0:0:0:
231,113,27184,1,8,0:0:0:0:
231,113,27411,1,0,0:0:0:0:
231,113,27752,1,8,0:0:0:0:
231,113,27866,1,0,0:0:0:0:
231,113,28093,1,8,0:0:0:0:
231,113,28320,1,0,0:0:0:0:
231,113,28661,1,8,0:0:0:0:
231,113,28775,1,0,0:0:0:0:
231,113,29002,1,8,0:0:0:0:
231,113,29229,1,0,0:0:0:0:
231,113,29456,1,8,0:0:0:0:
240,47,29911,1,8,0:0:0:0:
231,113,30138,1,0,0:0:0:0:
231,113,30366,1,8,0:0:0:0:
155,90,30479,1,8,0:0:0:0:
231,113,30593,1,0,0:0:0:0:
231,113,30820,1,8,0:0:0:0:
178,132,31047,1,0,0:0:0:0:
179,131,31388,1,8,0:0:0:0:
179,131,31502,1,0,0:0:0:0:
179,131,31729,1,8,0:0:0:0:
179,131,31957,1,0,0:0:0:0:
179,131,32184,1,8,0:0:0:0:
179,131,32411,1,0,0:0:0:0:
179,130,32866,1,0,0:0:0:0:
147,49,33207,1,8,0:0:0:0:
147,49,33320,1,0,0:0:0:0:
147,49,33434,1,8,0:0:0:0:
166,198,33547,1,8,0:0:0:0:
147,49,33775,1,0,0:0:0:0:
182,27,34002,1,0,0:0:0:0:
182,27,34116,1,0,0:0:0:0:
182,27,34229,1,12,0:0:0:0:
178,132,34684,1,0,0:0:0:0:
179,131,35025,1,8,0:0:0:0:
179,131,35139,1,0,0:0:0:0:
179,131,35366,1,8,0:0:0:0:
179,131,35594,1,0,0:0:0:0:
179,131,35821,1,8,0:0:0:0:
179,131,36048,1,0,0:0:0:0:
125,82,36502,1,0,0:0:0:0:
125,82,36843,1,8,0:0:0:0:
125,82,36957,1,0,0:0:0:0:
125,82,37070,1,8,0:0:0:0:
401,201,37184,1,8,0:0:0:0:
125,82,37411,1,0,0:0:0:0:
121,123,37866,1,12,0:0:0:0:
121,122,38320,1,0,0:0:0:0:
121,122,38547,1,0,0:0:0:0:
121,122,38775,1,8,0:0:0:0:
121,122,39002,1,8,0:0:0:0:
121,122,39229,1,0,0:0:0:0:
224,105,39457,1,8,0:0:0:0:
140,217,39684,1,0,0:0:0:0:
224,105,39911,1,8,0:0:0:0:
129,107,40138,1,0,0:0:0:0:
161,100,40366,1,0,0:0:0:0:
161,100,40479,1,8,0:0:0:0:
161,100,40593,1,0,0:0:0:0:
161,100,40820,1,0,0:0:0:0:
161,100,40934,1,8,0:0:0:0:
161,100,41047,1,8,0:0:0:0:
161,100,41275,1,0,0:0:0:0:
161,100,41502,1,12,0:0:0:0:
166,88,41957,1,0,0:0:0:0:
166,88,42184,1,8,0:0:0:0:
166,88,42297,1,8,0:0:0:0:
166,88,42411,1,0,0:0:0:0:
166,88,42638,1,8,0:0:0:0:
166,88,42752,1,8,0:0:0:0:
166,88,42866,1,0,0:0:0:0:
166,88,43093,1,8,0:0:0:0:
166,88,43320,1,0,0:0:0:0:
142,114,43434,1,8,0:0:0:0:
166,88,43547,1,8,0:0:0:0:
166,88,43661,1,8,0:0:0:0:
166,88,43775,1,0,0:0:0:0:
166,88,44229,1,0,0:0:0:0:
166,88,44684,1,0,0:0:0:0:
166,88,45138,1,12,0:0:0:0:
166,88,45593,1,0,0:0:0:0:
166,88,45934,1,8,0:0:0:0:
166,88,46047,1,0,0:0:0:0:
166,88,46275,1,8,0:0:0:0:
166,88,46502,1,0,0:0:0:0:
166,88,46729,1,8,0:0:0:0:
166,88,46957,1,0,0:0:0:0:
167,89,47411,1,0,0:0:0:0:
167,89,47752,1,8,0:0:0:0:
167,89,47866,1,0,0:0:0:0:
167,89,48093,1,8,0:0:0:0:
167,89,48207,1,8,0:0:0:0:
167,89,48320,1,0,0:0:0:0:
152,72,48547,1,0,0:0:0:0:
152,72,48775,1,12,0:0:0:0:
166,88,49229,1,0,0:0:0:0:
166,88,49570,1,8,0:0:0:0:
166,88,49683,1,0,0:0:0:0:
166,88,49911,1,8,0:0:0:0:
166,88,50138,1,0,0:0:0:0:
166,88,50365,1,8,0:0:0:0:
166,88,50593,1,0,0:0:0:0:
121,88,51047,1,0,0:0:0:0:
117,78,51388,1,8,0:0:0:0:
117,78,51502,1,0,0:0:0:0:
10,100,51616,1,8,0:0:0:0:
117,78,51843,1,8,0:0:0:0:
190,7,51957,1,0,0:0:0:0:
121,33,52184,1,0,0:0:0:0:
121,33,52411,1,12,0:0:0:0:
166,88,52866,1,0,0:0:0:0:
166,88,53207,1,8,0:0:0:0:
166,88,53320,1,0,0:0:0:0:
166,88,53548,1,8,0:0:0:0:
166,88,53775,1,0,0:0:0:0:
166,88,54002,1,8,0:0:0:0:
166,88,54230,1,0,0:0:0:0:
167,89,54684,1,0,0:0:0:0:
167,89,55025,1,8,0:0:0:0:
167,89,55139,1,0,0:0:0:0:
167,89,55366,1,8,0:0:0:0:
167,89,55480,1,8,0:0:0:0:
167,89,55593,1,0,0:0:0:0:
152,72,55820,1,0,0:0:0:0:
152,72,56048,1,12,0:0:0:0:
219,146,56275,1,8,0:0:0:0:
219,146,56388,1,8,0:0:0:0:
166,88,56502,1,0,0:0:0:0:
166,88,56843,1,8,0:0:0:0:
166,88,56956,1,0,0:0:0:0:
166,88,57184,1,8,0:0:0:0:
166,88,57411,1,0,0:0:0:0:
166,88,57638,1,8,0:0:0:0:
166,88,57866,1,0,0:0:0:0:
200,29,57979,1,8,0:0:0:0:
200,29,58093,1,8,0:0:0:0:
136,163,58320,1,8,0:0:0:0:
136,163,58775,1,8,0:0:0:0:
136,163,59229,1,8,0:0:0:0:
136,163,59684,1,12,0:0:0:0:
166,88,60138,1,0,0:0:0:0:
166,88,60479,1,8,0:0:0:0:
166,88,60593,1,0,0:0:0:0:
166,88,60820,1,8,0:0:0:0:
166,88,61047,1,0,0:0:0:0:
166,88,61274,1,8,0:0:0:0:
166,88,61502,1,8,0:0:0:0:
167,89,61956,1,0,0:0:0:0:
167,89,62297,1,8,0:0:0:0:
167,89,62411,1,0,0:0:0:0:
167,89,62638,1,8,0:0:0:0:
167,89,62752,1,8,0:0:0:0:
167,89,62865,1,0,0:0:0:0:
152,72,63092,1,8,0:0:0:0:
152,72,63320,1,0,0:0:0:0:
116,150,63547,1,8,0:0:0:0:
166,88,63774,1,0,0:0:0:0:
166,88,64115,1,8,0:0:0:0:
166,88,64228,1,0,0:0:0:0:
166,88,64457,1,8,0:0:0:0:
166,88,64683,1,0,0:0:0:0:
166,88,64910,1,8,0:0:0:0:
166,88,65138,1,8,0:0:0:0:
121,88,65592,1,0,0:0:0:0:
117,78,65933,1,8,0:0:0:0:
117,78,66047,1,0,0:0:0:0:
10,100,66161,1,8,0:0:0:0:
139,321,66275,1,8,0:0:0:0:
256,124,66388,1,8,0:0:0:0:
176,229,66502,1,8,0:0:0:0:
176,229,66957,1,0,0:0:0:0:
166,88,67411,1,0,0:0:0:0:
166,88,67752,1,8,0:0:0:0:
166,88,67866,1,0,0:0:0:0:
166,88,68093,1,8,0:0:0:0:
166,88,68320,1,0,0:0:0:0:
373,134,68547,1,8,0:0:0:0:
166,88,68775,1,8,0:0:0:0:
167,89,69229,1,0,0:0:0:0:
167,89,69570,1,8,0:0:0:0:
167,89,69684,1,0,0:0:0:0:
167,89,69911,1,8,0:0:0:0:
167,89,70025,1,8,0:0:0:0:
167,89,70138,1,0,0:0:0:0:
152,72,70365,1,8,0:0:0:0:
152,72,70593,1,0,0:0:0:0:
116,150,70820,1,8,0:0:0:0:
166,88,71047,1,0,0:0:0:0:
166,88,71388,1,8,0:0:0:0:
166,88,71501,1,0,0:0:0:0:
166,88,71730,1,8,0:0:0:0:
166,88,71956,1,0,0:0:0:0:
166,88,72183,1,8,0:0:0:0:
166,88,72411,1,8,0:0:0:0:
260,135,72638,1,0,0:0:0:0:
121,88,72865,1,8,0:0:0:0:
117,78,73320,1,8,0:0:0:0:
190,7,73775,1,8,0:0:0:0:
121,33,74229,1,12,0:0:0:0:
136,128,74684,1,0,0:0:0:0:
181,125,81957,5,8,0:0:0:0:
181,125,82297,1,0,0:0:0:0:
181,125,82411,1,8,0:0:0:0:
181,125,82638,1,8,0:0:0:0:
181,125,82866,1,0,0:0:0:0:
175,50,83320,1,0,0:0:0:0:
200,121,83547,1,0,0:0:0:0:
200,121,83775,1,8,0:0:0:0:
200,121,84116,1,0,0:0:0:0:
200,121,84229,1,8,0:0:0:0:
200,121,84457,1,8,0:0:0:0:
200,121,84684,1,0,0:0:0:0:
200,121,85138,1,8,0:0:0:0:
189,54,85366,1,0,0:0:0:0:
189,54,85593,1,8,0:0:0:0:
189,54,85934,1,0,0:0:0:0:
189,54,86047,1,8,0:0:0:0:
189,54,86275,1,8,0:0:0:0:
189,54,86502,1,0,0:0:0:0:
189,54,86957,1,0,0:0:0:0:
189,54,87184,1,0,0:0:0:0:
189,54,87411,1,8,0:0:0:0:
189,54,87752,1,0,0:0:0:0:
189,54,87866,1,8,0:0:0:0:
189,54,88093,1,8,0:0:0:0:
189,54,88320,1,0,0:0:0:0:
189,54,88547,1,8,0:0:0:0:
189,54,88775,1,8,0:0:0:0:
189,54,89002,1,0,0:0:0:0:
189,54,89229,1,8,0:0:0:0:
189,54,89570,1,8,0:0:0:0:
189,54,89684,1,0,0:0:0:0:
189,54,89911,1,8,0:0:0:0:
189,54,90138,1,0,0:0:0:0:
189,54,90593,1,0,0:0:0:0:
192,62,90820,1,0,0:0:0:0:
189,54,91047,1,8,0:0:0:0:
194,29,91388,1,8,0:0:0:0:
194,29,91502,1,0,0:0:0:0:
194,29,91729,1,8,0:0:0:0:
194,29,91957,1,0,0:0:0:0:
194,29,92411,1,8,0:0:0:0:
194,29,92638,1,0,0:0:0:0:
194,29,92866,1,8,0:0:0:0:
194,29,93207,1,8,0:0:0:0:
194,29,93320,1,0,0:0:0:0:
194,29,93547,1,8,0:0:0:0:
194,29,93775,1,0,0:0:0:0:
263,132,94002,1,8,0:0:0:0:
194,29,94229,1,0,0:0:0:0:
194,29,94457,1,0,0:0:0:0:
194,29,94684,1,8,0:0:0:0:
157,156,95025,1,8,0:0:0:0:
194,29,95138,1,0,0:0:0:0:
194,29,95366,1,0,0:0:0:0:
194,29,95593,1,8,0:0:0:0:
194,29,95820,1,0,0:0:0:0:
194,29,96047,1,8,0:0:0:0:
143,102,96502,1,0,0:0:0:0:
149,88,96729,1,0,0:0:0:0:
149,88,96957,1,8,0:0:0:0:
149,88,97184,1,0,0:0:0:0:
149,88,97411,1,8,0:0:0:0:
183,139,97638,1,0,0:0:0:0:
150,83,97866,1,8,0:0:0:0:
150,83,98093,1,0,0:0:0:0:
150,83,98320,1,0,0:0:0:0:
267,84,98547,1,0,0:0:0:0:
150,83,98775,1,8,0:0:0:0:
150,83,99002,1,0,0:0:0:0:
150,83,99229,1,8,0:0:0:0:
150,83,99457,1,0,0:0:0:0:
150,83,99684,1,12,0:0:0:0:
150,83,100138,1,0,0:0:0:0:
366,77,100366,1,0,0:0:0:0:
150,83,100593,1,8,0:0:0:0:
150,83,100820,1,0,0:0:0:0:
150,83,101047,1,8,0:0:0:0:
273,66,101275,1,0,0:0:0:0:
150,83,101502,1,8,0:0:0:0:
185,64,101729,1,0,0:0:0:0:
185,64,101957,1,0,0:0:0:0:
198,117,102184,1,0,0:0:0:0:
153,117,102411,1,8,0:0:0:0:
153,117,102638,1,0,0:0:0:0:
153,117,102866,1,8,0:0:0:0:
153,117,103093,1,0,0:0:0:0:
153,117,103320,1,12,0:0:0:0:
93,126,103775,1,0,0:0:0:0:
93,126,104002,1,0,0:0:0:0:
93,126,104116,1,8,0:0:0:0:
93,126,104229,1,0,0:0:0:0:
93,126,104457,1,8,0:0:0:0:
93,126,104684,1,0,0:0:0:0:
93,126,104911,1,8,0:0:0:0:
93,126,105138,1,0,0:0:0:0:
93,126,105366,1,8,0:0:0:0:
93,126,105593,1,0,0:0:0:0:
114,19,105820,1,8,0:0:0:0:
114,19,106047,1,0,0:0:0:0:
115,38,106275,1,8,0:0:0:0:
115,38,106502,1,0,0:0:0:0:
144,149,106729,1,0,0:0:0:0:
115,38,106957,1,12,0:0:0:0:
226,114,107411,1,0,0:0:0:0:
226,114,107638,1,8,0:0:0:0:
226,114,107866,1,0,0:0:0:0:
226,114,108093,1,8,0:0:0:0:
226,114,108207,1,8,0:0:0:0:
226,114,108320,1,0,0:0:0:0:
226,114,108547,1,8,0:0:0:0:
162,136,108661,1,8,0:0:0:0:
226,114,108775,1,0,0:0:0:0:
226,114,108888,1,8,0:0:0:0:
226,114,109002,1,8,0:0:0:0:
256,192,109229,12,8,110366,0:0:0:0:
116,131,110593,5,12,0:0:0:0:
166,88,111047,1,0,0:0:0:0:
166,88,111388,1,8,0:0:0:0:
166,88,111502,1,0,0:0:0:0:
166,88,111729,1,8,0:0:0:0:
166,88,111956,1,0,0:0:0:0:
166,88,112183,1,8,0:0:0:0:
395,146,112411,1,0,0:0:0:0:
167,89,112865,1,0,0:0:0:0:
167,89,113206,1,8,0:0:0:0:
167,89,113320,1,0,0:0:0:0:
167,89,113547,1,8,0:0:0:0:
167,89,113661,1,8,0:0:0:0:
167,89,113774,1,0,0:0:0:0:
152,72,114001,1,0,0:0:0:0:
152,72,114229,1,12,0:0:0:0:
130,146,114457,1,8,0:0:0:0:
199,107,114684,1,0,0:0:0:0:
166,88,115024,1,8,0:0:0:0:
166,88,115137,1,0,0:0:0:0:
166,88,115366,1,8,0:0:0:0:
166,88,115592,1,0,0:0:0:0:
166,88,115819,1,8,0:0:0:0:
358,155,116047,1,0,0:0:0:0:
121,88,116501,1,0,0:0:0:0:
117,78,116842,1,8,0:0:0:0:
117,78,116956,1,0,0:0:0:0:
10,100,117070,1,8,0:0:0:0:
117,78,117297,1,8,0:0:0:0:
190,7,117411,1,0,0:0:0:0:
215,144,117638,1,0,0:0:0:0:
121,33,117866,1,12,0:0:0:0:
166,88,118320,1,0,0:0:0:0:
166,88,118661,1,8,0:0:0:0:
166,88,118775,1,0,0:0:0:0:
166,88,119002,1,8,0:0:0:0:
166,88,119229,1,0,0:0:0:0:
166,88,119456,1,8,0:0:0:0:
348,275,119684,1,0,0:0:0:0:
242,143,120138,1,0,0:0:0:0:
167,89,120479,1,8,0:0:0:0:
167,89,120593,1,0,0:0:0:0:
167,89,120820,1,8,0:0:0:0:
167,89,120934,1,8,0:0:0:0:
167,89,121047,1,0,0:0:0:0:
152,72,121274,1,8,0:0:0:0:
152,72,121502,1,0,0:0:0:0:
116,150,121729,1,8,0:0:0:0:
251,97,121843,1,8,0:0:0:0:
166,88,121956,1,0,0:0:0:0:
166,88,122297,1,8,0:0:0:0:
166,88,122410,1,0,0:0:0:0:
166,88,122639,1,8,0:0:0:0:
166,88,122865,1,0,0:0:0:0:
166,88,123092,1,8,0:0:0:0:
166,88,123320,1,0,0:0:0:0:
138,133,123547,1,0,0:0:0:0:
138,133,123775,1,8,0:0:0:0:
136,132,124229,1,8,0:0:0:0:
136,132,124684,1,8,0:0:0:0:
136,132,125138,1,12,0:0:0:0:
75,92,125593,1,0,0:0:0:0:
64,82,125820,1,8,0:0:0:0:
64,82,126047,1,0,0:0:0:0:
64,82,126275,1,8,0:0:0:0:
64,82,126502,1,8,0:0:0:0:
64,82,126729,1,0,0:0:0:0:
64,82,126843,1,8,0:0:0:0:
64,82,127184,1,8,0:0:0:0:
147,104,127411,1,0,0:0:0:0:
147,104,127638,1,8,0:0:0:0:
147,104,127866,1,0,0:0:0:0:
147,104,128093,1,8,0:0:0:0:
217,41,128207,1,8,0:0:0:0:
147,104,128320,1,0,0:0:0:0:
147,104,128661,1,0,0:0:0:0:
147,104,128775,1,12,0:0:0:0:
218,70,129002,1,0,0:0:0:0:
218,70,129229,1,0,0:0:0:0:
218,70,129457,1,8,0:0:0:0:
218,70,129684,1,0,0:0:0:0:
218,70,129911,1,8,0:0:0:0:
218,70,130138,1,8,0:0:0:0:
218,70,130366,1,0,0:0:0:0:
218,70,130479,1,8,0:0:0:0:
218,70,130820,1,8,0:0:0:0:
204,117,131047,1,0,0:0:0:0:
204,117,131275,1,8,0:0:0:0:
204,117,131502,1,0,0:0:0:0:
204,117,131616,1,8,0:0:0:0:
204,117,131729,1,8,0:0:0:0:
199,112,131843,1,0,0:0:0:0:
204,117,131957,1,8,0:0:0:0:
195,103,132411,1,0,0:0:0:0:
195,102,132866,1,0,0:0:0:0:
195,102,133093,1,8,0:0:0:0:
164,80,133320,1,0,0:0:0:0:
164,80,133547,1,8,0:0:0:0:
164,80,133775,1,8,0:0:0:0:
164,80,134003,1,0,0:0:0:0:
164,80,134116,1,8,0:0:0:0:
164,80,134457,1,8,0:0:0:0:
122,83,134684,1,0,0:0:0:0:
225,66,134911,1,8,0:0:0:0:
132,86,135138,1,0,0:0:0:0:
132,86,135252,1,8,0:0:0:0:
225,66,135366,1,8,0:0:0:0:
225,66,135593,1,0,0:0:0:0:
225,66,135820,1,8,0:0:0:0:
161,64,135934,1,0,0:0:0:0:
161,64,136275,1,8,0:0:0:0:
167,60,136502,1,0,0:0:0:0:
167,60,136729,1,8,0:0:0:0:
167,60,136957,1,8,0:0:0:0:
167,60,137184,1,0,0:0:0:0:
167,60,137411,1,8,0:0:0:0:
167,60,137638,1,0,0:0:0:0:
167,60,137752,1,8,0:0:0:0:
167,60,138093,1,8,0:0:0:0:
167,60,138320,1,0,0:0:0:0:
165,61,138775,1,0,0:0:0:0:
165,61,139229,1,0,0:0:0:0:
165,61,139684,1,12,0:0:0:0:
165,61,140138,1,4,0:0:0:0:
