osu file format v14

[General]
AudioFilename: audio.mp3
AudioLeadIn: 0
PreviewTime: 43775
Countdown: 0
SampleSet: Normal
StackLeniency: 0.7
Mode: 1
LetterboxInBreaks: 0
WidescreenStoryboard: 0

[Editor]
DistanceSpacing: 0.1
BeatDivisor: 8
GridSize: 4
TimelineZoom: 1.3

[Metadata]
Title:Dead Soul
TitleUnicode:Dead Soul
Artist:Sound Souler
ArtistUnicode:Sound Souler
Creator:POCARI SWEAT
Version:Muzukashii
Source:osu!
Tags:BOFU2017 Electronic Instrumental fa featured artist BMS
BeatmapID:2333502
BeatmapSetID:1116828

[Difficulty]
HPDrainRate:6
CircleSize:5
OverallDifficulty:4
ApproachRate:5
SliderMultiplier:1.4
SliderTickRate:1

[Events]
//Background and Video events
0,0,"maxresdefault.jpg",0,0
//Break Periods
2,74884,80757
//Storyboard Layer 0 (Background)
//Storyboard Layer 1 (Fail)
//Storyboard Layer 2 (Pass)
//Storyboard Layer 3 (Foreground)
//Storyboard Layer 4 (Overlay)
//Storyboard Sound Samples

[TimingPoints]
1957,454.545454545455,4,1,0,65,1,0
1957,-111.111111111111,4,1,0,65,0,0
9229,-99.9999999999999,4,1,0,80,0,0
9570,-105.263157894737,4,1,0,80,0,0
16047,-95.2380952380952,4,1,0,90,0,0
16502,-100,4,1,0,90,0,0
31388,-125,4,1,0,90,0,0
34229,-105.263157894737,4,1,0,90,0,0
34684,-117.647058823529,4,1,0,90,0,0
37866,-100,4,1,0,90,0,0
38320,-111.111111111111,4,1,0,90,0,0
40138,-105.263157894737,4,1,0,90,0,0
41502,-95.2380952380954,4,1,0,90,0,0
41957,-100,4,1,0,90,0,0
45138,-90.9090909090909,4,1,0,90,0,0
45593,-100,4,1,0,90,0,1
48775,-90.9090909090909,4,1,0,90,0,1
49229,-100,4,1,0,90,0,1
52411,-90.9090909090909,4,1,0,90,0,1
52865,-100,4,1,0,90,0,1
56047,-95.2380952380952,4,1,0,90,0,1
56275,-100,4,1,0,90,0,1
59684,-83.3333333333333,4,1,0,90,0,1
60138,-90.9090909090909,4,1,0,90,0,1
69229,-90.9090909090909,4,1,0,90,0,1
74229,-83.3333333333333,4,1,0,90,0,1
74684,-100,4,1,0,60,0,0
74741,-100,4,1,0,40,0,0
76502,-111.111111111111,4,1,0,40,0,0
78320,-125,4,1,0,40,0,0
80138,-142.857142857143,4,1,0,40,0,0
81900,-142.857142857143,4,1,0,60,0,0
96502,-111.111111111111,4,1,0,80,0,0
99684,-100,4,1,0,80,0,0
100138,-111.111111111111,4,1,0,80,0,0
103320,-100,4,1,0,80,0,0
103774,-111.111111111111,4,1,0,80,0,0
105593,-105.263157894737,4,1,0,80,0,0
107411,-100,4,1,0,80,0,0
109229,-66.6666666666667,4,1,0,80,0,0
110593,-83.3333333333333,4,1,0,90,0,0
111047,-100,4,1,0,90,0,1
114229,-90.9090909090909,4,1,0,90,0,1
114684,-100,4,1,0,90,0,1
117866,-90.9090909090909,4,1,0,90,0,1
118320,-100,4,1,0,90,0,1
125138,-83.3333333333333,4,1,0,90,0,1
125592,-90.9090909090909,4,1,0,90,0,1
128775,-83.3333333333333,4,1,0,90,0,1
129229,-90.9090909090909,4,1,0,90,0,1
139684,-83.3333333333333,4,1,0,90,0,1
140138,-100,4,1,0,90,0,0

[HitObjects]
139,157,1957,5,0,0:0:0:0:
222,124,2297,1,8,0:0:0:0:
139,157,2411,1,0,0:0:0:0:
191,82,2638,1,8,0:0:0:0:
139,157,2866,1,0,0:0:0:0:
139,157,3321,1,0,0:0:0:0:
139,157,3776,1,0,0:0:0:0:
202,172,4116,1,8,0:0:0:0:
139,157,4230,1,0,0:0:0:0:
228,88,4457,1,8,0:0:0:0:
139,157,4685,1,0,0:0:0:0:
139,157,5139,1,0,0:0:0:0:
139,157,5594,1,0,0:0:0:0:
201,165,5934,1,8,0:0:0:0:
139,157,6048,1,0,0:0:0:0:
220,76,6275,1,8,0:0:0:0:
139,157,6503,1,0,0:0:0:0:
139,157,6957,1,0,0:0:0:0:
139,157,7412,1,0,0:0:0:0:
190,160,7752,1,8,0:0:0:0:
190,160,7866,1,0,0:0:0:0:
231,79,8093,1,8,0:0:0:0:
139,157,8321,1,0,0:0:0:0:
139,157,9230,1,12,0:0:0:0:
177,93,9570,1,8,0:0:0:0:
184,110,9911,1,8,0:0:0:0:
204,82,10138,1,0,0:0:0:0:
204,82,10366,1,8,0:0:0:0:
204,82,10820,1,8,0:0:0:0:
146,51,11388,1,8,0:0:0:0:
146,51,11729,1,8,0:0:0:0:
146,51,11957,1,0,0:0:0:0:
146,51,12184,1,8,0:0:0:0:
146,51,12638,1,8,0:0:0:0:
146,51,13207,1,8,0:0:0:0:
146,51,13548,1,8,0:0:0:0:
146,51,13776,1,0,0:0:0:0:
146,51,14003,1,8,0:0:0:0:
146,51,14457,1,8,0:0:0:0:
150,83,16047,1,12,0:0:0:0:
156,103,16502,1,0,0:0:0:0:
156,99,16957,1,0,0:0:0:0:
156,99,17184,1,8,0:0:0:0:
156,99,17411,1,0,0:0:0:0:
154,98,17866,1,0,0:0:0:0:
154,98,18320,1,0,0:0:0:0:
154,98,18547,1,8,0:0:0:0:
154,98,18775,1,0,0:0:0:0:
154,98,19002,1,8,0:0:0:0:
154,98,19229,1,0,0:0:0:0:
154,98,19684,1,0,0:0:0:0:
156,103,20138,1,0,0:0:0:0:
156,99,20593,1,0,0:0:0:0:
156,99,20820,1,8,0:0:0:0:
156,99,21047,1,0,0:0:0:0:
154,98,21502,1,0,0:0:0:0:
154,98,21956,1,0,0:0:0:0:
154,98,22183,1,8,0:0:0:0:
154,98,22411,1,0,0:0:0:0:
154,98,22865,1,0,0:0:0:0:
156,103,23775,1,0,0:0:0:0:
156,99,24230,1,0,0:0:0:0:
156,99,24457,1,8,0:0:0:0:
156,99,24684,1,0,0:0:0:0:
154,98,25139,1,0,0:0:0:0:
154,98,25593,1,0,0:0:0:0:
154,98,25820,1,8,0:0:0:0:
154,98,26048,1,0,0:0:0:0:
154,98,26275,1,8,0:0:0:0:
154,98,26502,1,0,0:0:0:0:
154,98,26957,1,0,0:0:0:0:
156,103,27411,1,0,0:0:0:0:
156,99,27866,1,0,0:0:0:0:
156,99,28093,1,8,0:0:0:0:
156,99,28320,1,0,0:0:0:0:
154,98,28775,1,0,0:0:0:0:
154,98,29229,1,0,0:0:0:0:
154,98,29456,1,8,0:0:0:0:
154,98,29684,1,0,0:0:0:0:
154,98,30138,1,0,0:0:0:0:
193,158,30593,1,0,0:0:0:0:
166,138,31047,1,0,0:0:0:0:
166,138,31388,1,8,0:0:0:0:
141,50,31502,1,0,0:0:0:0:
166,138,31729,1,8,0:0:0:0:
141,50,31957,1,0,0:0:0:0:
166,138,32184,1,8,0:0:0:0:
141,50,33207,1,8,0:0:0:0:
141,50,33320,1,0,0:0:0:0:
141,50,33547,1,8,0:0:0:0:
141,50,33775,1,0,0:0:0:0:
138,48,34229,1,12,0:0:0:0:
138,48,34684,1,0,0:0:0:0:
137,47,35025,1,8,0:0:0:0:
137,47,35138,1,0,0:0:0:0:
137,47,35366,1,8,0:0:0:0:
137,47,35593,1,0,0:0:0:0:
26,128,35820,1,8,0:0:0:0:
137,48,36843,1,8,0:0:0:0:
137,48,36957,1,0,0:0:0:0:
137,48,37184,1,8,0:0:0:0:
137,48,37411,1,0,0:0:0:0:
137,48,37866,1,12,0:0:0:0:
131,161,38320,1,0,0:0:0:0:
149,47,38547,1,0,0:0:0:0:
146,164,38775,1,8,0:0:0:0:
146,164,39002,1,8,0:0:0:0:
146,164,39229,1,0,0:0:0:0:
146,164,39457,1,8,0:0:0:0:
146,164,39684,1,0,0:0:0:0:
157,165,40138,1,0,0:0:0:0:
157,165,40366,1,0,0:0:0:0:
157,165,40593,1,8,0:0:0:0:
157,165,40820,1,8,0:0:0:0:
157,165,41047,1,0,0:0:0:0:
151,164,41502,1,12,0:0:0:0:
103,125,41957,1,0,0:0:0:0:
103,125,42184,1,8,0:0:0:0:
260,140,42297,1,8,0:0:0:0:
103,125,42411,1,8,0:0:0:0:
103,125,42638,1,8,0:0:0:0:
103,125,43093,1,8,0:0:0:0:
203,94,43547,1,8,0:0:0:0:
103,125,43775,1,0,0:0:0:0:
103,125,44229,1,0,0:0:0:0:
103,125,44684,1,0,0:0:0:0:
103,125,45138,1,12,0:0:0:0:
104,124,45593,1,0,0:0:0:0:
280,88,45934,1,8,0:0:0:0:
104,124,46047,1,0,0:0:0:0:
276,88,46275,1,8,0:0:0:0:
104,124,46502,1,0,0:0:0:0:
276,88,46729,1,8,0:0:0:0:
220,248,46957,1,0,0:0:0:0:
367,210,47411,1,0,0:0:0:0:
276,88,47752,1,8,0:0:0:0:
104,124,47866,1,0,0:0:0:0:
280,80,48093,1,8,0:0:0:0:
104,124,48320,1,0,0:0:0:0:
280,80,48775,1,12,0:0:0:0:
156,116,49229,1,0,0:0:0:0:
280,80,49570,1,8,0:0:0:0:
156,116,49684,1,0,0:0:0:0:
280,80,49911,1,8,0:0:0:0:
156,116,50138,1,0,0:0:0:0:
280,80,50366,1,8,0:0:0:0:
236,198,50593,1,0,0:0:0:0:
433,174,51047,1,0,0:0:0:0:
220,132,51388,1,8,0:0:0:0:
156,116,51502,1,0,0:0:0:0:
220,132,51729,1,8,0:0:0:0:
156,116,51957,1,0,0:0:0:0:
300,201,52184,1,0,0:0:0:0:
220,132,52411,1,12,0:0:0:0:
104,124,52866,1,0,0:0:0:0:
280,88,53207,1,8,0:0:0:0:
104,124,53320,1,0,0:0:0:0:
276,88,53548,1,8,0:0:0:0:
104,124,53775,1,0,0:0:0:0:
276,88,54002,1,8,0:0:0:0:
294,280,54229,1,0,0:0:0:0:
361,179,54684,1,0,0:0:0:0:
276,88,55025,1,8,0:0:0:0:
104,124,55139,1,0,0:0:0:0:
280,80,55366,1,8,0:0:0:0:
104,124,55593,1,0,0:0:0:0:
280,80,56048,1,12,0:0:0:0:
156,116,56502,1,0,0:0:0:0:
280,80,56843,1,8,0:0:0:0:
156,116,56957,1,0,0:0:0:0:
280,80,57184,1,8,0:0:0:0:
156,116,57411,1,0,0:0:0:0:
280,80,57639,1,8,0:0:0:0:
398,198,57866,1,0,0:0:0:0:
156,116,58320,1,8,0:0:0:0:
220,132,58775,1,8,0:0:0:0:
220,132,59229,1,8,0:0:0:0:
220,132,59684,1,12,0:0:0:0:
196,68,60138,1,0,0:0:0:0:
196,68,60479,1,8,0:0:0:0:
196,68,60593,1,0,0:0:0:0:
196,68,60820,1,8,0:0:0:0:
196,68,61047,1,0,0:0:0:0:
168,44,61275,1,8,0:0:0:0:
198,231,61502,1,0,0:0:0:0:
315,111,61957,1,0,0:0:0:0:
164,36,62297,1,8,0:0:0:0:
164,36,62411,1,0,0:0:0:0:
164,36,62638,1,8,0:0:0:0:
164,36,62866,1,0,0:0:0:0:
164,36,63093,1,8,0:0:0:0:
164,36,63547,1,8,0:0:0:0:
164,36,63775,1,0,0:0:0:0:
164,36,64116,1,8,0:0:0:0:
164,36,64229,1,0,0:0:0:0:
164,36,64457,1,8,0:0:0:0:
164,36,64684,1,0,0:0:0:0:
164,36,64911,1,8,0:0:0:0:
213,219,65138,1,0,0:0:0:0:
344,189,65593,1,0,0:0:0:0:
164,32,65934,1,8,0:0:0:0:
164,32,66047,1,0,0:0:0:0:
164,32,66275,1,8,0:0:0:0:
161,156,66957,1,8,0:0:0:0:
196,68,67411,1,0,0:0:0:0:
196,68,67752,1,8,0:0:0:0:
196,68,67866,1,0,0:0:0:0:
196,68,68093,1,8,0:0:0:0:
196,68,68320,1,0,0:0:0:0:
113,149,68547,1,0,0:0:0:0:
168,44,68775,1,8,0:0:0:0:
387,162,69229,1,0,0:0:0:0:
164,36,69570,1,8,0:0:0:0:
164,36,69684,1,0,0:0:0:0:
164,36,69911,1,8,0:0:0:0:
214,200,70138,1,0,0:0:0:0:
164,36,70366,1,8,0:0:0:0:
164,36,70820,1,8,0:0:0:0:
164,36,71048,1,0,0:0:0:0:
164,36,71389,1,8,0:0:0:0:
164,36,71502,1,0,0:0:0:0:
164,36,71730,1,8,0:0:0:0:
164,36,71957,1,0,0:0:0:0:
213,199,72411,1,0,0:0:0:0:
164,160,72866,1,8,0:0:0:0:
164,160,73320,1,8,0:0:0:0:
164,160,73775,1,8,0:0:0:0:
164,160,74229,1,12,0:0:0:0:
236,128,74684,1,0,0:0:0:0:
32,192,81957,5,8,0:0:0:0:
32,192,82411,1,8,0:0:0:0:
32,192,82638,1,8,0:0:0:0:
40,184,82866,1,0,0:0:0:0:
171,66,83320,1,0,0:0:0:0:
209,188,83547,1,0,0:0:0:0:
172,168,83775,1,8,0:0:0:0:
156,140,84116,1,0,0:0:0:0:
156,140,84229,1,8,0:0:0:0:
156,140,84457,1,8,0:0:0:0:
156,140,84684,1,0,0:0:0:0:
211,62,85138,1,8,0:0:0:0:
209,167,85366,1,0,0:0:0:0:
156,140,85593,1,8,0:0:0:0:
156,140,86047,1,8,0:0:0:0:
156,140,86275,1,8,0:0:0:0:
156,140,86502,1,0,0:0:0:0:
211,82,86957,1,0,0:0:0:0:
210,186,87184,1,0,0:0:0:0:
156,140,87411,1,8,0:0:0:0:
156,140,87752,1,0,0:0:0:0:
156,140,87866,1,8,0:0:0:0:
156,140,88093,1,8,0:0:0:0:
156,140,88320,1,0,0:0:0:0:
216,102,88775,1,8,0:0:0:0:
209,187,89002,1,0,0:0:0:0:
156,140,89229,1,8,0:0:0:0:
156,140,89684,1,0,0:0:0:0:
156,140,89911,1,8,0:0:0:0:
156,140,90138,1,0,0:0:0:0:
223,84,90593,1,0,0:0:0:0:
209,187,90820,1,0,0:0:0:0:
156,140,91047,1,8,0:0:0:0:
156,140,91388,1,8,0:0:0:0:
156,140,91502,1,0,0:0:0:0:
156,140,91729,1,8,0:0:0:0:
144,104,91957,1,0,0:0:0:0:
203,82,92411,1,8,0:0:0:0:
209,187,92638,1,0,0:0:0:0:
144,104,92866,1,8,0:0:0:0:
144,104,93320,1,0,0:0:0:0:
144,104,93547,1,8,0:0:0:0:
144,104,93775,1,0,0:0:0:0:
218,111,94229,1,0,0:0:0:0:
50,140,94457,1,0,0:0:0:0:
144,104,94684,1,8,0:0:0:0:
144,104,95025,1,8,0:0:0:0:
144,104,95138,1,0,0:0:0:0:
211,88,95366,1,0,0:0:0:0:
211,88,95593,1,8,0:0:0:0:
144,104,96502,1,0,0:0:0:0:
132,104,96729,1,0,0:0:0:0:
132,104,96957,1,8,0:0:0:0:
60,144,97184,1,0,0:0:0:0:
60,144,97411,1,8,0:0:0:0:
232,96,97866,1,8,0:0:0:0:
236,96,98093,1,0,0:0:0:0:
236,96,98320,1,0,0:0:0:0:
236,96,98775,1,8,0:0:0:0:
236,96,99229,1,8,0:0:0:0:
236,96,99684,1,12,0:0:0:0:
236,96,100138,1,0,0:0:0:0:
236,96,100366,1,0,0:0:0:0:
236,96,100593,1,8,0:0:0:0:
236,96,100820,1,0,0:0:0:0:
236,96,101047,1,8,0:0:0:0:
172,124,101502,1,8,0:0:0:0:
172,124,101729,1,0,0:0:0:0:
172,124,101957,1,8,0:0:0:0:
172,124,102411,1,8,0:0:0:0:
172,124,102866,1,8,0:0:0:0:
168,120,103320,1,12,0:0:0:0:
131,161,103775,1,0,0:0:0:0:
149,47,104002,1,0,0:0:0:0:
146,164,104230,1,8,0:0:0:0:
146,164,104457,1,8,0:0:0:0:
146,164,104684,1,0,0:0:0:0:
146,164,104912,1,8,0:0:0:0:
146,164,105139,1,0,0:0:0:0:
157,165,105593,1,0,0:0:0:0:
157,165,105821,1,0,0:0:0:0:
157,165,106048,1,8,0:0:0:0:
157,165,106275,1,8,0:0:0:0:
157,165,106502,1,0,0:0:0:0:
157,165,106729,1,0,0:0:0:0:
151,164,106957,1,12,0:0:0:0:
103,125,107412,1,0,0:0:0:0:
103,125,107639,1,8,0:0:0:0:
103,125,107866,1,0,0:0:0:0:
103,125,108093,1,8,0:0:0:0:
103,125,108321,1,0,0:0:0:0:
103,125,108547,1,8,0:0:0:0:
103,125,108775,1,0,0:0:0:0:
256,192,109229,12,0,110366,0:0:0:0:
103,125,110593,5,12,0:0:0:0:
196,68,111047,1,0,0:0:0:0:
196,68,111388,1,8,0:0:0:0:
196,68,111502,1,0,0:0:0:0:
196,68,111729,1,8,0:0:0:0:
196,68,111956,1,0,0:0:0:0:
168,44,112184,1,8,0:0:0:0:
219,210,112411,1,0,0:0:0:0:
296,132,112866,1,0,0:0:0:0:
164,36,113206,1,8,0:0:0:0:
164,36,113320,1,0,0:0:0:0:
164,36,113547,1,8,0:0:0:0:
164,36,113775,1,0,0:0:0:0:
304,148,114229,1,12,0:0:0:0:
164,36,114684,1,0,0:0:0:0:
164,36,115025,1,8,0:0:0:0:
293,5,115138,1,0,0:0:0:0:
164,36,115366,1,8,0:0:0:0:
164,36,115593,1,0,0:0:0:0:
164,36,115820,1,8,0:0:0:0:
223,196,116047,1,0,0:0:0:0:
275,211,116502,1,0,0:0:0:0:
164,32,116843,1,8,0:0:0:0:
164,32,116956,1,0,0:0:0:0:
164,32,117184,1,8,0:0:0:0:
164,32,117411,1,0,0:0:0:0:
164,32,117866,1,12,0:0:0:0:
196,68,118320,1,0,0:0:0:0:
196,68,118661,1,8,0:0:0:0:
196,68,118775,1,0,0:0:0:0:
196,68,119002,1,8,0:0:0:0:
196,68,119229,1,0,0:0:0:0:
168,44,119457,1,8,0:0:0:0:
223,196,119684,1,0,0:0:0:0:
256,165,120138,1,0,0:0:0:0:
164,36,120479,1,8,0:0:0:0:
164,36,120593,1,0,0:0:0:0:
164,36,120820,1,8,0:0:0:0:
164,36,121048,1,0,0:0:0:0:
164,36,121275,1,8,0:0:0:0:
164,36,121729,1,8,0:0:0:0:
164,36,121957,1,0,0:0:0:0:
164,36,122298,1,8,0:0:0:0:
164,36,122411,1,0,0:0:0:0:
164,36,122639,1,8,0:0:0:0:
164,36,122866,1,0,0:0:0:0:
164,36,123093,1,8,0:0:0:0:
223,196,123320,1,0,0:0:0:0:
164,160,123775,1,8,0:0:0:0:
164,160,124229,1,8,0:0:0:0:
164,160,124684,1,8,0:0:0:0:
164,160,125138,1,12,0:0:0:0:
184,136,125593,1,0,0:0:0:0:
184,136,125820,1,8,0:0:0:0:
184,136,126047,1,0,0:0:0:0:
184,136,126275,1,8,0:0:0:0:
184,136,126502,1,0,0:0:0:0:
184,136,126843,1,8,0:0:0:0:
184,136,127184,1,8,0:0:0:0:
95,42,127411,1,0,0:0:0:0:
184,136,127638,1,8,0:0:0:0:
184,136,128093,1,8,0:0:0:0:
184,136,128320,1,0,0:0:0:0:
184,136,128775,1,12,0:0:0:0:
168,100,129229,1,0,0:0:0:0:
168,100,129457,1,8,0:0:0:0:
168,100,129684,1,0,0:0:0:0:
168,100,129911,1,8,0:0:0:0:
168,100,130138,1,0,0:0:0:0:
172,96,130479,1,8,0:0:0:0:
172,96,130820,1,8,0:0:0:0:
57,85,131047,1,0,0:0:0:0:
172,96,131275,1,8,0:0:0:0:
172,96,131729,1,8,0:0:0:0:
231,163,132411,1,8,0:0:0:0:
172,96,132866,1,0,0:0:0:0:
172,96,133093,1,8,0:0:0:0:
152,92,133320,1,0,0:0:0:0:
156,96,133547,1,8,0:0:0:0:
156,96,133775,1,0,0:0:0:0:
156,96,134116,1,8,0:0:0:0:
160,96,134457,1,8,0:0:0:0:
120,198,134684,1,0,0:0:0:0:
168,88,134911,1,8,0:0:0:0:
272,88,135366,1,8,0:0:0:0:
272,88,135593,1,0,0:0:0:0:
272,88,135934,1,8,0:0:0:0:
272,88,136275,1,8,0:0:0:0:
272,88,136502,1,0,0:0:0:0:
272,72,136729,1,8,0:0:0:0:
272,72,136957,1,0,0:0:0:0:
272,72,137184,1,8,0:0:0:0:
272,72,137411,1,0,0:0:0:0:
272,72,137752,1,8,0:0:0:0:
272,72,138093,1,8,0:0:0:0:
272,72,138320,1,0,0:0:0:0:
272,72,138775,1,0,0:0:0:0:
272,72,139229,1,0,0:0:0:0:
272,72,139684,1,12,0:0:0:0:
272,72,140138,1,4,0:0:0:0:
