osu file format v14

[General]
AudioFilename: audio.mp3
AudioLeadIn: 0
PreviewTime: 43775
Countdown: 0
SampleSet: Normal
StackLeniency: 0.7
Mode: 1
LetterboxInBreaks: 0
WidescreenStoryboard: 0

[Editor]
DistanceSpacing: 0.1
BeatDivisor: 8
GridSize: 4
TimelineZoom: 1.2

[Metadata]
Title:Dead Soul
TitleUnicode:Dead Soul
Artist:Sound Souler
ArtistUnicode:Sound Souler
Creator:POCARI SWEAT
Version:Kantan
Source:osu!
Tags:BOFU2017 Electronic Instrumental fa featured artist BMS
BeatmapID:2333501
BeatmapSetID:1116828

[Difficulty]
HPDrainRate:8
CircleSize:5
OverallDifficulty:2
ApproachRate:5
SliderMultiplier:1.4
SliderTickRate:1

[Events]
//Background and Video events
0,0,"maxresdefault.jpg",0,0
//Break Periods
2,74884,80757
//Storyboard Layer 0 (Background)
//Storyboard Layer 1 (Fail)
//Storyboard Layer 2 (Pass)
//Storyboard Layer 3 (Foreground)
//Storyboard Layer 4 (Overlay)
//Storyboard Sound Samples

[TimingPoints]
1957,454.545454545455,4,1,0,65,1,0
9229,-100,4,1,0,80,0,0
16047,-100,4,1,0,90,0,0
31047,-100,4,1,0,90,0,0
45593,-100,4,1,0,90,0,1
74684,-100,4,1,0,60,0,0
74741,-100,4,1,0,40,0,0
81900,-100,4,1,0,60,0,0
96502,-100,4,1,0,75,0,0
99684,-100,4,1,0,80,0,0
110593,-100,4,1,0,90,0,0
111047,-100,4,1,0,90,0,1
140138,-100,4,1,0,90,0,0

[HitObjects]
204,195,1957,5,0,0:0:0:0:
203,195,2866,1,0,0:0:0:0:
202,195,3775,1,0,0:0:0:0:
202,195,4229,1,0,0:0:0:0:
202,195,4684,1,0,0:0:0:0:
186,216,5593,1,0,0:0:0:0:
186,216,6502,1,0,0:0:0:0:
186,216,7411,1,0,0:0:0:0:
185,215,9229,1,12,0:0:0:0:
185,214,9684,1,0,0:0:0:0:
208,115,10593,1,8,0:0:0:0:
181,126,11502,1,8,0:0:0:0:
181,126,12411,1,8,0:0:0:0:
42,135,12866,1,0,0:0:0:0:
42,135,13320,1,8,0:0:0:0:
42,135,14229,1,8,0:0:0:0:
42,135,16047,1,12,0:0:0:0:
42,135,16502,1,0,0:0:0:0:
42,135,16957,1,8,0:0:0:0:
42,135,17411,1,0,0:0:0:0:
42,135,18320,1,0,0:0:0:0:
42,135,19229,1,0,0:0:0:0:
164,187,20138,1,0,0:0:0:0:
160,186,20593,1,8,0:0:0:0:
160,186,21047,1,0,0:0:0:0:
160,186,21957,1,0,0:0:0:0:
158,188,23775,1,0,0:0:0:0:
158,188,24229,1,8,0:0:0:0:
158,188,24684,1,0,0:0:0:0:
158,188,25593,1,0,0:0:0:0:
233,112,26502,1,0,0:0:0:0:
158,188,27411,1,0,0:0:0:0:
158,188,27866,1,8,0:0:0:0:
158,188,28320,1,0,0:0:0:0:
158,188,29229,1,0,0:0:0:0:
163,224,31047,1,0,0:0:0:0:
163,224,31502,1,8,0:0:0:0:
163,224,31957,1,8,0:0:0:0:
124,203,32866,1,0,0:0:0:0:
216,132,34229,1,12,0:0:0:0:
125,202,34684,1,0,0:0:0:0:
227,49,35138,1,8,0:0:0:0:
194,134,35593,1,8,0:0:0:0:
192,134,36502,1,0,0:0:0:0:
180,132,37866,1,12,0:0:0:0:
180,132,38320,1,0,0:0:0:0:
171,134,39229,1,0,0:0:0:0:
88,151,40138,1,8,0:0:0:0:
87,151,40593,1,0,0:0:0:0:
87,151,41047,1,8,0:0:0:0:
87,151,41957,1,8,0:0:0:0:
87,151,42411,1,8,0:0:0:0:
87,151,42866,1,8,0:0:0:0:
376,118,43320,1,8,0:0:0:0:
87,151,43775,1,0,0:0:0:0:
87,151,45138,1,12,0:0:0:0:
158,178,45593,1,0,0:0:0:0:
158,178,46502,1,0,0:0:0:0:
383,183,46957,1,0,0:0:0:0:
158,178,47411,1,0,0:0:0:0:
254,98,48775,1,12,0:0:0:0:
239,187,49229,1,0,0:0:0:0:
239,187,50138,1,0,0:0:0:0:
365,220,50593,1,0,0:0:0:0:
239,187,51047,1,0,0:0:0:0:
239,187,52411,1,12,0:0:0:0:
239,187,52866,1,0,0:0:0:0:
239,187,53775,1,0,0:0:0:0:
305,105,54229,1,0,0:0:0:0:
236,186,54684,1,0,0:0:0:0:
215,53,56047,1,12,0:0:0:0:
236,186,56502,1,0,0:0:0:0:
236,186,57411,1,0,0:0:0:0:
357,143,57866,1,0,0:0:0:0:
236,186,58320,1,8,0:0:0:0:
235,186,59684,1,12,0:0:0:0:
235,185,60138,1,0,0:0:0:0:
235,185,61047,1,0,0:0:0:0:
368,171,61502,1,8,0:0:0:0:
91,208,61957,1,0,0:0:0:0:
184,119,63320,1,8,0:0:0:0:
91,207,63775,1,0,0:0:0:0:
91,207,64684,1,0,0:0:0:0:
178,57,65138,1,8,0:0:0:0:
91,207,65593,1,0,0:0:0:0:
236,169,66502,1,8,0:0:0:0:
174,184,67411,1,0,0:0:0:0:
174,184,68320,1,0,0:0:0:0:
261,96,68775,1,8,0:0:0:0:
173,183,69229,1,0,0:0:0:0:
287,108,70593,1,8,0:0:0:0:
173,183,71047,1,0,0:0:0:0:
173,167,71502,1,8,0:0:0:0:
171,164,71957,1,0,0:0:0:0:
169,164,72866,1,8,0:0:0:0:
167,152,74229,1,12,0:0:0:0:
166,154,74684,1,0,0:0:0:0:
124,201,81957,5,8,0:0:0:0:
126,258,82866,1,0,0:0:0:0:
126,258,83775,1,8,0:0:0:0:
125,258,84684,1,0,0:0:0:0:
203,188,85138,1,8,0:0:0:0:
123,259,85593,1,8,0:0:0:0:
123,259,86502,1,0,0:0:0:0:
123,259,87411,1,8,0:0:0:0:
123,259,89229,1,8,0:0:0:0:
123,259,90138,1,0,0:0:0:0:
123,259,91047,1,8,0:0:0:0:
123,259,91957,1,0,0:0:0:0:
309,128,92411,1,8,0:0:0:0:
103,136,92866,1,8,0:0:0:0:
106,135,94684,1,8,0:0:0:0:
106,135,95593,1,8,0:0:0:0:
106,135,96502,1,0,0:0:0:0:
106,121,97866,1,8,0:0:0:0:
106,122,98320,1,0,0:0:0:0:
106,122,99684,1,12,0:0:0:0:
106,122,100138,1,0,0:0:0:0:
246,136,101502,1,8,0:0:0:0:
107,120,101957,1,8,0:0:0:0:
107,120,103320,1,12,0:0:0:0:
107,120,103775,1,0,0:0:0:0:
107,120,104684,1,0,0:0:0:0:
107,121,105593,1,0,0:0:0:0:
107,121,106502,1,0,0:0:0:0:
221,93,106957,1,12,0:0:0:0:
107,121,107411,1,0,0:0:0:0:
119,191,108320,1,8,0:0:0:0:
267,143,108775,1,8,0:0:0:0:
256,192,109229,12,0,110138,0:0:0:0:
119,191,110593,5,12,0:0:0:0:
235,185,111047,1,0,0:0:0:0:
235,185,111956,1,0,0:0:0:0:
150,118,112411,1,8,0:0:0:0:
91,208,112866,1,0,0:0:0:0:
271,105,114229,1,12,0:0:0:0:
91,207,114684,1,0,0:0:0:0:
91,207,115593,1,0,0:0:0:0:
132,132,116047,1,8,0:0:0:0:
91,207,116502,1,0,0:0:0:0:
246,176,117866,1,12,0:0:0:0:
174,184,118320,1,0,0:0:0:0:
174,184,119229,1,0,0:0:0:0:
132,132,119684,1,8,0:0:0:0:
173,183,120138,1,0,0:0:0:0:
173,183,121956,1,0,0:0:0:0:
132,132,122411,1,8,0:0:0:0:
171,164,122866,1,0,0:0:0:0:
132,132,123320,1,8,0:0:0:0:
169,164,123775,1,8,0:0:0:0:
167,152,125138,1,12,0:0:0:0:
116,186,125593,1,0,0:0:0:0:
116,186,126047,1,8,0:0:0:0:
182,47,127411,1,0,0:0:0:0:
235,187,127866,1,8,0:0:0:0:
271,93,128775,1,12,0:0:0:0:
94,132,129229,1,0,0:0:0:0:
94,133,129684,1,8,0:0:0:0:
94,133,130138,1,8,0:0:0:0:
227,117,131047,1,0,0:0:0:0:
209,99,131502,1,8,0:0:0:0:
153,110,132866,1,0,0:0:0:0:
146,80,133320,1,8,0:0:0:0:
146,80,133775,1,8,0:0:0:0:
241,97,134684,1,0,0:0:0:0:
158,191,135593,1,8,0:0:0:0:
144,80,136502,1,0,0:0:0:0:
144,80,137411,1,8,0:0:0:0:
143,79,139684,1,12,0:0:0:0:
143,79,140138,1,4,0:0:0:0:
