osu file format v14

[General]
AudioFilename: audio.mp3
AudioLeadIn: 0
PreviewTime: 43775
Countdown: 0
SampleSet: Normal
StackLeniency: 0.7
Mode: 1
LetterboxInBreaks: 0
WidescreenStoryboard: 0

[Editor]
DistanceSpacing: 0.1
BeatDivisor: 8
GridSize: 4
TimelineZoom: 2

[Metadata]
Title:Dead Soul
TitleUnicode:Dead Soul
Artist:Sound Souler
ArtistUnicode:Sound Souler
Creator:POCARI SWEAT
Version:Inner Soul
Source:osu!
Tags:BOFU2017 Electronic Instrumental fa featured artist BMS
BeatmapID:2333087
BeatmapSetID:1116828

[Difficulty]
HPDrainRate:5.5
CircleSize:5
OverallDifficulty:6
ApproachRate:5
SliderMultiplier:1.4
SliderTickRate:1

[Events]
//Background and Video events
0,0,"maxresdefault.jpg",0,0
//Break Periods
2,74884,80757
//Storyboard Layer 0 (Background)
//Storyboard Layer 1 (Fail)
//Storyboard Layer 2 (Pass)
//Storyboard Layer 3 (Foreground)
//Storyboard Layer 4 (Overlay)
//Storyboard Sound Samples

[TimingPoints]
1957,454.545454545455,4,1,0,65,1,0
1957,-111.111111111111,4,1,0,65,0,0
9229,-100,4,1,0,80,0,0
9457,-105.263157894737,4,1,0,80,0,0
16047,-95.2380952380952,4,1,0,90,0,0
16502,-100,4,1,0,90,0,0
31047,-101.010101010101,4,1,0,90,0,0
31388,-104.166666666667,4,1,0,90,0,0
31502,-105.263157894737,4,1,0,90,0,0
31729,-107.52688172043,4,1,0,90,0,0
31957,-109.89010989011,4,1,0,90,0,0
32184,-112.359550561798,4,1,0,90,0,0
32411,-114.942528735632,4,1,0,90,0,0
32865,-120.481927710843,4,1,0,90,0,0
33206,-125,4,1,0,90,0,0
34229,-117.647058823529,4,1,0,90,0,0
34684,-125,4,1,0,90,0,0
37866,-117.647058823529,4,1,0,90,0,0
38320,-131.578947368421,4,1,0,90,0,0
38547,-128.205128205128,4,1,0,90,0,0
38661,-126.582278481013,4,1,0,90,0,0
38775,-125,4,1,0,90,0,0
39002,-121.951219512195,4,1,0,90,0,0
39116,-120.481927710843,4,1,0,90,0,0
39229,-119.047619047619,4,1,0,90,0,0
39457,-113.636363636364,4,1,0,90,0,0
39570,-114.942528735632,4,1,0,90,0,0
39684,-113.636363636364,4,1,0,90,0,0
39911,-111.111111111111,4,1,0,90,0,0
40025,-109.89010989011,4,1,0,90,0,0
40138,-108.695652173913,4,1,0,90,0,0
40252,-107.52688172043,4,1,0,90,0,0
40366,-106.382978723404,4,1,0,90,0,0
40479,-105.263157894737,4,1,0,90,0,0
40593,-104.166666666667,4,1,0,90,0,0
40820,-102.040816326531,4,1,0,90,0,0
40934,-101.010101010101,4,1,0,90,0,0
41047,-100,4,1,0,90,0,0
41274,-98.0392156862745,4,1,0,90,0,0
41502,-92.5925925925926,4,1,0,90,0,0
41956,-92.5925925925926,4,1,0,90,0,0
42070,-91.743119266055,4,1,0,90,0,0
42184,-90.9090909090909,4,1,0,90,0,0
42297,-90.0900900900901,4,1,0,90,0,0
42411,-89.2857142857143,4,1,0,90,0,0
42525,-88.4955752212389,4,1,0,90,0,0
42638,-87.719298245614,4,1,0,90,0,0
42752,-86.9565217391304,4,1,0,90,0,0
42866,-86.2068965517241,4,1,0,90,0,0
42979,-85.4700854700855,4,1,0,90,0,0
43093,-84.7457627118644,4,1,0,90,0,0
43207,-84.0336134453781,4,1,0,90,0,0
43320,-83.3333333333333,4,1,0,90,0,0
43434,-82.6446280991736,4,1,0,90,0,0
43547,-81.9672131147541,4,1,0,90,0,0
43661,-81.3008130081301,4,1,0,90,0,0
43775,-80.6451612903226,4,1,0,90,0,0
45138,-76.9230769230769,4,1,0,90,0,0
45593,-100,4,1,0,90,0,1
48775,-95.2380952380952,4,1,0,90,0,1
49229,-100,4,1,0,90,0,1
52411,-95.2380952380952,4,1,0,90,0,1
52866,-100,4,1,0,90,0,1
56047,-95.2380952380952,4,1,0,90,0,1
56275,-100,4,1,0,90,0,1
59684,-90.9090909090909,4,1,0,90,0,1
60138,-95.2380952380952,4,1,0,90,0,1
69002,-95.2380952380952,4,1,0,90,0,1
74229,-86.9565217391304,4,1,0,90,0,1
74684,-95.2380952380952,4,1,0,60,0,0
74741,-95.2380952380952,4,1,0,40,0,0
76502,-105.263157894737,4,1,0,40,0,0
78320,-117.647058823529,4,1,0,40,0,0
80138,-133.333333333333,4,1,0,40,0,0
81900,-133.333333333333,4,1,0,60,0,0
84115,-131.578947368421,4,1,0,60,0,0
85934,-129.87012987013,4,1,0,60,0,0
87751,-128.205128205128,4,1,0,60,0,0
89570,-126.582278481013,4,1,0,60,0,0
91387,-125,4,1,0,60,0,0
96502,-125,4,1,0,70,0,0
96729,-125,4,1,0,70,0,0
99684,-105.263157894737,4,1,0,70,0,0
100138,-111.111111111111,4,1,0,70,0,0
103320,-95.2380952380952,4,1,0,80,0,0
103775,-133.333333333333,4,1,0,80,0,0
104002,-129.87012987013,4,1,0,80,0,0
104116,-128.205128205128,4,1,0,80,0,0
104229,-126.582278481013,4,1,0,80,0,0
104457,-123.456790123457,4,1,0,80,0,0
104684,-120.481927710843,4,1,0,80,0,0
104797,-119.047619047619,4,1,0,80,0,0
104911,-117.647058823529,4,1,0,80,0,0
105138,-114.942528735632,4,1,0,80,0,0
105366,-112.359550561798,4,1,0,80,0,0
105479,-111.111111111111,4,1,0,80,0,0
105593,-109.89010989011,4,1,0,80,0,0
105820,-107.52688172043,4,1,0,80,0,0
105934,-106.382978723404,4,1,0,80,0,0
106047,-105.263157894737,4,1,0,80,0,0
106275,-103.092783505155,4,1,0,80,0,0
106388,-102.040816326531,4,1,0,80,0,0
106502,-101.010101010101,4,1,0,80,0,0
106616,-100,4,1,0,80,0,0
106729,-99.009900990099,4,1,0,80,0,0
106957,-97.0873786407767,4,1,0,80,0,0
107411,-93.4579439252336,4,1,0,80,0,0
107525,-92.5925925925926,4,1,0,80,0,0
107638,-91.743119266055,4,1,0,80,0,0
107752,-90.9090909090909,4,1,0,80,0,0
107866,-90.0900900900901,4,1,0,80,0,0
107979,-89.2857142857143,4,1,0,80,0,0
108093,-88.4955752212389,4,1,0,80,0,0
108207,-87.719298245614,4,1,0,80,0,0
108320,-86.9565217391304,4,1,0,80,0,0
108434,-86.2068965517241,4,1,0,80,0,0
108547,-85.4700854700855,4,1,0,80,0,0
108661,-84.7457627118644,4,1,0,80,0,0
108775,-84.0336134453781,4,1,0,80,0,0
108888,-83.3333333333333,4,1,0,80,0,0
109002,-82.6446280991736,4,1,0,80,0,0
109116,-81.9672131147541,4,1,0,80,0,0
109229,-50,4,1,0,80,0,0
110593,-75.7575757575758,4,1,0,90,0,0
111047,-100,4,1,0,90,0,1
114229,-95.2380952380952,4,1,0,90,0,1
114457,-100,4,1,0,90,0,1
117865,-95.2380952380952,4,1,0,90,0,1
118320,-100,4,1,0,90,0,1
125138,-90.9090909090909,4,1,0,90,0,1
125592,-83.3333333333333,4,1,0,90,0,1
128775,-76.9230769230769,4,1,0,90,0,1
129002,-83.3333333333333,4,1,0,90,0,1
139683,-86.9565217391304,4,1,0,90,0,1
140138,-100,4,1,0,60,0,0

[HitObjects]
131,155,1957,5,0,0:0:0:0:
131,155,2297,1,8,0:0:0:0:
131,155,2411,1,0,0:0:0:0:
131,155,2638,1,8,0:0:0:0:
131,155,2866,1,0,0:0:0:0:
131,154,3207,1,8,0:0:0:0:
131,154,3320,1,0,0:0:0:0:
131,154,3547,1,8,0:0:0:0:
130,62,3775,1,0,0:0:0:0:
130,62,4116,1,8,0:0:0:0:
130,62,4229,1,0,0:0:0:0:
130,62,4457,1,8,0:0:0:0:
130,62,4684,1,0,0:0:0:0:
137,152,4911,1,0,0:0:0:0:
130,62,5025,1,8,0:0:0:0:
130,62,5138,1,0,0:0:0:0:
130,62,5366,1,8,0:0:0:0:
131,155,5593,1,0,0:0:0:0:
131,155,5933,1,8,0:0:0:0:
131,155,6047,1,0,0:0:0:0:
131,155,6274,1,8,0:0:0:0:
131,155,6502,1,0,0:0:0:0:
131,155,6842,1,8,0:0:0:0:
131,155,6956,1,0,0:0:0:0:
131,155,7183,1,8,0:0:0:0:
131,155,7411,1,0,0:0:0:0:
131,155,7751,1,8,0:0:0:0:
131,155,7865,1,0,0:0:0:0:
131,155,8092,1,8,0:0:0:0:
131,155,8320,1,0,0:0:0:0:
304,103,8547,1,0,0:0:0:0:
131,155,8660,1,8,0:0:0:0:
131,155,8774,1,0,0:0:0:0:
131,155,9001,1,0,0:0:0:0:
158,32,9229,1,12,0:0:0:0:
169,71,9570,1,8,0:0:0:0:
169,71,9684,1,0,0:0:0:0:
86,122,9911,1,8,0:0:0:0:
86,122,10138,1,0,0:0:0:0:
86,122,10366,1,8,0:0:0:0:
81,119,10593,1,0,0:0:0:0:
81,119,10735,1,8,0:0:0:0:
81,119,10820,1,8,0:0:0:0:
81,119,11047,1,0,0:0:0:0:
81,119,11388,1,8,0:0:0:0:
81,119,11502,1,0,0:0:0:0:
81,119,11729,1,8,0:0:0:0:
81,119,11957,1,0,0:0:0:0:
81,119,12184,1,8,0:0:0:0:
81,119,12411,1,0,0:0:0:0:
81,119,12553,1,8,0:0:0:0:
81,119,12638,1,8,0:0:0:0:
166,63,12866,1,0,0:0:0:0:
166,63,13207,1,8,0:0:0:0:
166,63,13320,1,0,0:0:0:0:
166,63,13547,1,8,0:0:0:0:
166,63,13775,1,0,0:0:0:0:
166,63,14002,1,8,0:0:0:0:
166,63,14229,1,0,0:0:0:0:
166,63,14371,1,8,0:0:0:0:
166,63,14457,1,8,0:0:0:0:
172,102,15025,1,8,0:0:0:0:
171,103,15366,1,8,0:0:0:0:
171,103,15735,1,0,0:0:0:0:
171,103,15820,1,0,0:0:0:0:
171,103,16047,1,12,0:0:0:0:
86,95,16502,1,0,0:0:0:0:
156,53,16843,1,8,0:0:0:0:
152,53,16957,1,0,0:0:0:0:
152,53,17184,1,8,0:0:0:0:
152,53,17411,1,0,0:0:0:0:
152,54,17752,1,8,0:0:0:0:
152,54,17866,1,0,0:0:0:0:
152,54,18093,1,8,0:0:0:0:
134,155,18207,1,8,0:0:0:0:
157,53,18320,1,0,0:0:0:0:
157,53,18547,1,8,0:0:0:0:
157,53,18775,1,0,0:0:0:0:
157,53,19002,1,8,0:0:0:0:
157,53,19116,1,8,0:0:0:0:
157,53,19229,1,0,0:0:0:0:
157,53,19457,1,8,0:0:0:0:
157,53,19570,1,0,0:0:0:0:
157,53,19684,1,0,0:0:0:0:
157,53,19911,1,8,0:0:0:0:
157,53,20138,1,0,0:0:0:0:
156,56,20479,1,8,0:0:0:0:
156,56,20593,1,0,0:0:0:0:
156,56,20820,1,8,0:0:0:0:
156,56,21047,1,0,0:0:0:0:
82,129,21388,1,8,0:0:0:0:
82,129,21502,1,0,0:0:0:0:
82,129,21729,1,8,0:0:0:0:
82,129,21843,1,8,0:0:0:0:
82,129,21957,1,0,0:0:0:0:
161,45,22184,1,8,0:0:0:0:
161,45,22411,1,0,0:0:0:0:
161,45,22638,1,8,0:0:0:0:
161,45,22752,1,0,0:0:0:0:
161,45,22866,1,0,0:0:0:0:
161,45,23093,1,8,0:0:0:0:
161,45,23207,1,8,0:0:0:0:
161,45,23320,1,0,0:0:0:0:
159,27,23547,1,8,0:0:0:0:
156,64,23775,1,0,0:0:0:0:
151,64,24116,1,8,0:0:0:0:
151,64,24229,1,0,0:0:0:0:
151,64,24457,1,8,0:0:0:0:
151,64,24684,1,0,0:0:0:0:
148,67,25025,1,8,0:0:0:0:
148,67,25138,1,0,0:0:0:0:
148,67,25366,1,8,0:0:0:0:
148,67,25479,1,8,0:0:0:0:
148,67,25593,1,0,0:0:0:0:
65,64,25820,1,8,0:0:0:0:
65,64,26047,1,0,0:0:0:0:
65,64,26275,1,8,0:0:0:0:
65,64,26388,1,8,0:0:0:0:
65,64,26502,1,0,0:0:0:0:
65,64,26729,1,8,0:0:0:0:
65,64,26843,1,0,0:0:0:0:
65,64,26957,1,0,0:0:0:0:
65,64,27184,1,8,0:0:0:0:
157,53,27411,1,0,0:0:0:0:
156,56,27752,1,8,0:0:0:0:
156,56,27866,1,0,0:0:0:0:
156,56,28093,1,8,0:0:0:0:
156,56,28320,1,0,0:0:0:0:
82,129,28661,1,8,0:0:0:0:
82,129,28775,1,0,0:0:0:0:
82,129,29002,1,8,0:0:0:0:
82,129,29116,1,8,0:0:0:0:
82,129,29230,1,0,0:0:0:0:
161,45,29457,1,8,0:0:0:0:
161,45,29684,1,0,0:0:0:0:
161,45,29911,1,8,0:0:0:0:
161,45,30025,1,0,0:0:0:0:
161,45,30139,1,0,0:0:0:0:
161,45,30366,1,8,0:0:0:0:
161,45,30480,1,8,0:0:0:0:
161,45,30593,1,0,0:0:0:0:
159,27,30820,1,8,0:0:0:0:
140,170,31047,1,0,0:0:0:0:
128,104,31388,1,8,0:0:0:0:
128,104,31502,1,0,0:0:0:0:
128,104,31729,1,8,0:0:0:0:
128,104,31957,1,0,0:0:0:0:
128,104,32184,1,8,0:0:0:0:
72,79,32411,1,0,0:0:0:0:
71,141,32866,1,0,0:0:0:0:
170,73,33207,1,8,0:0:0:0:
170,73,33320,1,0,0:0:0:0:
170,73,33434,1,0,0:0:0:0:
170,73,33547,1,8,0:0:0:0:
170,73,33661,1,8,0:0:0:0:
170,73,33775,1,0,0:0:0:0:
170,73,33888,1,0,0:0:0:0:
167,78,34002,1,8,0:0:0:0:
166,79,34116,1,0,0:0:0:0:
167,78,34229,1,12,0:0:0:0:
203,150,34684,1,0,0:0:0:0:
204,148,35025,1,8,0:0:0:0:
204,148,35138,1,0,0:0:0:0:
204,148,35366,1,8,0:0:0:0:
204,148,35593,1,0,0:0:0:0:
204,148,35820,1,8,0:0:0:0:
209,98,36047,1,0,0:0:0:0:
209,98,36502,1,0,0:0:0:0:
209,98,36843,1,8,0:0:0:0:
265,74,36957,1,0,0:0:0:0:
265,74,37070,1,8,0:0:0:0:
265,74,37184,1,8,0:0:0:0:
260,75,37297,1,8,0:0:0:0:
259,77,37411,1,0,0:0:0:0:
276,57,37525,1,8,0:0:0:0:
276,57,37638,1,8,0:0:0:0:
276,57,37752,1,0,0:0:0:0:
276,57,37866,1,12,0:0:0:0:
188,60,38320,1,0,0:0:0:0:
188,60,38547,1,0,0:0:0:0:
188,60,38661,1,0,0:0:0:0:
188,60,38775,1,8,0:0:0:0:
188,60,39002,1,8,0:0:0:0:
214,149,39116,1,8,0:0:0:0:
188,60,39229,1,0,0:0:0:0:
188,60,39457,1,8,0:0:0:0:
214,149,39570,1,8,0:0:0:0:
188,60,39684,1,0,0:0:0:0:
188,60,39911,1,8,0:0:0:0:
214,149,40025,1,8,0:0:0:0:
150,95,40138,1,0,0:0:0:0:
233,83,40252,1,8,0:0:0:0:
228,81,40366,1,8,0:0:0:0:
226,83,40479,1,8,0:0:0:0:
228,81,40593,1,0,0:0:0:0:
153,107,40820,1,8,0:0:0:0:
153,107,40934,1,8,0:0:0:0:
153,107,41047,1,0,0:0:0:0:
153,107,41275,1,0,0:0:0:0:
153,107,41502,1,12,0:0:0:0:
153,107,41957,1,0,0:0:0:0:
181,37,42070,1,8,0:0:0:0:
181,37,42184,1,8,0:0:0:0:
181,37,42297,1,8,0:0:0:0:
181,37,42411,1,0,0:0:0:0:
181,37,42525,1,8,0:0:0:0:
181,37,42638,1,8,0:0:0:0:
181,37,42752,1,8,0:0:0:0:
178,41,42866,1,0,0:0:0:0:
178,41,42979,1,8,0:0:0:0:
178,41,43093,1,8,0:0:0:0:
178,41,43207,1,8,0:0:0:0:
178,41,43320,1,0,0:0:0:0:
182,46,43434,1,8,0:0:0:0:
183,48,43547,1,8,0:0:0:0:
184,50,43661,1,8,0:0:0:0:
183,48,43775,1,0,0:0:0:0:
184,50,44229,1,0,0:0:0:0:
184,50,44684,1,0,0:0:0:0:
184,50,45138,1,12,0:0:0:0:
184,50,45593,1,0,0:0:0:0:
194,72,45934,1,8,0:0:0:0:
194,72,46047,1,0,0:0:0:0:
194,72,46275,1,8,0:0:0:0:
194,72,46502,1,0,0:0:0:0:
194,72,46729,1,8,0:0:0:0:
194,72,46957,1,0,0:0:0:0:
192,71,47411,1,0,0:0:0:0:
192,71,47752,1,8,0:0:0:0:
192,71,47866,1,0,0:0:0:0:
192,71,47979,1,0,0:0:0:0:
192,71,48093,1,8,0:0:0:0:
192,71,48207,1,8,0:0:0:0:
192,71,48320,1,0,0:0:0:0:
192,71,48434,1,0,0:0:0:0:
192,71,48547,1,8,0:0:0:0:
192,71,48661,1,0,0:0:0:0:
192,71,48775,1,12,0:0:0:0:
187,73,49229,1,0,0:0:0:0:
187,73,49570,1,8,0:0:0:0:
187,73,49684,1,0,0:0:0:0:
187,73,49911,1,8,0:0:0:0:
187,73,50138,1,0,0:0:0:0:
187,73,50366,1,8,0:0:0:0:
187,73,50593,1,0,0:0:0:0:
183,75,51047,1,0,0:0:0:0:
186,73,51388,1,8,0:0:0:0:
186,73,51502,1,0,0:0:0:0:
186,73,51616,1,8,0:0:0:0:
125,113,51729,1,8,0:0:0:0:
182,77,51843,1,8,0:0:0:0:
125,113,51957,1,0,0:0:0:0:
125,113,52070,1,8,0:0:0:0:
125,113,52184,1,8,0:0:0:0:
125,113,52297,1,0,0:0:0:0:
125,113,52411,1,12,0:0:0:0:
132,88,52866,1,0,0:0:0:0:
138,82,53207,1,8,0:0:0:0:
138,82,53320,1,0,0:0:0:0:
138,82,53547,1,8,0:0:0:0:
138,82,53775,1,0,0:0:0:0:
138,82,54002,1,8,0:0:0:0:
138,82,54229,1,0,0:0:0:0:
138,82,54684,1,0,0:0:0:0:
138,83,55025,1,8,0:0:0:0:
138,83,55138,1,0,0:0:0:0:
138,83,55252,1,0,0:0:0:0:
138,83,55366,1,8,0:0:0:0:
130,84,55479,1,8,0:0:0:0:
130,84,55593,1,0,0:0:0:0:
130,84,55707,1,0,0:0:0:0:
130,84,55820,1,8,0:0:0:0:
130,84,55934,1,0,0:0:0:0:
130,84,56047,1,12,0:0:0:0:
152,53,56275,1,8,0:0:0:0:
152,53,56388,1,8,0:0:0:0:
152,53,56502,1,0,0:0:0:0:
153,53,56843,1,8,0:0:0:0:
153,53,56957,1,0,0:0:0:0:
153,53,57184,1,8,0:0:0:0:
153,53,57411,1,0,0:0:0:0:
153,53,57638,1,8,0:0:0:0:
153,53,57866,1,0,0:0:0:0:
153,53,57979,1,8,0:0:0:0:
153,53,58093,1,0,0:0:0:0:
189,149,58207,1,0,0:0:0:0:
155,34,58320,1,8,0:0:0:0:
145,50,58661,1,0,0:0:0:0:
145,50,58775,1,8,0:0:0:0:
145,50,59002,1,0,0:0:0:0:
145,50,59229,1,8,0:0:0:0:
205,186,59457,1,0,0:0:0:0:
205,186,59570,1,0,0:0:0:0:
496,145,59684,1,12,0:0:0:0:
138,64,60138,1,0,0:0:0:0:
138,64,60479,1,8,0:0:0:0:
138,64,60593,1,0,0:0:0:0:
138,64,60820,1,8,0:0:0:0:
138,64,61047,1,0,0:0:0:0:
138,64,61161,1,0,0:0:0:0:
130,62,61275,1,8,0:0:0:0:
130,62,61502,1,8,0:0:0:0:
130,62,61729,1,0,0:0:0:0:
130,62,61843,1,0,0:0:0:0:
126,66,61957,1,0,0:0:0:0:
128,68,62297,1,8,0:0:0:0:
128,68,62411,1,0,0:0:0:0:
128,68,62525,1,0,0:0:0:0:
128,68,62638,1,8,0:0:0:0:
128,68,62752,1,8,0:0:0:0:
128,68,62866,1,0,0:0:0:0:
128,68,62979,1,0,0:0:0:0:
128,68,63093,1,8,0:0:0:0:
128,68,63207,1,8,0:0:0:0:
128,68,63320,1,0,0:0:0:0:
128,68,63434,1,8,0:0:0:0:
128,68,63547,1,8,0:0:0:0:
128,68,63661,1,8,0:0:0:0:
128,68,63775,1,0,0:0:0:0:
154,40,64002,1,8,0:0:0:0:
154,40,64116,1,8,0:0:0:0:
154,40,64229,1,0,0:0:0:0:
158,57,64457,1,8,0:0:0:0:
158,57,64684,1,0,0:0:0:0:
154,42,64797,1,0,0:0:0:0:
154,42,64911,1,8,0:0:0:0:
154,42,65138,1,8,0:0:0:0:
147,47,65366,1,0,0:0:0:0:
147,47,65479,1,0,0:0:0:0:
147,47,65593,1,0,0:0:0:0:
146,52,65934,1,8,0:0:0:0:
146,52,66047,1,0,0:0:0:0:
146,52,66161,1,8,0:0:0:0:
146,52,66275,1,8,0:0:0:0:
146,52,66388,1,8,0:0:0:0:
142,99,67411,1,0,0:0:0:0:
191,95,67752,1,8,0:0:0:0:
191,95,67866,1,0,0:0:0:0:
191,95,68093,1,8,0:0:0:0:
191,95,68320,1,0,0:0:0:0:
191,95,68434,1,0,0:0:0:0:
191,95,68547,1,8,0:0:0:0:
191,95,68775,1,8,0:0:0:0:
192,99,69002,1,0,0:0:0:0:
192,99,69229,1,0,0:0:0:0:
194,100,69570,1,8,0:0:0:0:
194,100,69684,1,0,0:0:0:0:
194,100,69797,1,0,0:0:0:0:
194,100,69911,1,8,0:0:0:0:
194,100,70025,1,8,0:0:0:0:
194,100,70138,1,0,0:0:0:0:
194,100,70252,1,0,0:0:0:0:
194,100,70366,1,8,0:0:0:0:
194,100,70479,1,8,0:0:0:0:
194,100,70593,1,0,0:0:0:0:
194,100,70820,1,8,0:0:0:0:
194,100,70934,1,8,0:0:0:0:
194,100,71047,1,0,0:0:0:0:
186,99,71388,1,8,0:0:0:0:
186,99,71502,1,0,0:0:0:0:
186,99,71729,1,8,0:0:0:0:
186,99,71843,1,8,0:0:0:0:
186,99,71957,1,0,0:0:0:0:
186,99,72070,1,0,0:0:0:0:
181,96,72184,1,8,0:0:0:0:
181,96,72411,1,8,0:0:0:0:
181,96,72638,1,0,0:0:0:0:
181,96,72866,1,8,0:0:0:0:
205,207,73320,1,8,0:0:0:0:
204,206,73775,1,8,0:0:0:0:
204,206,74229,1,12,0:0:0:0:
201,203,74684,1,0,0:0:0:0:
182,162,81957,5,8,0:0:0:0:
179,161,82297,1,0,0:0:0:0:
179,161,82411,1,8,0:0:0:0:
179,161,82638,1,8,0:0:0:0:
179,161,82866,1,0,0:0:0:0:
200,67,83093,1,8,0:0:0:0:
200,67,83320,1,0,0:0:0:0:
200,67,83547,1,0,0:0:0:0:
182,162,83775,1,8,0:0:0:0:
179,161,84115,1,0,0:0:0:0:
179,161,84229,1,8,0:0:0:0:
179,161,84456,1,8,0:0:0:0:
179,161,84684,1,0,0:0:0:0:
200,67,84911,1,8,0:0:0:0:
200,67,85138,1,8,0:0:0:0:
200,67,85365,1,0,0:0:0:0:
182,162,85593,1,8,0:0:0:0:
179,161,85934,1,0,0:0:0:0:
179,161,86047,1,8,0:0:0:0:
179,161,86274,1,8,0:0:0:0:
179,161,86502,1,0,0:0:0:0:
200,67,86729,1,8,0:0:0:0:
200,67,86956,1,0,0:0:0:0:
200,67,87183,1,0,0:0:0:0:
182,162,87411,1,8,0:0:0:0:
179,161,87751,1,0,0:0:0:0:
179,161,87865,1,8,0:0:0:0:
179,161,88092,1,8,0:0:0:0:
179,161,88320,1,0,0:0:0:0:
200,67,88547,1,8,0:0:0:0:
200,67,88774,1,8,0:0:0:0:
200,67,89001,1,0,0:0:0:0:
97,103,89229,1,8,0:0:0:0:
97,103,89570,1,8,0:0:0:0:
97,103,89684,1,0,0:0:0:0:
97,103,89911,1,8,0:0:0:0:
97,103,90138,1,0,0:0:0:0:
97,103,90366,1,8,0:0:0:0:
97,103,90593,1,0,0:0:0:0:
97,103,90820,1,0,0:0:0:0:
182,162,91047,1,8,0:0:0:0:
179,161,91387,1,8,0:0:0:0:
179,161,91501,1,0,0:0:0:0:
179,161,91728,1,8,0:0:0:0:
179,161,91956,1,0,0:0:0:0:
200,67,92183,1,8,0:0:0:0:
200,67,92410,1,8,0:0:0:0:
200,67,92637,1,0,0:0:0:0:
97,103,92866,1,8,0:0:0:0:
97,103,93207,1,8,0:0:0:0:
97,103,93321,1,0,0:0:0:0:
97,103,93548,1,8,0:0:0:0:
97,103,93775,1,0,0:0:0:0:
97,103,94003,1,8,0:0:0:0:
97,103,94230,1,0,0:0:0:0:
97,103,94457,1,0,0:0:0:0:
182,162,94684,1,8,0:0:0:0:
118,95,95025,1,8,0:0:0:0:
111,96,95138,1,0,0:0:0:0:
111,96,95366,1,0,0:0:0:0:
111,96,95593,1,8,0:0:0:0:
111,96,95820,1,0,0:0:0:0:
215,95,95934,1,0,0:0:0:0:
111,96,96047,1,8,0:0:0:0:
111,96,96275,1,8,0:0:0:0:
111,96,96502,1,0,0:0:0:0:
113,68,96729,1,0,0:0:0:0:
113,68,96957,1,8,0:0:0:0:
113,68,97184,1,0,0:0:0:0:
113,68,97411,1,8,0:0:0:0:
113,68,97638,1,0,0:0:0:0:
339,145,97752,1,0,0:0:0:0:
113,68,97866,1,8,0:0:0:0:
113,68,98093,1,0,0:0:0:0:
113,68,98320,1,0,0:0:0:0:
110,69,98547,1,0,0:0:0:0:
409,138,98661,1,0,0:0:0:0:
110,69,98775,1,8,0:0:0:0:
110,69,99002,1,0,0:0:0:0:
110,69,99229,1,8,0:0:0:0:
110,69,99457,1,0,0:0:0:0:
110,69,99684,1,12,0:0:0:0:
108,69,100138,1,0,0:0:0:0:
108,69,100366,1,0,0:0:0:0:
108,69,100479,1,0,0:0:0:0:
108,69,100593,1,8,0:0:0:0:
108,69,100820,1,0,0:0:0:0:
108,69,101047,1,8,0:0:0:0:
108,69,101275,1,0,0:0:0:0:
236,159,101388,1,0,0:0:0:0:
108,69,101502,1,8,0:0:0:0:
108,69,101729,1,0,0:0:0:0:
108,69,101957,1,8,0:0:0:0:
108,69,102184,1,0,0:0:0:0:
108,69,102297,1,0,0:0:0:0:
108,69,102411,1,8,0:0:0:0:
108,69,102638,1,0,0:0:0:0:
152,128,102752,1,0,0:0:0:0:
108,69,102866,1,8,0:0:0:0:
108,69,102979,1,8,0:0:0:0:
108,69,103093,1,0,0:0:0:0:
108,69,103320,1,12,0:0:0:0:
108,71,103775,1,0,0:0:0:0:
108,71,104002,1,0,0:0:0:0:
108,71,104116,1,8,0:0:0:0:
108,71,104229,1,0,0:0:0:0:
108,71,104457,1,8,0:0:0:0:
108,71,104684,1,0,0:0:0:0:
108,71,104797,1,8,0:0:0:0:
108,71,104911,1,8,0:0:0:0:
108,71,105138,1,0,0:0:0:0:
108,71,105366,1,8,0:0:0:0:
71,167,105479,1,8,0:0:0:0:
108,71,105593,1,0,0:0:0:0:
108,71,105820,1,0,0:0:0:0:
108,71,105934,1,0,0:0:0:0:
108,71,106047,1,8,0:0:0:0:
108,71,106275,1,8,0:0:0:0:
57,156,106388,1,8,0:0:0:0:
108,71,106502,1,0,0:0:0:0:
108,71,106616,1,8,0:0:0:0:
108,71,106729,1,8,0:0:0:0:
108,71,106957,1,12,0:0:0:0:
92,133,107411,1,0,0:0:0:0:
92,133,107525,1,8,0:0:0:0:
92,133,107638,1,8,0:0:0:0:
92,133,107752,1,8,0:0:0:0:
92,133,107866,1,0,0:0:0:0:
92,133,107979,1,8,0:0:0:0:
92,133,108093,1,8,0:0:0:0:
85,135,108207,1,8,0:0:0:0:
92,133,108320,1,0,0:0:0:0:
92,133,108434,1,8,0:0:0:0:
92,133,108547,1,8,0:0:0:0:
92,133,108661,1,8,0:0:0:0:
92,133,108775,1,0,0:0:0:0:
92,133,108888,1,8,0:0:0:0:
92,133,109002,1,8,0:0:0:0:
85,135,109116,1,8,0:0:0:0:
256,192,109229,12,0,110366,0:0:0:0:
168,158,110593,5,12,0:0:0:0:
138,64,111047,1,0,0:0:0:0:
138,64,111388,1,8,0:0:0:0:
138,64,111502,1,0,0:0:0:0:
138,64,111729,1,8,0:0:0:0:
138,64,111956,1,0,0:0:0:0:
138,64,112070,1,0,0:0:0:0:
130,62,112184,1,8,0:0:0:0:
130,62,112411,1,8,0:0:0:0:
130,62,112638,1,0,0:0:0:0:
130,62,112752,1,0,0:0:0:0:
126,66,112866,1,0,0:0:0:0:
128,68,113206,1,8,0:0:0:0:
128,68,113320,1,0,0:0:0:0:
128,68,113434,1,0,0:0:0:0:
128,68,113547,1,8,0:0:0:0:
128,68,113661,1,8,0:0:0:0:
128,68,113775,1,0,0:0:0:0:
128,68,113888,1,0,0:0:0:0:
128,68,114002,1,8,0:0:0:0:
128,68,114116,1,0,0:0:0:0:
128,68,114229,1,12,0:0:0:0:
128,68,114457,1,8,0:0:0:0:
128,68,114570,1,8,0:0:0:0:
128,68,114684,1,0,0:0:0:0:
154,40,115025,1,8,0:0:0:0:
154,40,115138,1,0,0:0:0:0:
158,57,115366,1,8,0:0:0:0:
158,57,115593,1,0,0:0:0:0:
154,42,115706,1,0,0:0:0:0:
154,42,115820,1,8,0:0:0:0:
154,42,116047,1,8,0:0:0:0:
147,47,116275,1,0,0:0:0:0:
147,47,116388,1,0,0:0:0:0:
147,47,116502,1,0,0:0:0:0:
146,52,116843,1,8,0:0:0:0:
146,52,116956,1,0,0:0:0:0:
146,52,117070,1,8,0:0:0:0:
146,52,117184,1,8,0:0:0:0:
146,52,117297,1,8,0:0:0:0:
108,135,117411,1,0,0:0:0:0:
235,67,117638,1,0,0:0:0:0:
235,67,117752,1,0,0:0:0:0:
299,119,117866,1,12,0:0:0:0:
142,99,118320,1,0,0:0:0:0:
191,95,118661,1,8,0:0:0:0:
191,95,118775,1,0,0:0:0:0:
191,95,119002,1,8,0:0:0:0:
191,95,119229,1,0,0:0:0:0:
191,95,119343,1,0,0:0:0:0:
191,95,119456,1,8,0:0:0:0:
284,181,119684,1,8,0:0:0:0:
192,99,119911,1,0,0:0:0:0:
192,99,120138,1,0,0:0:0:0:
194,100,120479,1,8,0:0:0:0:
194,100,120593,1,0,0:0:0:0:
194,100,120706,1,0,0:0:0:0:
194,100,120820,1,8,0:0:0:0:
194,100,120934,1,8,0:0:0:0:
194,100,121047,1,0,0:0:0:0:
194,100,121161,1,0,0:0:0:0:
194,100,121275,1,8,0:0:0:0:
194,100,121388,1,8,0:0:0:0:
194,100,121502,1,0,0:0:0:0:
194,100,121729,1,8,0:0:0:0:
194,100,121843,1,8,0:0:0:0:
194,100,121956,1,0,0:0:0:0:
186,99,122297,1,8,0:0:0:0:
186,99,122411,1,0,0:0:0:0:
186,99,122638,1,8,0:0:0:0:
186,99,122752,1,8,0:0:0:0:
186,99,122866,1,0,0:0:0:0:
181,96,123093,1,8,0:0:0:0:
181,96,123320,1,8,0:0:0:0:
67,73,123434,1,8,0:0:0:0:
181,96,123547,1,0,0:0:0:0:
67,73,123661,1,0,0:0:0:0:
127,111,123775,1,8,0:0:0:0:
127,111,124116,1,0,0:0:0:0:
151,52,124229,1,8,0:0:0:0:
151,52,124457,1,0,0:0:0:0:
151,52,124684,1,8,0:0:0:0:
226,140,124911,1,0,0:0:0:0:
226,140,125025,1,0,0:0:0:0:
149,51,125138,1,12,0:0:0:0:
145,156,125593,1,0,0:0:0:0:
145,156,125820,1,8,0:0:0:0:
145,156,125934,1,8,0:0:0:0:
145,156,126047,1,0,0:0:0:0:
145,156,126275,1,8,0:0:0:0:
146,132,126502,1,8,0:0:0:0:
146,132,126729,1,0,0:0:0:0:
146,132,126843,1,8,0:0:0:0:
146,132,127070,1,0,0:0:0:0:
146,132,127184,1,8,0:0:0:0:
146,132,127411,1,0,0:0:0:0:
146,132,127638,1,8,0:0:0:0:
146,132,127866,1,0,0:0:0:0:
146,132,127979,1,8,0:0:0:0:
223,130,128093,1,8,0:0:0:0:
223,130,128207,1,8,0:0:0:0:
223,130,128320,1,0,0:0:0:0:
223,130,128547,1,8,0:0:0:0:
223,130,128661,1,0,0:0:0:0:
184,54,128775,1,12,0:0:0:0:
174,40,129002,1,0,0:0:0:0:
76,126,129229,1,0,0:0:0:0:
76,126,129457,1,8,0:0:0:0:
76,126,129570,1,8,0:0:0:0:
71,124,129684,1,0,0:0:0:0:
71,124,129911,1,8,0:0:0:0:
71,124,130138,1,8,0:0:0:0:
71,124,130366,1,0,0:0:0:0:
71,124,130479,1,8,0:0:0:0:
71,124,130707,1,0,0:0:0:0:
71,124,130820,1,8,0:0:0:0:
71,124,131047,1,0,0:0:0:0:
317,139,131275,1,8,0:0:0:0:
71,124,131388,1,8,0:0:0:0:
71,124,131502,1,0,0:0:0:0:
71,124,131616,1,8,0:0:0:0:
71,124,131729,1,8,0:0:0:0:
71,124,131843,1,8,0:0:0:0:
206,89,132866,1,0,0:0:0:0:
206,89,133093,1,8,0:0:0:0:
412,151,133207,1,8,0:0:0:0:
206,89,133320,1,0,0:0:0:0:
206,89,133547,1,8,0:0:0:0:
206,89,133775,1,8,0:0:0:0:
206,89,134003,1,0,0:0:0:0:
206,89,134116,1,8,0:0:0:0:
206,89,134344,1,0,0:0:0:0:
206,89,134457,1,8,0:0:0:0:
73,120,134684,1,0,0:0:0:0:
311,114,134911,1,8,0:0:0:0:
73,120,135025,1,8,0:0:0:0:
73,120,135138,1,0,0:0:0:0:
73,120,135252,1,8,0:0:0:0:
73,120,135366,1,8,0:0:0:0:
73,120,135479,1,8,0:0:0:0:
73,120,135593,1,0,0:0:0:0:
73,120,135820,1,8,0:0:0:0:
284,96,135934,1,8,0:0:0:0:
284,96,136047,1,0,0:0:0:0:
73,120,136161,1,8,0:0:0:0:
73,120,136275,1,0,0:0:0:0:
73,120,136388,1,8,0:0:0:0:
73,120,136502,1,0,0:0:0:0:
73,120,136616,1,0,0:0:0:0:
73,120,136729,1,8,0:0:0:0:
73,120,136957,1,8,0:0:0:0:
73,120,137184,1,0,0:0:0:0:
73,120,137297,1,0,0:0:0:0:
73,120,137411,1,8,0:0:0:0:
73,120,137638,1,0,0:0:0:0:
73,120,137752,1,8,0:0:0:0:
73,120,137979,1,0,0:0:0:0:
73,120,138093,1,8,0:0:0:0:
73,120,138320,1,0,0:0:0:0:
71,116,138775,1,0,0:0:0:0:
71,116,139229,1,0,0:0:0:0:
71,116,139684,1,12,0:0:0:0:
203,118,140138,1,4,0:0:0:0:
