osu file format v14

[General]
AudioFilename: audio.mp3
AudioLeadIn: 0
PreviewTime: 43775
Countdown: 0
SampleSet: Normal
StackLeniency: 0.7
Mode: 1
LetterboxInBreaks: 0
WidescreenStoryboard: 0

[Editor]
DistanceSpacing: 0.5
BeatDivisor: 2
GridSize: 4
TimelineZoom: 1

[Metadata]
Title:Dead Soul
TitleUnicode:Dead Soul
Artist:Sound Souler
ArtistUnicode:Sound Souler
Creator:POCARI SWEAT
Version:Futsuu
Source:osu!
Tags:BOFU2017 Electronic Instrumental fa featured artist BMS
BeatmapID:2333500
BeatmapSetID:1116828

[Difficulty]
HPDrainRate:7
CircleSize:5
OverallDifficulty:3
ApproachRate:5
SliderMultiplier:1.4
SliderTickRate:1

[Events]
//Background and Video events
0,0,"maxresdefault.jpg",0,0
//Break Periods
2,74884,80757
//Storyboard Layer 0 (Background)
//Storyboard Layer 1 (Fail)
//Storyboard Layer 2 (Pass)
//Storyboard Layer 3 (Foreground)
//Storyboard Layer 4 (Overlay)
//Storyboard Sound Samples

[TimingPoints]
1957,454.545454545455,4,1,0,65,1,0
1957,-111.111111111111,4,1,0,65,0,0
9229,-105.263157894737,4,1,0,80,0,0
16047,-100,4,1,0,80,0,0
16502,-100,4,1,0,90,0,0
31047,-111.111111111111,4,1,0,90,0,0
33775,-105.263157894737,4,1,0,90,0,0
37411,-103.092783505155,4,1,0,90,0,0
41502,-100,4,1,0,90,0,0
45593,-100,4,1,0,90,0,1
74684,-100,4,1,0,60,0,0
74741,-100,4,1,0,40,0,0
76502,-102.040816326531,4,1,0,40,0,0
78320,-104.166666666667,4,1,0,40,0,0
80138,-106.382978723404,4,1,0,40,0,0
81900,-108.695652173913,4,1,0,60,0,0
96502,-106.382978723404,4,1,0,80,0,0
99229,-104.166666666667,4,1,0,80,0,0
102866,-102.040816326531,4,1,0,80,0,0
107411,-100,4,1,0,80,0,0
110593,-95.2380952380952,4,1,0,90,0,0
111047,-95.2380952380952,4,1,0,90,0,1
140138,-95.2380952380952,4,1,0,90,0,0

[HitObjects]
72,136,1957,5,0,0:0:0:0:
145,141,2866,1,0,0:0:0:0:
145,141,3320,1,0,0:0:0:0:
145,141,3775,1,0,0:0:0:0:
251,216,4229,1,0,0:0:0:0:
177,180,4684,1,0,0:0:0:0:
177,180,5593,1,0,0:0:0:0:
177,180,6502,1,0,0:0:0:0:
177,180,6957,1,0,0:0:0:0:
177,180,7411,1,0,0:0:0:0:
177,180,7866,1,0,0:0:0:0:
177,180,8320,1,0,0:0:0:0:
101,134,9229,1,12,0:0:0:0:
101,134,9684,1,0,0:0:0:0:
301,87,10138,1,0,0:0:0:0:
101,124,10366,1,8,0:0:0:0:
119,124,10820,1,8,0:0:0:0:
180,107,11502,1,8,0:0:0:0:
179,80,11957,1,0,0:0:0:0:
119,122,12184,1,8,0:0:0:0:
121,121,12638,1,8,0:0:0:0:
189,75,13320,1,8,0:0:0:0:
98,118,13775,1,0,0:0:0:0:
121,121,14002,1,8,0:0:0:0:
121,121,14457,1,8,0:0:0:0:
121,121,16047,1,12,0:0:0:0:
121,121,16502,1,0,0:0:0:0:
259,85,16957,1,0,0:0:0:0:
115,128,17184,1,8,0:0:0:0:
121,121,17411,1,0,0:0:0:0:
121,121,17866,1,0,0:0:0:0:
121,121,18320,1,0,0:0:0:0:
115,128,18547,1,8,0:0:0:0:
121,121,18775,1,0,0:0:0:0:
121,121,19229,1,0,0:0:0:0:
121,121,20138,1,0,0:0:0:0:
185,137,20593,1,0,0:0:0:0:
115,128,20820,1,8,0:0:0:0:
121,121,21047,1,0,0:0:0:0:
121,121,21502,1,0,0:0:0:0:
121,121,21957,1,0,0:0:0:0:
115,128,22184,1,8,0:0:0:0:
121,121,22411,1,0,0:0:0:0:
121,121,22866,1,0,0:0:0:0:
121,121,23775,1,0,0:0:0:0:
202,74,24229,1,0,0:0:0:0:
87,153,24457,1,8,0:0:0:0:
121,121,24684,1,0,0:0:0:0:
121,121,25138,1,0,0:0:0:0:
121,121,25593,1,0,0:0:0:0:
87,153,25820,1,8,0:0:0:0:
121,121,26047,1,0,0:0:0:0:
121,121,26502,1,0,0:0:0:0:
121,121,27411,1,0,0:0:0:0:
194,139,27866,1,0,0:0:0:0:
87,153,28093,1,8,0:0:0:0:
121,121,28320,1,0,0:0:0:0:
121,121,28775,1,0,0:0:0:0:
121,121,29229,1,0,0:0:0:0:
87,153,29457,1,8,0:0:0:0:
121,121,29684,1,0,0:0:0:0:
121,121,30138,1,0,0:0:0:0:
163,159,31047,1,0,0:0:0:0:
234,111,31502,1,8,0:0:0:0:
233,113,31957,1,8,0:0:0:0:
165,100,32866,1,0,0:0:0:0:
240,172,33775,1,0,0:0:0:0:
92,151,34229,1,12,0:0:0:0:
120,121,34684,1,0,0:0:0:0:
138,87,35138,1,8,0:0:0:0:
138,87,35593,1,8,0:0:0:0:
203,69,36502,1,0,0:0:0:0:
108,108,37411,1,0,0:0:0:0:
239,140,37866,1,12,0:0:0:0:
237,139,38320,1,0,0:0:0:0:
237,139,38775,1,0,0:0:0:0:
53,121,39002,1,8,0:0:0:0:
237,139,39229,1,0,0:0:0:0:
237,139,39684,1,0,0:0:0:0:
378,149,40138,1,0,0:0:0:0:
236,139,40593,1,0,0:0:0:0:
130,126,40820,1,8,0:0:0:0:
236,139,41047,1,0,0:0:0:0:
236,139,41502,1,12,0:0:0:0:
236,139,41957,1,8,0:0:0:0:
173,97,42411,1,8,0:0:0:0:
173,97,42638,1,8,0:0:0:0:
173,97,42866,1,8,0:0:0:0:
172,220,43320,1,8,0:0:0:0:
170,100,43775,1,0,0:0:0:0:
170,100,44229,1,0,0:0:0:0:
170,100,44684,1,0,0:0:0:0:
170,100,45138,1,12,0:0:0:0:
170,100,45593,1,0,0:0:0:0:
181,93,46047,1,0,0:0:0:0:
181,93,46502,1,0,0:0:0:0:
154,138,47411,1,0,0:0:0:0:
278,155,47866,1,0,0:0:0:0:
211,195,48320,1,0,0:0:0:0:
102,160,48547,1,0,0:0:0:0:
170,100,48775,1,12,0:0:0:0:
170,100,49229,1,0,0:0:0:0:
147,135,49684,1,0,0:0:0:0:
147,135,50138,1,0,0:0:0:0:
269,168,51047,1,0,0:0:0:0:
260,46,51502,1,8,0:0:0:0:
128,190,51729,1,8,0:0:0:0:
170,100,51957,1,0,0:0:0:0:
253,170,52184,1,0,0:0:0:0:
170,100,52411,1,12,0:0:0:0:
170,100,52866,1,0,0:0:0:0:
192,128,53320,1,0,0:0:0:0:
192,128,53775,1,0,0:0:0:0:
297,214,54684,1,0,0:0:0:0:
434,107,55138,1,0,0:0:0:0:
260,85,55366,1,8,0:0:0:0:
169,100,55593,1,0,0:0:0:0:
169,100,56047,1,12,0:0:0:0:
169,100,56502,1,0,0:0:0:0:
211,168,56957,1,0,0:0:0:0:
211,168,57411,1,0,0:0:0:0:
167,100,58320,1,8,0:0:0:0:
167,100,58775,1,8,0:0:0:0:
167,100,59229,1,8,0:0:0:0:
167,100,59684,1,12,0:0:0:0:
167,107,60138,1,0,0:0:0:0:
167,107,60593,1,8,0:0:0:0:
167,107,61047,1,0,0:0:0:0:
108,37,61275,1,0,0:0:0:0:
167,107,61502,1,8,0:0:0:0:
167,107,61957,1,0,0:0:0:0:
166,107,62866,1,0,0:0:0:0:
279,113,63093,1,0,0:0:0:0:
166,107,63320,1,8,0:0:0:0:
166,107,63775,1,0,0:0:0:0:
166,107,64229,1,8,0:0:0:0:
166,107,64684,1,0,0:0:0:0:
101,133,64911,1,0,0:0:0:0:
166,107,65138,1,8,0:0:0:0:
166,107,65593,1,0,0:0:0:0:
91,142,66502,1,0,0:0:0:0:
166,107,66957,1,8,0:0:0:0:
166,107,67411,1,0,0:0:0:0:
166,107,67866,1,8,0:0:0:0:
166,107,68320,1,0,0:0:0:0:
99,112,68547,1,0,0:0:0:0:
166,107,68775,1,8,0:0:0:0:
166,107,69229,1,0,0:0:0:0:
28,52,69684,1,8,0:0:0:0:
166,107,70138,1,0,0:0:0:0:
166,107,71047,1,0,0:0:0:0:
166,107,71502,1,8,0:0:0:0:
166,107,71957,1,0,0:0:0:0:
37,147,72184,1,0,0:0:0:0:
166,108,72411,1,8,0:0:0:0:
37,147,72638,1,0,0:0:0:0:
166,108,72866,1,8,0:0:0:0:
166,108,73320,1,8,0:0:0:0:
166,108,73775,1,8,0:0:0:0:
166,108,74229,1,12,0:0:0:0:
164,108,74684,1,0,0:0:0:0:
204,190,81957,5,8,0:0:0:0:
200,54,82866,1,0,0:0:0:0:
203,105,83320,1,0,0:0:0:0:
206,182,83547,1,0,0:0:0:0:
172,114,83775,1,8,0:0:0:0:
196,182,84684,1,0,0:0:0:0:
133,85,85138,1,8,0:0:0:0:
204,190,85593,1,8,0:0:0:0:
200,54,86502,1,0,0:0:0:0:
203,105,86956,1,0,0:0:0:0:
206,182,87184,1,0,0:0:0:0:
172,114,87411,1,8,0:0:0:0:
133,85,87866,1,8,0:0:0:0:
196,182,88320,1,0,0:0:0:0:
224,233,88775,1,8,0:0:0:0:
204,190,89229,1,8,0:0:0:0:
200,54,90138,1,0,0:0:0:0:
203,105,90592,1,0,0:0:0:0:
206,182,90819,1,0,0:0:0:0:
172,114,91047,1,8,0:0:0:0:
133,85,91501,1,0,0:0:0:0:
196,182,91956,1,0,0:0:0:0:
180,83,92411,1,8,0:0:0:0:
204,190,92866,1,8,0:0:0:0:
200,54,93775,1,0,0:0:0:0:
203,105,94229,1,0,0:0:0:0:
206,182,94456,1,0,0:0:0:0:
172,114,94684,1,8,0:0:0:0:
133,85,95138,1,0,0:0:0:0:
196,182,95593,1,8,0:0:0:0:
62,109,96502,1,0,0:0:0:0:
189,156,96957,1,8,0:0:0:0:
41,92,97184,1,0,0:0:0:0:
189,156,97411,1,8,0:0:0:0:
189,156,97866,1,8,0:0:0:0:
189,156,98320,1,0,0:0:0:0:
140,124,99229,1,8,0:0:0:0:
181,97,99684,1,12,0:0:0:0:
181,97,100138,1,0,0:0:0:0:
181,97,100593,1,8,0:0:0:0:
387,186,100820,1,0,0:0:0:0:
181,97,101047,1,8,0:0:0:0:
164,103,101502,1,8,0:0:0:0:
164,103,101957,1,0,0:0:0:0:
358,106,102866,1,8,0:0:0:0:
159,73,103320,1,12,0:0:0:0:
237,139,103775,1,0,0:0:0:0:
237,139,104230,1,0,0:0:0:0:
53,121,104457,1,8,0:0:0:0:
237,139,104684,1,0,0:0:0:0:
237,139,105139,1,0,0:0:0:0:
237,139,105593,1,0,0:0:0:0:
236,139,106048,1,0,0:0:0:0:
332,99,106275,1,8,0:0:0:0:
236,139,106502,1,0,0:0:0:0:
236,139,106957,1,12,0:0:0:0:
236,139,107412,1,0,0:0:0:0:
173,97,107866,1,0,0:0:0:0:
173,97,108093,1,8,0:0:0:0:
173,97,108321,1,0,0:0:0:0:
170,100,108775,1,8,0:0:0:0:
256,192,109229,12,0,110366,0:0:0:0:
182,115,110593,5,12,0:0:0:0:
167,107,111047,1,0,0:0:0:0:
167,107,111502,1,8,0:0:0:0:
303,137,111729,1,0,0:0:0:0:
167,107,111956,1,0,0:0:0:0:
108,37,112184,1,0,0:0:0:0:
167,107,112411,1,8,0:0:0:0:
167,107,112866,1,0,0:0:0:0:
314,131,113775,1,0,0:0:0:0:
166,107,114229,1,12,0:0:0:0:
166,107,114684,1,0,0:0:0:0:
166,107,115138,1,8,0:0:0:0:
231,69,115366,1,0,0:0:0:0:
166,107,115593,1,0,0:0:0:0:
101,133,115820,1,0,0:0:0:0:
166,107,116047,1,8,0:0:0:0:
166,107,116502,1,0,0:0:0:0:
260,133,117411,1,8,0:0:0:0:
166,107,117866,1,12,0:0:0:0:
166,107,118320,1,0,0:0:0:0:
166,107,118775,1,8,0:0:0:0:
241,116,119002,1,0,0:0:0:0:
166,107,119229,1,0,0:0:0:0:
99,112,119456,1,0,0:0:0:0:
166,107,119684,1,8,0:0:0:0:
166,107,120138,1,0,0:0:0:0:
241,116,121047,1,0,0:0:0:0:
194,135,121502,1,8,0:0:0:0:
166,107,121956,1,0,0:0:0:0:
166,107,122411,1,8,0:0:0:0:
166,107,122866,1,0,0:0:0:0:
37,147,123093,1,0,0:0:0:0:
166,108,123320,1,8,0:0:0:0:
37,147,123547,1,0,0:0:0:0:
93,55,123775,1,8,0:0:0:0:
95,55,124229,1,8,0:0:0:0:
95,55,124684,1,8,0:0:0:0:
114,55,125138,1,12,0:0:0:0:
114,55,125593,1,0,0:0:0:0:
114,55,125820,1,8,0:0:0:0:
114,55,126275,1,8,0:0:0:0:
114,55,126502,1,0,0:0:0:0:
114,55,126957,1,8,0:0:0:0:
133,129,127411,1,0,0:0:0:0:
241,112,128320,1,0,0:0:0:0:
132,121,128775,1,12,0:0:0:0:
132,121,129229,1,0,0:0:0:0:
132,121,129457,1,8,0:0:0:0:
132,121,129684,1,0,0:0:0:0:
132,121,130138,1,0,0:0:0:0:
132,121,130593,1,8,0:0:0:0:
155,61,130820,1,8,0:0:0:0:
155,61,131047,1,0,0:0:0:0:
103,52,131502,1,8,0:0:0:0:
158,88,132866,1,0,0:0:0:0:
158,88,133093,1,8,0:0:0:0:
158,88,133320,1,0,0:0:0:0:
158,88,133775,1,0,0:0:0:0:
212,103,134229,1,8,0:0:0:0:
158,87,134457,1,8,0:0:0:0:
158,87,134684,1,0,0:0:0:0:
283,205,135138,1,8,0:0:0:0:
160,82,135593,1,0,0:0:0:0:
219,69,136047,1,8,0:0:0:0:
162,71,136275,1,8,0:0:0:0:
162,71,136502,1,0,0:0:0:0:
256,126,136729,1,8,0:0:0:0:
161,72,136957,1,8,0:0:0:0:
162,72,137411,1,8,0:0:0:0:
130,166,138320,1,8,0:0:0:0:
172,76,138775,1,8,0:0:0:0:
172,76,139229,1,8,0:0:0:0:
172,76,139684,1,12,0:0:0:0:
172,76,140138,1,4,0:0:0:0:
