osu file format v14

[General]
AudioFilename: audio.mp3
AudioLeadIn: 0
PreviewTime: 81414
Countdown: 0
SampleSet: Soft
StackLeniency: 0.6
Mode: 0
LetterboxInBreaks: 0
WidescreenStoryboard: 1

[Editor]
Bookmarks: 11414,15945,21414,41414,61414,81414,101414,108914,116414,119929,121414,128914,145164
DistanceSpacing: 1.6
BeatDivisor: 4
GridSize: 4
TimelineZoom: 1.9

[Metadata]
Title:Bubble Flower
TitleUnicode:Bubble Flower
Artist:Sound Souler
ArtistUnicode:Sound Souler
Creator:Sylas
Version:Hard
Source:osu!
Tags:Featured Artist FA _Epreus TheKoala MBC monthly beatmapping contest electronic instrumental
BeatmapID:2404834
BeatmapSetID:1152182

[Difficulty]
HPDrainRate:4
CircleSize:3.4
OverallDifficulty:7.6
ApproachRate:8.6
SliderMultiplier:1.39999990463257
SliderTickRate:1

[Events]
//Background and Video events
0,0,"azur-lane-unicorn-anime-girl-uhdpaper.com-4K-4.1719.jpg",0,0
//Break Periods
2,41614,54332
2,57082,59645
//Storyboard Layer 0 (Background)
//Storyboard Layer 1 (Fail)
//Storyboard Layer 2 (Pass)
//Storyboard Layer 3 (Foreground)
//Storyboard Layer 4 (Overlay)
//Storyboard Sound Samples

[TimingPoints]
1414,312.5,4,2,1,60,1,0
21414,-100,4,2,1,70,0,0
41414,-100,4,2,1,40,0,0
61414,-100,4,2,1,60,0,0
80164,-100,4,2,1,50,0,0
81414,-100,4,2,1,90,0,1
101414,-100,4,2,1,70,0,0
121414,-100,4,1,1,90,0,1
136414,-100,4,2,1,60,0,0
139070,-100,4,2,1,5,0,0

[Colours]
Combo1 : 93,93,93
Combo2 : 193,153,234
Combo3 : 190,208,254
Combo4 : 228,108,95
Combo5 : 243,161,114
Combo6 : 183,183,183

[HitObjects]
137,145,1414,6,0,P|204:135|258:177,1,139.999990463257,2|0,0:0|0:0,0:0:0:0:
326,134,1882,2,0,P|279:200|246:273,1,139.999990463257
184,214,2351,1,0,0:0:0:0:
429,341,2664,6,0,P|419:302|417:266,2,69.9999952316285,2|0|0,0:0|0:0|0:0,0:0:0:0:
496,259,3132,2,0,P|464:207|375:203,1,139.999990463257,0|0,0:0|0:0,0:0:0:0:
337,255,3601,1,0,0:0:0:0:
280,43,3914,70,0,L|316:184,1,139.999990463257,2|0,0:0|0:0,0:0:0:0:
242,209,4382,2,0,L|207:73,1,139.999990463257,0|0,0:0|0:0,0:0:0:0:
136,40,4851,1,0,0:0:0:0:
139,357,5164,6,0,B|168:329|161:282|161:282|217:342|289:313,2,209.999985694886,2|2|2,0:0|0:0|0:0,0:0:0:0:
67,286,6414,70,0,P|56:212|28:137,1,139.999990463257,2|0,0:0|0:0,0:0:0:0:
44,73,6882,2,0,P|54:146|129:141,1,139.999990463257,0|0,0:0|0:0,0:0:0:0:
125,76,7351,1,0,0:0:0:0:
363,161,7664,6,0,L|381:77,2,69.9999952316285,2|0|0,0:0|0:0|0:0,0:0:0:0:
301,65,8132,2,0,L|330:201,1,139.999990463257,0|0,0:0|0:0,0:0:0:0:
407,226,8601,1,0,0:0:0:0:
180,336,8914,70,0,P|250:316|332:322,1,139.999990463257,2|0,0:0|0:0,0:0:0:0:
438,282,9382,2,0,B|415:299|401:332|401:332|405:284|364:246,1,139.999990463257,0|0,0:0|0:0,0:0:0:0:
305,235,9851,1,0,0:0:0:0:
438,101,10164,5,2,0:0:0:0:
215,232,10632,1,2,0:0:0:0:
316,59,10945,1,0,0:0:0:0:
329,135,11101,1,2,0:0:0:0:
321,145,11414,70,0,L|242:136,1,69.9999952316285,2|0,1:2|0:0,0:0:0:0:
224,63,11726,1,8,0:0:0:0:
194,191,11882,2,0,P|175:151|176:120,1,69.9999952316285,2|0,1:2|0:0,0:0:0:0:
274,224,12195,1,2,0:0:0:0:
274,224,12351,1,10,0:0:0:0:
78,72,12664,6,0,P|55:170|34:220,1,139.999990463257,2|8,1:2|0:0,0:0:0:0:
145,301,13132,2,0,P|128:270|125:235,1,69.9999952316285,2|0,1:2|0:0,0:0:0:0:
28,359,13445,1,2,0:0:0:0:
28,359,13601,2,0,P|47:319|46:288,1,69.9999952316285,10|0,0:0|0:0,0:0:0:0:
216,251,13914,70,0,B|286:228|270:297|365:264,1,139.999990463257,2|8,1:2|0:0,0:0:0:0:
323,189,14382,2,0,L|316:119,1,69.9999952316285,2|0,1:2|0:0,0:0:0:0:
431,288,14695,1,2,0:0:0:0:
431,288,14851,2,0,P|459:271|475:248,2,46.6666634877523,10|2|2,0:0|0:0|0:0,0:0:0:0:
402,210,15164,6,0,L|415:70,1,139.999990463257,2|8,1:2|0:0,0:0:0:0:
463,7,15632,1,2,1:2:0:0:
189,250,15945,70,0,L|180:153,1,69.9999952316285,8|2,0:0|1:2,0:0:0:0:
146,109,16257,1,8,0:0:0:0:
257,138,16414,6,0,P|305:149|340:135,1,69.9999952316285,2|0,1:2|1:2,0:0:0:0:
371,77,16726,1,8,0:0:0:0:
299,4,16882,2,0,P|288:52|302:87,1,69.9999952316285,2|0,1:2|0:0,0:0:0:0:
401,158,17195,1,2,0:0:0:0:
401,158,17351,1,10,0:0:0:0:
437,304,17664,70,0,L|341:290,1,69.9999952316285,2|0,1:2|1:2,0:0:0:0:
299,257,17976,1,8,0:0:0:0:
299,257,18132,2,0,P|290:312|303:339,1,69.9999952316285,2|0,1:2|0:0,0:0:0:0:
373,210,18445,1,2,0:0:0:0:
373,210,18601,2,0,P|382:155|369:128,1,69.9999952316285,10|2,0:0|0:0,0:0:0:0:
368,132,18835,1,2,0:0:0:0:
357,127,18914,6,0,L|276:138,1,69.9999952316285,2|0,1:2|1:2,0:0:0:0:
163,52,19226,2,0,L|232:42,1,69.9999952316285,8|2,0:0|1:2,0:0:0:0:
155,190,19539,1,8,0:0:0:0:
206,130,19695,1,2,1:2:0:0:
236,202,19851,2,0,L|226:271,1,69.9999952316285,10|0,0:0|1:2,0:0:0:0:
58,230,20164,69,10,1:2:0:0:
58,230,20320,1,8,1:2:0:0:
138,287,20476,2,0,L|131:335,1,34.9999976158143,0|8,2:0|0:0,0:0:0:0:
152,190,20710,2,0,L|156:155,1,34.9999976158143,8|0,0:0|1:2,0:0:0:0:
253,266,20945,5,2,0:0:0:0:
336,237,21101,1,10,0:0:0:0:
353,245,21414,70,0,P|396:254|446:253,1,69.9999952316285,6|2,1:2|0:0,0:0:0:0:
399,169,21726,1,10,0:0:0:0:
494,284,21882,2,0,B|519:209|467:221|488:148,2,139.999990463257,2|10|2,1:2|0:0|1:2,0:0:0:0:
240,60,22898,6,0,P|305:90|337:109,1,104.999992847443,2|2,0:0|1:2,0:0:0:0:
401,63,23289,2,0,P|379:113|404:169,2,104.999992847443,2|2|2,0:0|0:0|1:2,0:0:0:0:
316,185,23914,70,0,P|253:203|166:258,1,139.999990463257,2|8,1:2|0:0,0:0:0:0:
82,227,24382,2,0,B|82:216|104:196|104:196|90:246|103:290|128:315,1,139.999990463257,2|8,1:2|0:0,0:0:0:0:
198,326,24851,2,0,P|245:316|274:295,1,69.9999952316285,2|2,0:0|1:2,0:0:0:0:
368,251,25164,5,0,1:2:0:0:
368,251,25320,2,0,P|360:309|365:330,1,69.9999952316285,2|10,0:0|0:0,0:0:0:0:
444,289,25632,1,0,1:2:0:0:
351,165,25789,2,0,P|405:175|442:210,2,104.999992847443,10|10|2,0:0|0:0|1:2,0:0:0:0:
184,82,26570,70,0,P|169:126|166:171,1,69.9999952316285,2|8,0:0|0:0,0:0:0:0:
88,148,26882,2,0,P|131:144|194:211,1,139.999990463257,2|8,1:2|0:0,0:0:0:0:
180,285,27351,2,0,P|133:272|123:243,1,69.9999952316285,0|0,0:0|1:2,0:0:0:0:
275,268,27664,6,0,P|269:327|273:357,1,69.9999952316285,2|2,1:2|0:0,0:0:0:0:
354,306,27976,1,10,0:0:0:0:
316,190,28132,2,0,P|309:152|311:33,2,139.999990463257,2|10|2,1:2|0:0|1:2,0:0:0:0:
410,236,28914,69,2,1:2:0:0:
410,236,29070,1,2,0:0:0:0:
462,176,29226,1,10,0:0:0:0:
410,113,29382,2,0,B|368:98|338:118|346:129|318:153|249:132,2,139.999990463257,2|10|2,1:2|0:0|1:2,0:0:0:0:
490,102,30164,5,2,1:2:0:0:
261,219,30476,2,0,L|174:208,1,69.9999952316285,8|2,0:0|1:2,0:0:0:0:
115,184,30789,1,8,0:0:0:0:
115,184,30945,1,8,0:0:0:0:
125,262,31101,2,0,B|123:301|123:301|151:337,1,69.9999952316285,2|0,1:2|1:2,0:0:0:0:
321,281,31414,70,0,P|340:241|339:194,1,69.9999952316285,6|2,1:2|0:0,0:0:0:0:
301,143,31726,1,10,0:0:0:0:
235,268,31882,2,0,P|272:351|335:368,1,139.999990463257,2|10,1:2|0:0,0:0:0:0:
415,296,32351,1,2,0:0:0:0:
415,296,32507,1,2,1:2:0:0:
342,215,32664,6,0,L|189:227,1,139.999990463257,0|8,1:2|0:0,0:0:0:0:
135,181,33132,1,0,1:2:0:0:
122,328,33289,2,0,L|134:240,1,69.9999952316285,2|10,0:0|0:0,0:0:0:0:
207,146,33601,2,0,L|219:58,1,69.9999952316285,2|2,0:0|1:2,0:0:0:0:
133,37,33914,70,0,P|86:43|53:53,2,69.9999952316285,0|0|8,1:2|0:0|0:0,0:0:0:0:
207,146,34382,2,0,P|283:160|345:193,1,139.999990463257,2|8,1:2|0:0,0:0:0:0:
414,119,34851,2,0,P|416:161|431:205,1,69.9999952316285,2|0,0:0|1:2,0:0:0:0:
325,76,35164,5,2,1:2:0:0:
377,349,35476,2,0,P|379:307|394:263,1,69.9999952316285,10|2,0:0|1:2,0:0:0:0:
311,227,35789,1,10,0:0:0:0:
284,314,35945,1,2,1:2:0:0:
284,314,36023,1,8,0:0:0:0:
284,314,36101,2,0,P|242:316|198:331,1,69.9999952316285,10|0,0:0|1:2,0:0:0:0:
83,318,36414,70,0,P|120:270|126:181,1,139.999990463257,2|8,1:2|0:0,0:0:0:0:
52,109,36882,1,2,1:2:0:0:
52,109,37039,2,0,P|43:155|42:200,1,69.9999952316285,0|8,0:0|0:0,0:0:0:0:
149,110,37351,2,0,P|146:75|138:40,1,69.9999952316285,0|0,0:0|1:2,0:0:0:0:
202,191,37664,6,0,P|266:163|361:162,1,139.999990463257,2|8,1:2|0:0,0:0:0:0:
412,180,38132,1,2,1:2:0:0:
401,31,38289,2,0,P|392:77|391:122,1,69.9999952316285,2|10,0:0|0:0,0:0:0:0:
495,165,38601,1,2,0:0:0:0:
495,165,38757,1,2,1:2:0:0:
398,256,38914,70,0,P|328:250|264:222,1,139.999990463257,2|8,1:2|0:0,0:0:0:0:
167,338,39382,2,0,P|187:288|192:246,2,69.9999952316285,2|0|8,1:2|0:0|0:0,0:0:0:0:
274,381,39851,2,0,P|270:327|257:287,1,69.9999952316285,2|0,0:0|1:2,0:0:0:0:
188,187,40164,6,0,B|167:170|167:170|128:169|87:187|60:233,1,139.999990463257,2|8,1:2|0:0,0:0:0:0:
113,318,40632,1,2,1:2:0:0:
113,318,40710,1,0,1:2:0:0:
113,318,40789,2,0,P|142:268|149:235,1,69.9999952316285,8|8,0:0|0:0,0:0:0:0:
37,157,41101,2,0,P|49:189|69:218,1,69.9999952316285,2|8,1:2|1:2,0:0:0:0:
188,187,41414,69,6,1:2:0:0:
175,158,55007,6,0,B|192:127|192:127|225:159,1,69.9999952316285,2|2,0:0|0:0,0:0:0:0:
231,260,55632,70,0,B|214:291|214:291|181:259,1,69.9999952316285,2|2,0:0|0:0,0:0:0:0:
397,220,56257,5,2,0:0:0:0:
397,220,56414,2,0,L|263:187,2,104.999992847443,2|0|0,0:0|0:0|0:0,0:0:0:0:
255,96,60320,70,0,P|261:143|279:170,1,69.9999952316285,2|2,0:0|0:0,0:0:0:0:
207,210,60632,2,0,P|244:238|276:245,1,69.9999952316285,2|2,0:0|0:0,0:0:0:0:
341,214,60945,1,2,0:0:0:0:
341,214,61101,1,2,0:0:0:0:
351,134,61257,1,2,0:0:0:0:
422,269,61414,6,0,P|453:171|480:124,1,139.999990463257,6|8,1:2|0:0,0:0:0:0:
491,8,61882,2,0,P|470:40|357:48,1,139.999990463257,2|8,1:2|0:0,0:0:0:0:
284,28,62351,2,0,P|293:69|294:108,1,69.9999952316285,2|0,0:0|1:2,0:0:0:0:
180,104,62664,69,0,1:2:0:0:
180,104,62820,2,0,P|171:145|170:184,1,69.9999952316285,2|8,0:0|0:0,0:0:0:0:
292,218,63132,1,0,1:2:0:0:
221,253,63289,2,0,P|230:294|231:333,1,69.9999952316285,2|8,1:2|0:0,0:0:0:0:
311,366,63601,2,0,P|313:331|321:297,1,69.9999952316285,0|2,1:2|1:2,0:0:0:0:
399,218,63914,5,0,1:2:0:0:
399,218,64070,2,0,L|491:230,1,69.9999952316285,2|8,0:0|0:0,0:0:0:0:
449,123,64382,1,0,1:2:0:0:
367,134,64539,2,0,L|202:155,2,139.999990463257,2|2|2,1:2|0:0|1:2,0:0:0:0:
89,52,65476,69,8,0:0:0:0:
89,52,65632,2,0,P|78:95|91:135,2,69.9999952316285,2|8|0,1:2|0:0|1:2,0:0:0:0:
175,17,66101,1,2,1:2:0:0:
161,92,66258,1,2,1:2:0:0:
147,167,66414,1,2,1:2:0:0:
39,311,66726,5,8,0:0:0:0:
39,311,66882,2,0,P|86:281|181:296,1,139.999990463257,0|8,1:2|0:0,0:0:0:0:
250,283,67351,2,0,P|238:332|235:372,1,69.9999952316285,2|0,0:0|1:2,0:0:0:0:
346,319,67664,69,2,1:2:0:0:
346,319,67820,2,0,P|320:229|296:183,1,139.999990463257,2|0,0:0|1:2,0:0:0:0:
408,110,68289,2,0,P|396:159|393:199,1,69.9999952316285,2|8,1:2|0:0,0:0:0:0:
318,100,68601,2,0,P|313:65|303:31,1,69.9999952316285,2|0,1:2|1:2,0:0:0:0:
393,24,68914,5,2,1:2:0:0:
195,244,69226,1,8,0:0:0:0:
195,244,69382,2,0,P|159:205|68:193,1,139.999990463257,2|8,1:2|0:0,0:0:0:0:
15,245,69851,2,0,L|32:336,1,69.9999952316285,2|0,0:0|1:2,0:0:0:0:
100,360,70164,69,2,1:2:0:0:
339,234,70476,1,8,0:0:0:0:
339,234,70632,1,2,1:2:0:0:
261,174,70789,2,0,L|244:265,1,69.9999952316285,8|8,0:0|0:0,0:0:0:0:
295,308,71101,1,2,1:2:0:0:
496,121,71414,6,0,P|456:139|427:173,1,69.9999952316285,4|0,1:2|0:0,0:0:0:0:
412,70,71726,1,10,0:0:0:0:
332,129,71882,2,0,P|263:100|166:91,1,139.999990463257,2|8,1:2|1:2,0:0:0:0:
130,33,72351,1,10,0:0:0:0:
130,33,72507,1,2,1:2:0:0:
110,186,72664,70,0,L|126:103,1,69.9999952316285,2|0,1:2|0:0,0:0:0:0:
47,71,72976,1,10,0:0:0:0:
28,193,73132,2,0,L|54:330,1,139.999990463257,2|10,1:2|0:0,0:0:0:0:
145,362,73601,2,0,L|161:279,1,69.9999952316285,2|2,1:2|1:2,0:0:0:0:
200,177,73914,5,2,1:2:0:0:
200,177,74070,1,2,0:0:0:0:
255,256,74226,1,10,0:0:0:0:
255,256,74382,1,2,1:2:0:0:
296,167,74539,2,0,P|298:117|296:71,1,69.9999952316285,2|10,1:2|1:2,0:0:0:0:
351,245,74851,2,0,P|350:279|352:314,1,69.9999952316285,10|2,0:0|1:2,0:0:0:0:
446,144,75164,70,0,P|396:155|371:179,2,69.9999952316285,2|2|10,1:2|0:0|0:0,0:0:0:0:
508,205,75632,1,2,1:2:0:0:
510,81,75789,2,0,P|466:53|432:52,1,69.9999952316285,10|2,0:0|1:2,0:0:0:0:
430,53,76023,1,8,0:0:0:0:
415,57,76101,2,0,P|376:65|340:84,1,69.9999952316285,2|2,1:2|1:2,0:0:0:0:
303,239,76414,6,0,P|281:156|245:91,1,139.999990463257,2|10,1:2|0:0,0:0:0:0:
195,58,76882,2,0,P|220:34|254:30,2,69.9999952316285,2|0|10,1:2|1:2|0:0,0:0:0:0:
80,138,77351,70,0,P|155:141|186:206,1,139.999990463257,10|2,0:0|1:2,0:0:0:0:
130,304,77820,2,0,P|112:254|111:222,1,69.9999952316285,2|8,0:0|0:0,0:0:0:0:
211,277,78132,1,2,1:2:0:0:
50,340,78289,6,0,L|190:356,1,139.999990463257,2|2,1:2|1:2,0:0:0:0:
272,338,78757,1,2,1:2:0:0:
330,160,78914,6,0,P|387:168|449:208,1,104.999992847443,14|14,1:2|0:0,0:0:0:0:
400,367,79382,5,14,0:0:0:0:
295,245,79617,1,14,0:0:0:0:
148,297,79851,1,14,0:0:0:0:
190,133,80085,38,0,L|198:179,1,34.9999976158143,14|0,0:0|1:2,0:0:0:0:
488,85,81414,22,0,B|447:71|425:99|431:106|403:128|338:108,1,139.999990463257,6|8,1:2|0:0,0:0:0:0:
234,51,81882,1,2,1:2:0:0:
234,51,81960,1,0,1:2:0:0:
234,51,82039,2,0,P|251:105|254:142,1,69.9999952316285,0|0,1:2|1:2,0:0:0:0:
310,204,82351,1,8,0:0:0:0:
135,281,82664,6,0,P|141:246|153:213,1,69.9999952316285,2|2,1:2|1:2,0:0:0:0:
48,201,82976,1,10,0:0:0:0:
62,336,83132,2,0,P|111:370|202:344,1,139.999990463257,2|0,1:2|1:2,0:0:0:0:
264,266,83601,2,0,P|258:231|246:198,1,69.9999952316285,10|0,0:0|0:0,0:0:0:0:
397,172,83914,70,0,P|373:234|349:336,1,139.999990463257,2|8,1:2|0:0,0:0:0:0:
455,359,84382,1,0,1:2:0:0:
455,359,84460,1,0,1:2:0:0:
455,359,84539,2,0,P|501:339|510:316,1,69.9999952316285,2|0,1:2|1:2,0:0:0:0:
512,211,84851,1,10,0:0:0:0:
366,59,85164,6,0,P|307:73|207:77,1,139.999990463257,2|10,1:2|0:0,0:0:0:0:
119,35,85632,2,0,P|111:64|119:112,1,69.9999952316285,2|0,1:2|1:2,0:0:0:0:
180,171,85945,2,0,P|188:200|180:248,1,69.9999952316285,2|8,1:2|0:0,0:0:0:0:
135,356,86257,69,2,1:2:0:0:
68,300,86414,2,0,B|62:278|62:278|114:239|196:274,1,139.999990463257,0|8,1:2|0:0,0:0:0:0:
265,364,86882,1,0,1:2:0:0:
265,364,86960,1,0,1:2:0:0:
265,364,87039,2,0,L|277:270,1,69.9999952316285,2|0,1:2|1:2,0:0:0:0:
276,204,87351,1,10,0:0:0:0:
469,329,87664,5,2,1:2:0:0:
469,329,87820,1,0,1:2:0:0:
418,246,87976,1,10,0:0:0:0:
418,246,88132,1,0,1:2:0:0:
479,168,88289,2,0,P|490:104|492:67,1,69.9999952316285,2|0,1:2|1:2,0:0:0:0:
386,60,88601,2,0,P|375:124|373:161,1,69.9999952316285,10|0,0:0|1:2,0:0:0:0:
418,246,88914,70,0,P|358:218|283:210,1,139.999990463257,2|8,1:2|0:0,0:0:0:0:
180,262,89382,1,0,1:2:0:0:
180,262,89460,1,0,1:2:0:0:
180,262,89539,2,0,P|190:305|199:332,1,69.9999952316285,0|0,1:2|1:2,0:0:0:0:
204,174,89851,1,10,0:0:0:0:
204,174,90007,1,2,0:0:0:0:
85,246,90164,5,2,1:2:0:0:
85,246,90320,2,0,P|103:186|104:158,1,69.9999952316285,2|8,1:2|0:0,0:0:0:0:
18,110,90632,2,0,P|0:50|-1:22,1,69.9999952316285,2|0,1:2|1:2,0:0:0:0:
135,18,90945,1,0,1:2:0:0:
101,90,91101,1,10,0:0:0:0:
263,241,91414,70,0,B|296:226|300:187|300:187|332:209|389:189,1,139.999990463257,6|8,1:2|0:0,0:0:0:0:
485,113,91882,1,2,1:2:0:0:
485,113,91960,1,0,1:2:0:0:
485,113,92039,2,0,P|473:51|475:20,1,69.9999952316285,0|0,1:2|1:2,0:0:0:0:
383,10,92351,1,8,0:0:0:0:
459,210,92664,6,0,P|456:244|446:278,1,69.9999952316285,2|2,1:2|1:2,0:0:0:0:
463,364,92976,1,10,0:0:0:0:
362,273,93132,2,0,P|304:265|226:329,1,139.999990463257,2|0,1:2|1:2,0:0:0:0:
157,356,93601,2,0,P|147:322|144:287,1,69.9999952316285,10|0,0:0|0:0,0:0:0:0:
199,173,93914,70,0,P|214:127|224:29,1,139.999990463257,2|8,1:2|0:0,0:0:0:0:
77,67,94382,1,0,1:2:0:0:
77,67,94460,1,0,1:2:0:0:
77,67,94539,2,0,P|83:101|96:133,1,69.9999952316285,2|0,1:2|1:2,0:0:0:0:
199,173,94851,2,0,P|233:166|265:153,1,69.9999952316285,10|0,0:0|0:0,0:0:0:0:
369,56,95164,6,0,P|356:109|391:202,1,139.999990463257,2|8,1:2|0:0,0:0:0:0:
500,243,95632,2,0,B|459:232|432:247|438:260|411:284|358:271,1,139.999990463257,0|0,1:2|1:2,0:0:0:0:
274,240,96101,1,8,0:0:0:0:
66,346,96414,69,2,1:2:0:0:
66,346,96570,1,2,0:0:0:0:
138,273,96726,1,10,0:0:0:0:
48,222,96882,2,0,P|41:176|44:76,1,139.999990463257,2|0,1:2|1:2,0:0:0:0:
95,21,97351,1,8,0:0:0:0:
230,190,97664,6,0,P|276:133|367:138,1,139.999990463257,2|10,1:2|0:0,0:0:0:0:
437,166,98132,2,0,P|425:213|429:252,1,69.9999952316285,2|0,1:2|1:2,0:0:0:0:
326,224,98445,1,2,1:2:0:0:
326,224,98601,1,8,0:0:0:0:
496,349,98914,69,2,1:2:0:0:
496,349,99070,2,0,L|352:335,1,139.999990463257,8|0,0:0|1:2,0:0:0:0:
340,332,99460,1,0,1:2:0:0:
326,329,99539,2,0,B|284:326|284:326|242:323|220:354,2,104.999992847443,8|8|8,0:0|0:0|0:0,0:0:0:0:
336,249,100164,5,8,0:0:0:0:
176,273,100398,1,8,0:0:0:0:
17,298,100632,1,8,0:0:0:0:
17,298,100789,37,8,1:2:0:0:
248,48,101414,6,0,P|320:59|373:135,1,139.999990463257,6|8,1:2|0:0,0:0:0:0:
289,243,102039,2,0,P|217:232|164:156,1,139.999990463257,0|8,1:2|0:0,0:0:0:0:
41,74,102664,70,0,L|18:159,2,46.6666634877523,2|0|2,1:2|0:0|1:2,0:0:0:0:
16,2,102976,2,0,P|64:-1|107:37,1,93.3333269755047,10|2,0:0|1:2,0:0:0:0:
142,286,103601,2,0,P|115:245|126:189,1,93.3333269755047,10|8,0:0|0:0,0:0:0:0:
185,160,103914,6,0,L|333:186,1,139.999990463257,2|8,1:2|0:0,0:0:0:0:
449,92,104539,2,0,P|411:46|321:39,1,139.999990463257,2|10,1:2|0:0,0:0:0:0:
218,343,105164,70,0,P|274:317|360:294,1,139.999990463257,2|10,1:2|0:0,0:0:0:0:
482,291,105684,2,0,P|433:278|440:191,2,139.999990463257,2|10|10,1:2|0:0|0:0,0:0:0:0:
509,212,106414,5,0,1:2:0:0:
277,58,107039,2,0,P|209:60|131:131,1,139.999990463257,2|10,1:2|0:0,0:0:0:0:
29,230,107664,70,0,L|19:168,2,46.6666634877523,2|0|2,1:2|0:0|1:2,0:0:0:0:
101,258,107976,2,0,L|83:368,1,93.3333269755047,10|2,0:0|1:2,0:0:0:0:
300,371,108601,2,0,P|357:350|387:326,1,93.3333269755047,10|0,0:0|0:0,0:0:0:0:
418,262,108914,6,0,L|402:169,1,93.3333269755047,2|8,1:2|0:0,0:0:0:0:
398,150,109226,1,8,0:0:0:0:
485,66,109434,2,0,L|479:123,1,46.6666634877523,0|0,1:2|1:2,0:0:0:0:
306,190,109851,2,0,P|247:192|185:167,1,93.3333269755047,10|10,1:2|0:0,0:0:0:0:
222,104,110164,70,0,P|281:102|343:127,1,93.3333269755047,14|2,0:0|1:2,0:0:0:0:
77,191,110684,2,0,P|70:121|45:56,2,139.999990463257,2|2|2,1:2|1:2|1:2,0:0:0:0:
75,277,111414,6,0,P|115:208|204:212,1,139.999990463257,14|8,0:0|0:0,0:0:0:0:
259,303,112039,2,0,P|219:372|130:368,1,139.999990463257,0|8,1:2|0:0,0:0:0:0:
264,177,112664,70,0,P|300:180|324:196,2,46.6666634877523,2|0|2,1:2|0:0|1:2,0:0:0:0:
202,131,112976,2,0,P|244:102|293:100,1,93.3333269755047,10|2,0:0|1:2,0:0:0:0:
512,115,113601,6,0,P|466:109|428:82,1,93.3333269755047,10|8,0:0|0:0,0:0:0:0:
382,18,113914,2,0,P|400:62|419:176,1,139.999990463257,2|8,1:2|0:0,0:0:0:0:
405,327,114539,70,0,P|363:304|304:293,1,93.3333269755047,2|8,1:2|0:0,0:0:0:0:
250,325,114851,2,0,P|208:348|149:359,1,93.3333269755047,10|0,0:0|0:0,0:0:0:0:
93,321,115164,6,0,P|79:248|53:171,1,139.999990463257,2|0,1:2|1:2,0:0:0:0:
234,59,115789,2,0,P|212:125|199:194,1,139.999990463257,0|0,1:2|1:2,0:0:0:0:
373,219,116414,6,0,L|458:203,1,69.9999952316285,6|2,1:2|1:2,0:0:0:0:
508,153,116726,1,10,0:0:0:0:
429,65,116882,1,2,1:2:0:0:
429,65,116960,1,0,1:2:0:0:
429,65,117039,2,0,P|414:102|415:144,1,69.9999952316285,0|0,1:2|1:2,0:0:0:0:
441,206,117351,1,8,0:0:0:0:
295,337,117664,6,0,P|234:320|157:311,1,139.999990463257,2|10,1:2|0:0,0:0:0:0:
47,271,118132,2,0,P|66:317|77:368,1,69.9999952316285,2|0,1:2|1:2,0:0:0:0:
129,226,118445,1,2,1:2:0:0:
129,226,118601,1,8,0:0:0:0:
13,62,118914,38,0,P|68:102|162:107,1,139.999990463257,2|8,1:2|0:0,0:0:0:0:
207,52,119382,2,0,P|172:29|136:21,1,69.9999952316285,0|0,1:2|1:2,0:0:0:0:
236,144,119695,1,8,1:2:0:0:
302,67,119851,2,0,P|293:25|273:-5,1,69.9999952316285,8|0,0:0|1:2,0:0:0:0:
236,144,120164,6,0,P|292:178|340:168,2,104.999992847443,8|8|8,0:0|1:2|1:2,0:0:0:0:
181,205,120789,1,8,0:0:0:0:
381,283,121023,1,8,0:0:0:0:
229,363,121257,1,8,0:0:0:0:
293,311,121414,38,0,B|269:272|269:272|157:302,1,139.999990463257,2|0,1:1|1:1,0:0:0:0:
24,343,121882,2,0,B|69:341|69:341|99:229,1,139.999990463257,2|0,1:1|1:1,0:0:0:0:
67,108,122351,2,0,B|56:128|56:128|97:169,2,69.9999952316285,2|0|0,1:1|0:0|1:1,0:0:0:0:
176,187,122820,6,0,B|245:172|245:172|249:174|249:174|319:157,1,139.999990463257,2|0,1:1|1:1,0:0:0:0:
413,197,123289,1,2,1:1:0:0:
413,197,123757,1,2,1:2:0:0:
501,116,123914,70,0,B|449:70|449:70|376:79,1,139.999990463257,2|0,1:1|1:1,0:0:0:0:
307,156,124382,2,0,B|293:224|293:224|337:282,1,139.999990463257,2|0,1:1|1:1,0:0:0:0:
454,325,124851,2,0,L|510:271,1,69.9999952316285,2|0,1:1|0:0,0:0:0:0:
512,198,125164,1,0,1:1:0:0:
389,210,125320,6,0,L|244:230,1,139.999990463257,2|0,1:1|1:1,0:0:0:0:
183,310,125789,1,2,1:1:0:0:
183,310,126101,1,8,0:0:0:0:
156,230,126257,1,0,1:1:0:0:
47,177,126414,70,0,B|43:244|43:244|40:246|40:246|35:336,1,139.999990463257,2|0,1:1|1:1,0:0:0:0:
156,230,126882,2,0,B|159:160|159:160|162:158|162:158|166:91,1,139.999990463257,2|0,1:1|1:1,0:0:0:0:
6,57,127351,2,0,B|-16:98|-16:98|91:84,1,139.999990463257,2|0,1:1|1:1,0:0:0:0:
180,14,127820,6,0,L|249:20,1,69.9999952316285,2|0,1:1|0:0,0:0:0:0:
334,14,128132,1,0,1:1:0:0:
282,108,128289,1,2,1:1:0:0:
282,108,128757,1,2,1:2:0:0:
395,96,128914,70,0,L|383:181,1,69.9999952316285,2|0,1:1|0:0,0:0:0:0:
307,219,129226,1,0,1:1:0:0:
307,219,129382,2,0,L|316:288,1,69.9999952316285,2|0,1:1|0:0,0:0:0:0:
427,339,129695,5,0,1:1:0:0:
427,339,129851,1,2,1:1:0:0:
472,265,130007,1,8,0:0:0:0:
472,265,130164,1,8,1:1:0:0:
385,205,130320,70,0,L|246:185,1,139.999990463257,2|0,1:1|1:1,0:0:0:0:
159,175,130789,2,0,B|156:211|156:211|180:249,1,69.9999952316285,2|0,1:1|0:0,0:0:0:0:
217,109,131101,1,8,0:0:0:0:
217,109,131257,1,0,1:1:0:0:
83,29,131414,5,2,1:1:0:0:
71,109,131570,2,0,B|107:112|107:112|145:88,1,69.9999952316285,8|0,0:0|1:1,0:0:0:0:
258,24,131882,2,0,B|310:23|310:23|395:92,1,139.999990463257,10|8,1:1|1:1,0:0:0:0:
506,96,132351,2,0,B|471:74|471:74|438:181,1,139.999990463257,2|8,1:1|1:1,0:0:0:0:
468,340,132820,70,0,L|463:254,1,69.9999952316285,2|0,1:1|0:0,0:0:0:0:
365,229,133132,1,8,1:1:0:0:
365,229,133289,2,0,L|360:298,1,69.9999952316285,2|8,1:1|1:1,0:0:0:0:
272,349,133601,1,8,1:1:0:0:
248,272,133757,1,2,1:2:0:0:
119,357,133914,6,0,B|156:353|156:353|166:244,1,139.999990463257,2|8,1:1|1:1,0:0:0:0:
60,179,134382,2,0,B|75:185|75:185|139:163,2,69.9999952316285,2|0|8,1:1|0:0|1:1,0:0:0:0:
184,95,134851,2,0,B|253:115|253:115|254:118|254:118|332:138,1,139.999990463257,2|8,1:1|1:1,0:0:0:0:
476,162,135320,70,0,L|491:94,1,69.9999952316285,2|0,1:1|0:0,0:0:0:0:
412,48,135632,1,8,1:1:0:0:
412,48,135789,2,0,L|396:124,1,69.9999952316285,2|0,1:1|0:0,0:0:0:0:
369,276,136101,1,8,0:0:0:0:
388,287,136179,1,8,0:0:0:0:
409,288,136257,1,10,2:2:0:0:
406,211,136414,21,6,0:0:0:0:
405,206,137664,5,6,0:0:0:0:
405,206,138757,69,2,2:2:0:0:
308,235,138914,1,6,0:0:0:0:
256,192,138992,12,0,145164,0:0:0:0:
