osu file format v14

[General]
AudioFilename: audio.mp3
AudioLeadIn: 0
PreviewTime: 95443
Countdown: 0
SampleSet: Soft
StackLeniency: 0.4
Mode: 0
LetterboxInBreaks: 0
WidescreenStoryboard: 0

[Editor]
DistanceSpacing: 1.1
BeatDivisor: 4
GridSize: 4
TimelineZoom: 2

[Metadata]
Title:Blackorient
TitleUnicode:Blackorient
Artist:Sound Souler
ArtistUnicode:Sound Souler
Creator:Cris-
Version:Hard
Source:osu!
Tags:Krisom Hazu- walaowey Monthly Beatmapping Contest #3 MBC Three March No Slider Velocity Changes Mappers' Guild Featured Artist FA Electronic Instrumental
BeatmapID:2545150
BeatmapSetID:1153032

[Difficulty]
HPDrainRate:4
CircleSize:4
OverallDifficulty:6
ApproachRate:7.5
SliderMultiplier:1.4
SliderTickRate:1

[Events]
//Background and Video events
0,0,"Blackorient.jpg",0,0
//Break Periods
2,52662,54714
2,58816,70099
//Storyboard Layer 0 (Background)
//Storyboard Layer 1 (Fail)
//Storyboard Layer 2 (Pass)
//Storyboard Layer 3 (Foreground)
//Storyboard Layer 4 (Overlay)
//Storyboard Sound Samples

[TimingPoints]
3232,384.615384615385,4,2,1,60,1,0
3232,-100,4,2,1,60,0,0
14770,-100,4,2,1,65,0,0
15539,-100,4,2,1,60,0,0
15828,-100,4,2,1,5,0,0
15924,-100,4,2,1,65,0,0
21693,-90.9090909090909,4,2,1,65,0,0
24770,-90.9090909090909,4,2,1,70,0,0
26308,-90.9090909090909,4,2,1,5,0,0
26501,-90.9090909090909,4,2,1,35,0,0
26693,-90.9090909090909,4,2,1,40,0,0
26885,-90.9090909090909,4,2,1,45,0,0
27078,-90.9090909090909,4,2,1,50,0,0
27270,-90.9090909090909,4,2,1,55,0,0
27462,-90.9090909090909,4,2,1,60,0,0
27655,-90.9090909090909,4,2,1,65,0,0
27847,-83.3333333333333,4,2,1,80,0,1
32270,-83.3333333333333,4,2,1,80,0,0
32462,-83.3333333333333,4,2,1,80,0,1
32558,-83.3333333333333,4,2,1,80,0,0
32751,-83.3333333333333,4,2,1,5,0,0
32847,-83.3333333333333,4,2,1,80,0,1
32943,-83.3333333333333,4,2,1,80,0,0
33135,-83.3333333333333,4,2,1,5,0,0
33232,-83.3333333333333,4,2,1,80,0,1
33328,-83.3333333333333,4,2,1,80,0,0
33520,-83.3333333333333,4,2,1,5,0,0
33616,-83.3333333333333,4,2,1,80,0,1
33712,-83.3333333333333,4,2,1,80,0,0
34001,-83.3333333333333,4,2,1,80,0,1
36693,-83.3333333333333,4,2,2,80,0,0
37078,-83.3333333333333,4,2,1,80,0,1
38424,-83.3333333333333,4,2,1,80,0,0
38616,-83.3333333333333,4,2,1,80,0,1
38712,-83.3333333333333,4,2,1,80,0,0
39289,-83.3333333333333,4,2,1,5,0,0
39385,-83.3333333333333,4,2,1,80,0,1
39482,-83.3333333333333,4,2,1,80,0,0
40058,-83.3333333333333,4,2,1,5,0,0
40155,-83.3333333333333,4,2,2,80,0,0
40539,-83.3333333333333,4,2,1,80,0,1
44578,-83.3333333333333,4,2,1,80,0,0
44770,-83.3333333333333,4,2,1,80,0,1
44866,-83.3333333333333,4,2,1,80,0,0
45058,-83.3333333333333,4,2,1,5,0,0
45155,-83.3333333333333,4,2,1,80,0,1
45251,-83.3333333333333,4,2,1,80,0,0
45443,-83.3333333333333,4,2,1,5,0,0
45539,-83.3333333333333,4,2,1,80,0,1
45635,-83.3333333333333,4,2,1,80,0,0
45828,-83.3333333333333,4,2,1,5,0,0
45924,-83.3333333333333,4,2,1,80,0,1
46020,-83.3333333333333,4,2,1,80,0,0
46693,-83.3333333333333,4,2,1,80,0,1
50155,-83.3333333333333,4,2,1,85,0,1
50539,-83.3333333333333,4,2,1,90,0,1
50828,-100,4,2,1,5,0,0
52462,-125,4,2,0,70,0,0
55539,-125,4,2,1,50,0,0
57078,-125,4,2,1,60,0,0
58135,-125,4,2,1,5,0,0
58232,-83.3333333333333,4,2,1,70,0,0
58328,-83.3333333333333,4,2,1,5,0,0
58424,-83.3333333333333,4,2,1,70,0,0
58616,-83.3333333333333,4,2,1,70,0,0
70924,-125,4,2,1,50,0,0
74001,-125,4,2,1,60,0,0
77078,-111.111111111111,4,2,1,65,0,0
82751,-100,4,2,1,5,0,0
82847,-83.3333333333333,4,2,1,70,0,0
82943,-83.3333333333333,4,2,1,5,0,0
83039,-83.3333333333333,4,2,1,70,0,0
83232,-90.9090909090909,4,2,1,70,0,0
83424,-90.9090909090909,4,2,1,5,0,0
83520,-90.9090909090909,4,2,1,70,0,0
83712,-90.9090909090909,4,2,1,5,0,0
83808,-90.9090909090909,4,2,1,70,0,0
83905,-90.9090909090909,4,2,1,5,0,0
84001,-90.9090909090909,4,2,1,70,0,0
84193,-90.9090909090909,4,2,1,5,0,0
84289,-90.9090909090909,4,2,1,70,0,0
84482,-90.9090909090909,4,2,1,5,0,0
84578,-90.9090909090909,4,2,1,70,0,0
84674,-90.9090909090909,4,2,1,5,0,0
84770,-90.9090909090909,4,2,1,70,0,0
84962,-90.9090909090909,4,2,1,5,0,0
85058,-90.9090909090909,4,2,1,70,0,0
85251,-90.9090909090909,4,2,1,5,0,0
85347,-90.9090909090909,4,2,1,60,0,0
85539,-90.9090909090909,4,2,1,70,0,0
85732,-90.9090909090909,4,2,1,5,0,0
85828,-90.9090909090909,4,2,1,70,0,0
86020,-90.9090909090909,4,2,1,5,0,0
86116,-90.9090909090909,4,2,1,70,0,0
86212,-90.9090909090909,4,2,1,5,0,0
86308,-90.9090909090909,4,2,1,70,0,0
86501,-90.9090909090909,4,2,1,5,0,0
86597,-90.9090909090909,4,2,1,70,0,0
86789,-90.9090909090909,4,2,1,5,0,0
86885,-90.9090909090909,4,2,1,70,0,0
86982,-90.9090909090909,4,2,1,5,0,0
87078,-90.9090909090909,4,2,1,70,0,0
87270,-90.9090909090909,4,2,1,5,0,0
87366,-90.9090909090909,4,2,1,70,0,0
87558,-90.9090909090909,4,2,1,5,0,0
87655,-90.9090909090909,4,2,1,70,0,0
87751,-90.9090909090909,4,2,1,5,0,0
87847,-90.9090909090909,4,2,1,70,0,0
88039,-90.9090909090909,4,2,1,5,0,0
88135,-90.9090909090909,4,2,1,70,0,0
88328,-90.9090909090909,4,2,1,5,0,0
88424,-90.9090909090909,4,2,1,70,0,0
88520,-90.9090909090909,4,2,1,5,0,0
88616,-90.9090909090909,4,2,1,70,0,0
88808,-90.9090909090909,4,2,1,5,0,0
88905,-90.9090909090909,4,2,1,70,0,0
89097,-90.9090909090909,4,2,1,5,0,0
89193,-90.9090909090909,4,2,1,70,0,0
89289,-90.9090909090909,4,2,1,5,0,0
89385,-90.9090909090909,4,2,1,65,0,0
92462,-90.9090909090909,4,2,1,65,0,0
93232,-90.9090909090909,4,2,1,70,0,0
94001,-100,4,2,1,5,0,0
95155,-83.3333333333333,4,2,1,70,0,0
95347,-83.3333333333333,4,2,1,5,0,0
95539,-83.3333333333333,4,2,1,80,0,1
100732,-83.3333333333333,4,2,1,80,0,0
100924,-83.3333333333333,4,2,1,80,0,1
101116,-83.3333333333333,4,2,1,80,0,0
101180,-83.3333333333333,4,2,1,80,0,1
101308,-83.3333333333333,4,2,1,80,0,0
101501,-83.3333333333333,4,2,1,80,0,1
101597,-83.3333333333333,4,2,1,80,0,0
101693,-83.3333333333333,4,2,1,80,0,1
106597,-83.3333333333333,4,2,1,80,0,0
106693,-83.3333333333333,4,2,1,80,0,1
106789,-83.3333333333333,4,2,1,80,0,0
107078,-83.3333333333333,4,2,1,80,0,1
107174,-83.3333333333333,4,2,1,80,0,0
107462,-83.3333333333333,4,2,1,80,0,1
107558,-83.3333333333333,4,2,1,80,0,0
107847,-83.3333333333333,4,2,1,80,0,1
113135,-83.3333333333333,4,2,1,80,0,0
113232,-83.3333333333333,4,2,1,80,0,1
113296,-83.3333333333333,4,2,1,80,0,0
113488,-83.3333333333333,4,2,1,80,0,1
113552,-83.3333333333333,4,2,1,80,0,0
113744,-83.3333333333333,4,2,1,80,0,1
113808,-83.3333333333333,4,2,1,80,0,0
114001,-83.3333333333333,4,2,1,80,0,1
120155,-100,4,2,1,65,0,0
131308,-90.9090909090909,4,2,1,75,0,1
131405,-90.9090909090909,4,2,1,5,0,0
131501,-90.9090909090909,4,2,1,75,0,0
131693,-90.9090909090909,4,2,1,75,0,1
131789,-90.9090909090909,4,2,1,5,0,0
131885,-90.9090909090909,4,2,1,75,0,0
132078,-90.9090909090909,4,2,1,75,0,1
132174,-90.9090909090909,4,2,1,5,0,0
132270,-90.9090909090909,4,2,1,75,0,0
132462,-83.3333333333333,4,2,1,80,0,0
132847,-83.3333333333333,4,2,1,80,0,1
132943,-83.3333333333333,4,2,1,5,0,0
133039,-83.3333333333333,4,2,1,80,0,1
133232,-83.3333333333333,4,2,1,80,0,0
133424,-83.3333333333333,4,2,1,80,0,1
133520,-83.3333333333333,4,2,1,5,0,0
133616,-83.3333333333333,4,2,1,80,0,1
133808,-83.3333333333333,4,2,1,80,0,0
134001,-83.3333333333333,4,2,1,80,0,1
134097,-83.3333333333333,4,2,1,5,0,0
134193,-83.3333333333333,4,2,1,80,0,1
134385,-83.3333333333333,4,2,1,80,0,0
134578,-83.3333333333333,4,2,1,80,0,1
134674,-83.3333333333333,4,2,1,5,0,0
134770,-83.3333333333333,4,2,1,80,0,1
135539,-83.3333333333333,4,2,1,80,0,0
135924,-83.3333333333333,4,2,1,80,0,1
136020,-83.3333333333333,4,2,1,5,0,1
136116,-83.3333333333333,4,2,1,80,0,1
136308,-83.3333333333333,4,2,1,80,0,0
136501,-83.3333333333333,4,2,1,80,0,1
136597,-83.3333333333333,4,2,1,5,0,1
136693,-83.3333333333333,4,2,1,80,0,1
136789,-83.3333333333333,4,2,1,80,0,0
136885,-83.3333333333333,4,2,1,80,0,1
136982,-83.3333333333333,4,2,1,5,0,0
137078,-83.3333333333333,4,2,1,80,0,1
138424,-83.3333333333333,4,2,1,80,0,0
138520,-83.3333333333333,4,2,1,5,0,0
138616,-83.3333333333333,4,2,1,80,0,1
141597,-83.3333333333333,4,2,1,80,0,0
141693,-83.3333333333333,4,2,1,80,0,1
143135,-83.3333333333333,4,2,1,80,0,0
143232,-83.3333333333333,4,2,1,80,0,1
143424,-83.3333333333333,4,2,1,80,0,0
143520,-83.3333333333333,4,2,1,80,0,1
143712,-83.3333333333333,4,2,1,80,0,0
143808,-83.3333333333333,4,2,1,80,0,1
143905,-83.3333333333333,4,2,1,80,0,0
144001,-83.3333333333333,4,2,1,70,0,1
144097,-83.3333333333333,4,2,1,70,0,1
144385,-83.3333333333333,4,2,1,70,0,1
144514,-83.3333333333333,4,2,1,90,0,1
144770,-83.3333333333333,4,2,1,70,0,0
144898,-83.3333333333333,4,2,1,70,0,0
147462,-83.3333333333333,4,2,1,50,0,0
147847,-83.3333333333333,4,2,0,70,0,0
147943,-83.3333333333333,4,2,1,80,0,0
152462,-83.3333333333333,4,2,1,5,0,0

[Colours]
Combo1 : 119,197,225
Combo2 : 200,96,244
Combo3 : 101,143,243
Combo4 : 237,118,237

[HitObjects]
44,100,3232,5,6,0:0:0:0:
44,100,3424,1,0,0:0:0:0:
100,164,3616,1,2,0:0:0:0:
156,100,3808,2,0,B|224:128|224:72|291:100,1,140,2|2,0:0|0:0,0:0:0:0:
348,164,4385,6,0,B|336:225|392:257|392:257|452:284|452:368|392:387|332:368|332:284|392:257|392:257|448:225|435:164,1,490,2|2,0:0|0:0,0:0:0:0:
392,88,5924,1,2,0:0:0:0:
392,88,6116,1,2,0:0:0:0:
348,164,6308,6,0,B|218:244|218:84|88:164|88:164|124:148|155:164,1,350,2|0,0:0|0:0,0:0:0:0:
155,164,7462,1,2,0:0:0:0:
122,244,7655,6,0,B|154:292|122:344|122:344|170:312|218:344,1,210,2|0,0:0|0:0,0:0:0:0:
274,280,8424,1,2,0:0:0:0:
330,344,8616,1,2,0:0:0:0:
386,280,8808,1,2,0:0:0:0:
442,344,9001,1,2,0:0:0:0:
498,280,9193,6,0,B|526:212|470:212|498:145,1,140,2|0,0:0|0:0,0:0:0:0:
442,81,9770,1,2,0:0:0:0:
386,145,9962,2,0,B|414:212|358:212|386:280,1,140,2|2,0:0|0:0,0:0:0:0:
442,344,10539,6,0,B|386:382|332:344|332:344|308:392|238:428|162:367|151:306|177:226|258:210|305:243,1,490,2|2,0:0|0:0,0:0:0:0:
386,280,12078,1,2,0:0:0:0:
386,280,12270,1,2,0:0:0:0:
464,244,12462,6,0,B|512:180|464:114|464:114|512:48|464:-16|464:-16|480:16|464:49,1,350,2|0,0:0|0:0,0:0:0:0:
463,49,13616,1,2,0:0:0:0:
383,16,13808,6,0,B|335:48|283:16|283:16|315:64|283:112,1,210,2|0,0:0|0:0,0:0:0:0:
226,176,14578,1,2,0:0:0:0:
170,112,14770,1,2,0:0:0:0:
114,176,14963,1,2,0:0:0:0:
58,112,15155,1,2,0:0:0:0:
2,176,15347,1,2,0:0:0:0:
58,240,15539,6,4,B|62:254|62:254|58:266|58:266|62:278|62:278|58:290|58:290|62:302|62:302|58:314|58:314|62:326|62:326|58:339,1,105,4|4,3:0|3:0,3:3:0:0:
57,339,15924,1,8,0:0:0:0:
136,308,16116,2,0,B|204:280|204:336|271:308,1,140,6|2,3:2|0:0,0:0:0:0:
348,342,16693,6,0,P|356:308|348:275,1,70,2|0,1:2|3:0,0:0:0:0:
272,241,17078,2,0,P|263:275|272:309,1,70,2|0,1:2|3:0,0:0:0:0:
348,274,17462,2,0,P|356:240|348:206,1,70,2|0,1:2|3:0,0:0:0:0:
272,241,17847,1,2,1:2:0:0:
238,164,18040,1,2,3:2:0:0:
315,130,18232,1,2,1:2:0:0:
348,206,18424,1,2,3:2:0:0:
272,241,18616,6,0,L|208:269,1,70,2|0,1:2|3:0,0:0:0:0:
124,269,19001,2,0,L|60:241,1,70,2|0,1:2|3:0,0:0:0:0:
60,156,19385,2,0,L|124:128,1,70,2|0,1:2|3:0,0:0:0:0:
166,200,19770,1,2,1:2:0:0:
208,128,19962,1,2,3:2:0:0:
252,200,20155,6,0,P|286:208|320:200,1,70,2|0,1:2|3:0,0:0:0:0:
320,200,20539,1,2,1:2:0:0:
364,128,20732,1,2,3:2:0:0:
408,200,20924,1,2,1:2:0:0:
452,128,21116,1,2,3:2:0:0:
504,200,21308,1,2,1:2:0:0:
504,200,21501,1,2,3:2:0:0:
452,272,21693,6,0,L|444:348,1,77.0000023498536,8|2,0:0|1:2,0:0:0:0:
352,348,22078,2,0,L|344:272,1,77.0000023498536,10|2,0:0|1:2,0:0:0:0:
252,272,22462,2,0,L|244:348,1,77.0000023498536,8|2,0:0|1:2,0:0:0:0:
152,348,22847,2,0,L|144:272,1,77.0000023498536,10|2,0:0|1:2,0:0:0:0:
198,196,23232,5,8,0:0:0:0:
252,272,23424,1,2,1:2:0:0:
306,196,23616,1,10,0:0:0:0:
360,272,23808,1,2,1:2:0:0:
414,196,24001,1,8,0:0:0:0:
468,272,24193,1,2,1:2:0:0:
468,272,24385,2,0,L|460:348,1,77.0000023498536,10|2,0:0|1:2,0:0:0:0:
368,348,24770,6,0,L|364:310,3,38.5000011749268,2|0|0|0,1:2|1:0|1:0|1:0,0:0:0:0:
360,272,25155,2,0,L|322:276,3,38.5000011749268,2|0|0|0,1:2|1:0|1:0|1:0,0:0:0:0:
284,280,25539,2,0,L|288:318,3,38.5000011749268,2|0|2|0,1:2|1:0|1:2|1:2,0:0:0:0:
292,356,25924,2,0,L|330:352,3,38.5000011749268,2|2|2|2,1:2|1:2|1:2|1:2,0:0:0:0:
436,344,26501,5,2,0:0:0:0:
436,344,26597,1,2,0:0:0:0:
436,344,26693,2,0,L|432:306,3,38.5000011749268,2|2|2|2,0:0|0:0|0:0|0:0,0:0:0:0:
428,268,27078,2,0,L|390:272,3,38.5000011749268,2|2|2|2,0:0|0:0|0:0|0:0,0:0:0:0:
352,277,27462,2,0,L|348:239,1,38.5000011749268,10|2,0:0|0:0,0:0:0:0:
344,201,27655,2,0,L|382:197,1,38.5000011749268,2|2,1:2|0:0,0:0:0:0:
424,193,27847,6,0,L|410:68,1,125.999996154785,6|0,1:2|3:0,0:0:0:0:
409,67,28232,1,8,0:0:0:0:
320,88,28424,1,0,3:0:0:0:
320,88,28520,2,0,L|279:92,1,41.9999987182618,2|0,3:2|0:0,0:0:0:0:
224,168,28808,2,0,B|192:172|192:172|176:164|176:164|143:168,1,83.9999974365235,2|8,1:0|0:0,0:0:0:0:
56,184,29193,1,2,3:2:0:0:
56,184,29289,1,2,3:2:0:0:
56,184,29385,6,0,B|52:172|56:160|56:160|48:144|48:144|56:128|56:128|52:116|56:105,1,83.9999974365235,2|0,1:2|0:0,0:0:0:0:
82,65,29674,1,0,3:0:0:0:
82,65,29770,1,8,0:0:0:0:
170,105,29962,1,0,3:2:0:0:
170,105,30058,2,0,L|170:146,2,41.9999987182618,2|0|2,3:2|0:0|0:0,0:0:0:0:
198,65,30347,1,2,1:2:0:0:
280,105,30539,2,0,P|320:117|359:105,1,83.9999974365235,10|0,0:0|3:0,0:0:0:0:
404,88,30828,1,2,3:2:0:0:
404,88,30924,6,0,B|408:120|408:120|400:136|400:136|404:169,1,83.9999974365235,6|0,1:2|0:0,0:0:0:0:
408,216,31212,2,0,L|404:257,1,41.9999987182618,8|0,0:0|0:0,0:0:0:0:
336,320,31501,2,0,L|295:316,1,41.9999987182618,2|0,3:2|1:0,0:0:0:0:
248,308,31693,1,2,3:2:0:0:
188,236,31885,2,0,B|156:232|156:232|140:240|140:240|107:236,1,83.9999974365235,2|8,1:0|0:0,0:0:0:0:
64,228,32174,1,0,1:0:0:0:
64,228,32270,1,2,3:2:0:0:
4,156,32462,6,0,B|-20:135|-28:103|-28:103|-20:71|4:51,1,125.999996154785,6|0,1:2|0:0,0:0:0:0:
36,16,32847,2,0,B|57:-8|89:-16|89:-16|121:-8|141:16,1,125.999996154785,6|0,1:2|0:0,0:0:0:0:
172,51,33232,2,0,B|196:72|204:104|204:104|196:136|172:156,1,125.999996154785,14|0,0:0|0:0,0:0:0:0:
141,192,33616,2,0,P|129:232|141:271,1,83.9999974365235,6|0,1:2|0:0,0:0:0:0:
172,308,33905,1,2,3:2:0:0:
172,308,34001,6,0,B|232:332|232:284|294:308,1,125.999996154785,2|0,0:0|3:0,0:0:0:0:
294,308,34385,1,8,0:0:0:0:
384,272,34578,1,0,3:0:0:0:
384,272,34674,2,0,L|388:231,1,41.9999987182618,2|0,3:2|0:0,0:0:0:0:
478,194,34962,2,0,B|482:162|482:162|474:146|474:146|478:113,1,83.9999974365235,2|10,1:0|0:0,0:0:0:0:
412,44,35347,1,2,3:2:0:0:
340,104,35539,5,2,1:2:0:0:
276,36,35731,1,2,3:2:0:0:
276,36,35828,1,0,1:0:0:0:
276,36,35924,2,0,L|193:28,1,83.9999974365235,10|2,0:0|3:2,0:0:0:0:
152,24,36212,1,0,1:0:0:0:
152,24,36308,2,0,L|148:65,1,41.9999987182618,2|0,0:0|0:0,0:0:0:0:
144,112,36501,2,0,B|140:144|140:144|148:160|148:160|144:193,1,83.9999974365235,2|8,1:2|0:0,0:0:0:0:
288,276,37078,6,0,B|292:244|292:244|284:228|284:228|288:195,1,83.9999974365235,6|2,1:2|0:0,0:0:0:0:
296,152,37366,1,0,3:0:0:0:
296,152,37462,1,8,0:0:0:0:
370,93,37655,1,2,3:2:0:0:
370,93,37751,1,0,1:0:0:0:
370,93,37847,1,2,0:0:0:0:
304,28,38039,2,0,B|272:24|272:24|256:32|256:32|223:28,1,83.9999974365235,2|10,1:0|0:0,0:0:0:0:
160,96,38423,1,2,3:2:0:0:
96,28,38616,6,0,B|44:96|96:163|96:163|44:228|96:297,1,293.999991027832,6|0,1:2|0:0,0:0:0:0:
132,328,39385,2,0,B|268:244|268:412|405:328,1,293.999991027832,14|0,1:2|0:0,0:0:0:0:
440,296,40155,2,0,B|448:276|440:252|440:252|448:236|448:236|440:220|440:220|448:196|440:176,1,125.999996154785,2|0,3:0|0:0,0:0:0:0:
404,144,40539,6,0,B|261:208|185:80|241:24|285:24|329:24|385:80|309:208|167:144,1,503.999984619141,6|2,1:0|1:2,0:0:0:0:
84,176,41885,5,2,3:2:0:0:
84,176,41982,1,2,0:0:0:0:
84,176,42078,2,0,L|88:217,3,41.9999987182618,2|2|2|2,1:2|0:0|3:2|0:0,0:0:0:0:
94,264,42462,2,0,L|135:260,3,41.9999987182618,10|2|2|2,0:0|0:0|3:2|0:0,0:0:0:0:
184,254,42847,2,0,L|188:295,3,41.9999987182618,2|2|10|2,1:2|0:0|0:0|3:2,0:0:0:0:
194,344,43232,1,2,1:2:0:0:
284,332,43424,6,0,B|293:282|344:275|344:275|439:261|439:261|479:256|495:213|468:176|428:182|428:182|333:195|333:195|282:203|259:157,1,503.999984619141,2|2,3:2|3:2,0:0:0:0:
184,100,44770,6,0,B|148:100|128:76|128:76|108:100|73:100,1,125.999996154785,6|0,1:2|0:0,0:0:0:0:
32,128,45155,2,0,B|32:164|8:184|8:184|32:204|32:239,1,125.999996154785,6|0,1:2|0:0,0:0:0:0:
73,264,45539,2,0,B|109:264|129:288|129:288|149:264|184:264,1,125.999996154785,14|0,0:0|0:0,0:0:0:0:
224,239,45924,2,0,P|264:227|303:239,1,83.9999974365235,6|8,1:2|0:0,0:0:0:0:
303,332,46308,2,0,P|263:344|223:332,1,83.9999974365235,2|2,3:2|3:2,0:0:0:0:
224,239,46693,6,0,B|224:139|224:139|224:99|184:79|144:99|144:139|144:139|144:191|144:191|144:231|104:251|64:231|64:191|64:191|64:100,1,503.999984619141,6|2,1:0|1:2,0:0:0:0:
64,16,48039,5,2,3:2:0:0:
64,16,48136,1,2,0:0:0:0:
64,16,48232,2,0,L|105:12,3,41.9999987182618,2|2|2|2,1:2|0:0|3:2|0:0,0:0:0:0:
152,6,48616,2,0,L|193:10,3,41.9999987182618,10|2|2|2,0:0|0:0|3:2|0:0,0:0:0:0:
240,16,49001,2,0,L|281:12,3,41.9999987182618,2|2|10|2,1:2|0:0|0:0|3:2,0:0:0:0:
328,6,49385,5,2,1:2:0:0:
384,80,49578,1,2,1:2:0:0:
440,6,49770,1,2,1:2:0:0:
512,80,49962,1,2,1:2:0:0:
512,80,50058,1,0,1:2:0:0:
512,80,50155,2,0,P|524:120|512:159,1,83.9999974365235,2|2,1:2|1:2,0:0:0:0:
440,216,50539,1,2,1:2:0:0:
440,216,50635,1,0,1:0:0:0:
440,216,50732,2,0,L|444:257,1,41.9999987182618,2|0,1:2|0:0,0:0:0:0:
444,258,52462,5,6,0:0:0:0:
256,192,55539,12,0,57847,0:0:0:0:
444,258,58232,6,0,L|403:262,1,41.9999987182618,10|0,0:0|0:0,0:0:0:0:
354,268,58424,1,0,3:0:0:0:
288,204,58616,5,2,1:2:0:0:
288,204,70924,6,0,P|261:198|234:204,3,56,2|0|2|0,0:0|3:0|0:0|3:0,0:0:0:0:
260,284,71693,2,0,P|266:313|260:338,3,56,2|0|2|0,0:0|3:0|0:0|3:0,0:0:0:0:
180,312,72462,2,0,P|152:317|125:311,3,56,2|0|2|0,0:0|3:0|0:0|3:0,0:0:0:0:
152,232,73232,2,0,P|146:204|152:177,3,56,2|0|2|0,0:0|3:0|0:0|3:0,0:0:0:0:
234,204,74001,6,0,P|261:198|288:204,3,56,2|0|2|0,0:0|3:0|0:0|3:0,0:0:0:0:
368,232,74770,2,0,P|374:205|368:178,3,56,2|0|2|2,0:0|3:0|0:0|0:0,0:0:0:0:
340,96,75539,6,0,P|367:90|394:96,2,56,2|2|2,0:0|0:0|0:0,0:0:0:0:
260,124,76116,1,2,0:0:0:0:
288,204,76308,2,0,P|261:210|234:204,2,56,2|2|2,0:0|0:0|0:0,0:0:0:0:
368,178,76885,1,2,0:0:0:0:
340,96,77078,5,6,0:0:0:0:
256,192,77174,12,0,82462,0:0:0:0:
382,92,82847,6,0,L|341:96,1,41.9999987182618,10|0,0:0|0:0,0:0:0:0:
291,102,83039,1,0,3:0:0:0:
225,37,83232,6,0,L|149:45,1,77.0000023498536,10|0,0:0|0:0,0:0:0:0:
101,51,83520,2,0,L|109:127,1,77.0000023498536,10|0,0:0|0:0,0:0:0:0:
115,174,83808,1,2,3:2:0:0:
125,267,84001,2,0,L|201:259,1,77.0000023498536,10|0,0:0|0:0,0:0:0:0:
249,253,84289,2,0,L|241:177,1,77.0000023498536,10|0,0:0|0:0,0:0:0:0:
235,130,84577,1,2,3:2:0:0:
225,37,84770,6,0,L|301:29,1,77.0000023498536,10|0,0:0|0:0,0:0:0:0:
349,23,85058,2,0,L|357:99,1,77.0000023498536,10|0,0:0|0:0,0:0:0:0:
363,146,85346,1,2,3:2:0:0:
373,239,85539,2,0,L|297:247,1,77.0000023498536,14|0,0:0|0:0,0:0:0:0:
249,253,85827,2,0,L|241:177,1,77.0000023498536,2|0,1:2|0:0,0:0:0:0:
235,130,86116,2,0,L|197:134,1,38.5000011749268,2|0,1:2|0:0,0:0:0:0:
150,139,86308,6,0,B|154:159|154:159|146:195|146:195|150:214,1,77.0000023498536,10|0,0:0|0:0,0:0:0:0:
158,260,86597,2,0,B|138:264|138:264|102:256|102:256|83:260,1,77.0000023498536,10|0,0:0|0:0,0:0:0:0:
36,268,86885,1,2,3:2:0:0:
27,177,87078,2,0,B|23:157|23:157|31:121|31:121|27:102,1,77.0000023498536,10|0,0:0|0:0,0:0:0:0:
19,56,87367,2,0,B|39:52|39:52|75:60|75:60|94:56,1,77.0000023498536,10|0,0:0|0:0,0:0:0:0:
140,47,87655,1,2,3:2:0:0:
150,139,87847,6,0,B|154:159|154:159|146:195|146:195|150:214,1,77.0000023498536,10|0,0:0|0:0,0:0:0:0:
158,260,88136,2,0,B|178:264|178:264|214:256|214:256|233:260,1,77.0000023498536,10|0,0:0|0:0,0:0:0:0:
279,268,88424,1,2,3:2:0:0:
291,173,88616,2,0,B|295:153|295:153|287:117|287:117|291:98,1,77.0000023498536,14|0,0:0|0:0,0:0:0:0:
299,56,88905,2,0,B|279:52|279:52|243:60|243:60|224:56,1,77.0000023498536,10|0,0:0|0:0,0:0:0:0:
178,47,89193,2,0,B|158:43|158:43|141:47,1,38.5000011749268,2|0,3:2|0:0,0:0:0:0:
95,56,89385,6,0,P|85:93|95:129,1,77.0000023498536,6|0,1:2|3:0,0:0:0:0:
58,216,89770,2,0,P|95:226|131:216,1,77.0000023498536,2|0,1:2|3:0,0:0:0:0:
218,253,90155,2,0,P|228:216|218:180,1,77.0000023498536,2|0,1:2|3:0,0:0:0:0:
255,93,90539,2,0,P|218:83|182:93,1,77.0000023498536,2|0,1:2|3:0,0:0:0:0:
95,56,90924,6,0,B|83:93|83:93|95:129,1,77.0000023498536,2|0,1:2|3:0,0:0:0:0:
58,216,91308,2,0,B|95:228|95:228|131:216,1,77.0000023498536,2|0,1:2|3:0,0:0:0:0:
218,253,91693,2,0,B|230:216|230:216|218:180,1,77.0000023498536,2|0,1:2|3:0,0:0:0:0:
255,93,92077,2,0,B|218:81|218:81|182:93,1,77.0000023498536,2|0,1:2|3:0,0:0:0:0:
95,129,92462,5,2,1:2:0:0:
131,216,92655,1,2,1:2:0:0:
218,180,92847,1,2,1:2:0:0:
182,93,93039,1,2,1:2:0:0:
95,129,93232,6,0,L|60:143,3,38.5000011749268,2|2|2|2,1:2|1:2|1:2|1:2,0:0:0:0:
16,160,93616,2,0,L|30:195,3,38.5000011749268,2|2|2|2,1:2|1:2|1:2|1:2,0:0:0:0:
376,372,95155,6,0,B|380:360|376:348|376:348|384:332|384:332|376:316|376:316|380:304|376:293,1,83.9999974365235,10|0,0:0|0:0,0:0:0:0:
303,227,95539,6,0,L|220:235,1,83.9999974365235,6|2,3:2|3:2,0:0:0:0:
172,240,95828,1,2,0:0:0:0:
172,240,95924,1,2,3:2:0:0:
110,316,96116,1,2,1:2:0:0:
34,257,96308,2,0,L|26:174,1,83.9999974365235,10|2,0:0|3:2,0:0:0:0:
87,97,96693,1,2,1:2:0:0:
163,156,96885,6,0,B|231:148|231:148|259:164|259:164|325:156,1,167.999994873047,10|2,0:0|1:2,0:0:0:0:
401,214,97462,2,0,L|409:297,1,83.9999974365235,10|0,0:0|1:0,0:0:0:0:
347,373,97847,2,0,L|306:377,3,41.9999987182618,10|2|2|2,0:0|3:2|3:2|3:2,0:0:0:0:
259,383,98232,2,0,L|255:342,3,41.9999987182618,2|2|2|2,3:2|3:2|1:2|3:2,0:0:0:0:
249,295,98616,6,0,L|166:303,1,83.9999974365235,2|2,1:2|3:2,0:0:0:0:
89,241,99001,1,2,0:0:0:0:
89,241,99097,1,2,3:2:0:0:
89,241,99193,1,2,1:2:0:0:
148,165,99385,2,0,L|231:157,1,83.9999974365235,10|2,0:0|3:2,0:0:0:0:
307,215,99770,1,2,1:2:0:0:
369,139,99962,6,0,L|361:56,1,83.9999974365235,10|2,0:0|1:2,0:0:0:0:
284,0,100347,1,10,0:0:0:0:
284,0,100444,1,2,1:2:0:0:
223,71,100636,1,10,0:0:0:0:
223,71,100732,1,2,1:2:0:0:
146,15,100924,2,0,L|35:26,2,111.999996582031,2|2|0,1:2|1:2|1:0,0:0:0:0:
228,112,101693,6,0,L|237:194,1,83.9999974365235,6|2,1:2|3:2,0:0:0:0:
181,273,102078,1,2,0:0:0:0:
181,273,102174,1,2,3:2:0:0:
181,273,102270,1,2,1:2:0:0:
103,216,102462,2,0,L|93:133,1,83.9999974365235,10|2,0:0|3:2,0:0:0:0:
151,56,102847,1,0,1:0:0:0:
228,112,103039,6,0,B|296:104|296:104|324:120|324:120|390:112,1,167.999994873047,10|2,0:0|1:2,0:0:0:0:
466,170,103616,2,0,L|474:253,1,83.9999974365235,10|2,0:0|3:2,0:0:0:0:
412,329,104001,2,0,L|371:333,3,41.9999987182618,10|2|2|2,0:0|3:2|3:2|3:2,0:0:0:0:
324,339,104386,2,0,L|320:298,3,41.9999987182618,2|2|2|2,3:2|3:2|1:2|3:2,0:0:0:0:
314,251,104770,6,0,L|231:259,1,83.9999974365235,2|2,1:2|3:2,0:0:0:0:
189,269,105058,1,2,0:0:0:0:
189,269,105154,1,2,0:0:0:0:
127,345,105346,1,2,1:2:0:0:
51,286,105539,2,0,L|43:203,1,83.9999974365235,10|2,0:0|3:2,0:0:0:0:
104,126,105924,1,2,1:2:0:0:
180,185,106116,1,10,0:0:0:0:
241,109,106308,6,0,L|366:96,1,125.999996154785,2|2,3:2|0:0,0:0:0:0:
366,95,106693,1,6,1:2:0:0:
316,276,107078,1,6,1:2:0:0:
241,109,107462,1,6,1:2:0:0:
188,292,107847,6,0,L|196:375,2,83.9999974365235,6|0|2,1:2|3:0|0:0,0:0:0:0:
244,216,108424,1,0,1:0:0:0:
316,276,108616,2,0,L|399:268,1,83.9999974365235,8|2,0:0|3:2,0:0:0:0:
456,192,109001,1,0,1:0:0:0:
384,132,109193,6,0,B|316:140|316:140|288:124|288:124|222:132,1,167.999994873047,10|2,0:0|3:2,0:0:0:0:
151,71,109770,1,10,0:0:0:0:
92,143,109962,1,2,3:2:0:0:
164,203,110155,2,0,L|176:314,1,111.999996582031,10|2,0:0|3:2,0:0:0:0:
58,357,110667,2,0,L|52:302,1,55.9999982910157,2|2,3:2|3:2,0:0:0:0:
44,244,110924,6,0,L|3:248,2,41.9999987182618,2|2|2,1:2|3:2|3:2,0:0:0:0:
104,175,111308,2,0,L|145:171,1,41.9999987182618,2|2,0:0|3:2,0:0:0:0:
192,165,111501,1,2,1:2:0:0:
264,225,111693,2,0,L|347:217,1,83.9999974365235,10|2,0:0|3:2,0:0:0:0:
404,141,112078,1,2,1:2:0:0:
332,81,112270,6,0,L|249:89,1,83.9999974365235,10|0,0:0|1:0,0:0:0:0:
197,93,112558,1,2,3:2:0:0:
197,93,112655,2,0,L|193:52,1,41.9999987182618,10|0,0:0|1:0,0:0:0:0:
100,60,112943,2,0,L|104:101,1,41.9999987182618,10|0,0:0|1:0,0:0:0:0:
11,109,113232,2,0,L|0:-2,2,111.999996582031,6|6|6,1:2|1:2|1:2,0:0:0:0:
112,184,114001,6,0,L|120:267,1,83.9999974365235,6|2,1:2|3:2,0:0:0:0:
190,329,114385,2,0,L|194:370,2,41.9999987182618,2|2|2,0:0|3:2|1:2,0:0:0:0:
248,256,114770,2,0,L|244:215,2,41.9999987182618,10|2|2,0:0|3:2|3:2,0:0:0:0:
318,318,115155,1,0,1:0:0:0:
376,245,115347,6,0,B|368:177|368:177|384:149|384:149|376:83,1,167.999994873047,10|2,0:0|1:2,0:0:0:0:
434,12,115924,2,0,L|475:6,2,41.9999987182618,10|2|0,0:0|0:0|1:0,0:0:0:0:
376,82,116308,2,0,L|293:90,1,83.9999974365235,10|2,0:0|3:2,0:0:0:0:
234,163,116693,1,2,3:2:0:0:
234,163,116789,1,2,3:2:0:0:
234,163,116885,6,0,L|242:246,1,83.9999974365235,2|2,1:2|1:2,0:0:0:0:
249,298,117173,1,2,3:2:0:0:
249,298,117270,2,0,L|208:302,2,41.9999987182618,2|2|2,3:2|0:0|3:2,0:0:0:0:
319,360,117655,1,2,1:2:0:0:
377,287,117847,2,0,L|369:204,1,83.9999974365235,10|2,0:0|3:2,0:0:0:0:
364,160,118135,1,2,0:0:0:0:
364,160,118232,1,2,1:2:0:0:
294,98,118424,6,0,L|211:106,1,83.9999974365235,10|2,0:0|0:0,0:0:0:0:
167,111,118712,1,2,3:2:0:0:
167,111,118808,2,0,L|163:70,1,41.9999987182618,0|2,3:0|3:2,0:0:0:0:
157,23,119001,1,2,1:2:0:0:
64,31,119193,1,2,3:2:0:0:
64,31,119289,1,2,3:2:0:0:
64,31,119385,2,0,L|23:35,2,41.9999987182618,2|2|2,1:2|3:2|3:2,0:0:0:0:
74,119,119770,2,0,L|82:202,1,83.9999974365235,2|2,1:2|3:2,0:0:0:0:
116,277,120155,6,0,P|82:285|48:277,1,70,6|0,1:2|3:0,0:0:0:0:
82,203,120539,2,0,P|116:194|150:203,1,70,2|0,1:2|3:0,0:0:0:0:
183,278,120924,2,0,P|149:286|115:277,1,70,2|0,1:2|3:0,0:0:0:0:
149,202,121308,1,0,1:2:0:0:
183,278,121501,6,0,L|211:342,1,70,2|2,3:2|1:2,0:0:0:0:
211,342,121885,1,0,3:2:0:0:
296,344,122078,2,0,L|324:280,1,70,2|0,1:2|3:0,0:0:0:0:
324,196,122462,2,0,L|296:132,1,70,2|0,1:2|3:0,0:0:0:0:
212,132,122847,2,0,L|184:196,1,70,2|0,1:2|3:0,0:0:0:0:
142,272,123232,5,2,1:2:0:0:
142,272,123424,1,0,3:0:0:0:
100,196,123616,2,0,L|72:132,1,70,2|0,1:2|3:0,0:0:0:0:
36,56,124001,2,0,L|100:28,1,70,2|0,1:2|3:0,0:0:0:0:
100,27,124385,1,2,1:2:0:0:
184,30,124578,6,0,L|248:58,1,70,2|2,3:2|1:2,0:0:0:0:
325,92,124962,1,2,3:2:0:0:
291,169,125155,1,2,1:2:0:0:
215,134,125347,1,2,3:2:0:0:
180,210,125539,2,0,L|121:336,1,140,2|0,1:2|1:0,0:0:0:0:
120,336,126116,1,2,3:2:0:0:
36,338,126308,6,0,L|8:274,1,70,2|0,1:2|3:0,0:0:0:0:
8,188,126693,2,0,L|36:124,1,70,2|0,1:2|3:0,0:0:0:0:
121,126,127078,2,0,L|149:190,1,70,2|0,1:2|3:0,0:0:0:0:
194,262,127462,1,2,1:2:0:0:
236,190,127655,6,0,B|304:162|304:218|371:190,1,140,2|0,3:2|3:0,0:0:0:0:
426,262,128232,1,2,1:2:0:0:
426,262,128424,1,0,3:0:0:0:
472,190,128616,2,0,B|484:144|484:144|472:100,1,93.3333333333333,2|2,1:2|3:2,0:0:0:0:
372,44,129129,2,0,L|326:49,1,46.6666666666667,2|2,3:2|3:2,0:0:0:0:
268,56,129385,6,0,L|276:125,1,70,2|0,1:2|3:0,0:0:0:0:
284,208,129770,1,2,1:2:0:0:
200,216,129962,2,0,L|131:224,1,70,2|2,3:2|1:2,0:0:0:0:
120,140,130347,1,0,3:0:0:0:
207,133,130539,2,0,L|276:125,1,70,2|2,1:2|3:2,0:0:0:0:
268,44,130924,1,2,0:0:0:0:
268,44,131116,1,2,0:0:0:0:
176,52,131308,6,0,L|138:57,1,38.5000011749268,6|0,1:2|0:0,0:0:0:0:
92,64,131501,1,2,3:2:0:0:
0,84,131693,2,0,L|5:122,1,38.5000011749268,6|0,1:2|0:0,0:0:0:0:
12,168,131886,1,2,3:2:0:0:
24,260,132078,2,0,L|100:251,1,77.0000023498536,6|2,1:2|3:2,0:0:0:0:
192,240,132462,6,0,L|200:323,1,83.9999974365235,2|2,1:2|3:2,0:0:0:0:
292,312,132847,2,0,L|288:271,1,41.9999987182618,10|0,0:0|0:0,0:0:0:0:
282,222,133039,2,0,L|365:214,1,83.9999974365235,6|2,1:2|3:2,0:0:0:0:
456,200,133424,2,0,L|452:159,1,41.9999987182618,10|0,0:0|0:0,0:0:0:0:
446,110,133616,2,0,L|363:118,1,83.9999974365235,6|2,1:2|3:2,0:0:0:0:
270,130,134001,6,0,L|266:89,1,41.9999987182618,10|0,0:0|0:0,0:0:0:0:
260,40,134193,2,0,L|177:48,1,83.9999974365235,6|2,1:2|3:2,0:0:0:0:
84,60,134578,2,0,L|88:101,1,41.9999987182618,10|0,0:0|0:0,0:0:0:0:
94,149,134770,2,0,L|205:138,1,111.999996582031,6|2,1:2|3:2,0:0:0:0:
328,124,135283,2,0,L|331:151,1,27.9999991455078,2|6,3:2|0:0,0:0:0:0:
340,244,135539,6,0,L|348:327,1,83.9999974365235,2|2,1:2|3:2,0:0:0:0:
256,340,135924,2,0,L|252:299,1,41.9999987182618,10|0,0:0|0:0,0:0:0:0:
248,252,136116,2,0,L|165:260,1,83.9999974365235,6|2,1:2|0:0,0:0:0:0:
76,272,136501,2,0,L|72:231,1,41.9999987182618,10|0,0:0|0:0,0:0:0:0:
66,182,136693,1,2,1:2:0:0:
56,92,136885,2,0,L|97:88,1,41.9999987182618,10|0,0:0|0:0,0:0:0:0:
144,84,137078,6,0,L|152:167,1,83.9999974365235,6|2,1:2|3:2,0:0:0:0:
164,260,137462,1,2,1:2:0:0:
256,250,137655,2,0,L|339:242,1,83.9999974365235,2|2,3:2|1:2,0:0:0:0:
432,232,138039,1,0,3:2:0:0:
422,140,138232,1,2,1:2:0:0:
332,150,138424,2,0,L|291:154,1,41.9999987182618,10|0,0:0|0:0,0:0:0:0:
248,156,138617,6,0,L|240:73,1,83.9999974365235,8|2,0:0|1:2,0:0:0:0:
179,0,139001,1,8,0:0:0:0:
120,73,139193,1,2,3:2:0:0:
120,73,139289,1,2,3:2:0:0:
120,73,139385,2,0,L|124:114,3,41.9999987182618,10|2|2|2,0:0|3:2|3:2|3:2,0:0:0:0:
129,163,139770,2,0,L|125:203,1,41.9999987182618,10|2,0:0|3:2,0:0:0:0:
119,253,139962,6,0,L|202:261,1,83.9999974365235,2|8,3:2|0:0,0:0:0:0:
262,332,140347,1,2,3:2:0:0:
322,260,140539,1,10,0:0:0:0:
396,332,140732,1,2,3:2:0:0:
396,332,140828,1,2,3:2:0:0:
396,332,140924,2,0,L|437:328,3,41.9999987182618,10|2|2|2,0:0|3:2|3:2|3:2,0:0:0:0:
486,323,141309,2,0,L|482:282,3,41.9999987182618,10|2|10|2,0:0|1:2|0:0|1:2,0:0:0:0:
477,233,141693,6,0,L|394:241,1,83.9999974365235,14|10,0:0|0:0,0:0:0:0:
333,169,142078,1,10,0:0:0:0:
272,240,142270,1,10,0:0:0:0:
272,240,142366,1,2,1:2:0:0:
272,240,142462,2,0,L|231:236,3,41.9999987182618,10|2|10|2,0:0|1:2|0:0|1:2,0:0:0:0:
184,230,142847,2,0,L|180:272,3,41.9999987182618,10|2|10|2,0:0|1:2|0:0|1:2,0:0:0:0:
176,316,143231,6,0,L|92:309,1,83.9999974365235,14|2,0:0|3:2,0:0:0:0:
48,304,143520,2,0,L|56:220,1,83.9999974365235,14|2,0:0|3:2,0:0:0:0:
61,171,143808,1,14,0:0:0:0:
72,80,144001,2,0,L|113:84,3,41.9999987182618,10|10|10|10,0:0|0:0|0:0|0:0,0:0:0:0:
160,90,144385,2,0,L|166:35,2,55.9999982910157,10|2|2,0:0|0:0|0:0,0:0:0:0:
152,150,144770,5,6,0:0:0:0:
256,192,144898,12,0,147462,0:0:0:0:
256,192,147847,5,6,0:0:0:0:
256,192,147943,12,0,152462,0:0:0:0:
