osu file format v14

[General]
AudioFilename: audio.mp3
AudioLeadIn: 0
PreviewTime: 42657
Countdown: 0
SampleSet: Normal
StackLeniency: 0.7
Mode: 1
LetterboxInBreaks: 0
WidescreenStoryboard: 1

[Editor]
Bookmarks: 2657,10157,17657,22657,27657,32657,37657,42657,47657,52657,57657,62657,67657,72657,77657,82657,92344,92657,102657,107657,112657
DistanceSpacing: 1
BeatDivisor: 4
GridSize: 32
TimelineZoom: 2.1

[Metadata]
Title:Aqua Stars
TitleUnicode:Aqua Stars
Artist:Sound Souler
ArtistUnicode:Sound Souler
Creator:eiri-
Version:Inner Oni
Source:OverRapid
Tags:Ayyri Trynna Muse Dash Instrumental Electronic Video Game Featured Artist FA Artcore DnB Drum and & Bass
BeatmapID:2513434
BeatmapSetID:1204476

[Difficulty]
HPDrainRate:5
CircleSize:2
OverallDifficulty:6
ApproachRate:10
SliderMultiplier:1.4
SliderTickRate:1

[Events]
//Background and Video events
0,0,"Aqua Stars.jpg",0,-75
//Break Periods
//Storyboard Layer 0 (Background)
//Storyboard Layer 1 (Fail)
//Storyboard Layer 2 (Pass)
//Storyboard Layer 3 (Foreground)
//Storyboard Layer 4 (Overlay)
//Storyboard Sound Samples

[TimingPoints]
2657,312.5,4,1,1,75,1,0
16367,-100,4,1,1,25,0,0
16680,-100,4,1,1,35,0,0
16992,-100,4,1,1,45,0,0
17305,-100,4,1,1,55,0,0
17617,-100,4,1,1,75,0,0
35117,-97.0873786407767,4,1,1,75,0,0
35274,-96.1538461538461,4,1,1,75,0,0
35430,-95.2380952380952,4,1,1,75,0,0
35586,-94.3396226415094,4,1,1,75,0,0
35742,-93.4579439252336,4,1,1,75,0,0
36055,-92.5925925925926,4,1,1,75,0,0
36211,-91.743119266055,4,1,1,75,0,0
36367,-90.9090909090909,4,1,1,75,0,0
36524,-89.2857142857143,4,1,1,75,0,0
36836,-87.719298245614,4,1,1,75,0,0
36992,-86.2068965517241,4,1,1,75,0,0
37227,-84.7457627118644,4,1,1,75,0,0
37461,-83.3333333333333,4,1,1,75,0,0
37617,-80,4,1,1,75,0,0
37930,-81.3008130081301,4,1,1,70,0,0
38242,-83.3333333333333,4,1,1,65,0,0
38555,-85.4700854700855,4,1,1,60,0,0
38867,-86.9565217391304,4,1,1,55,0,0
39180,-88.4955752212389,4,1,1,50,0,0
39492,-90.9090909090909,4,1,1,45,0,0
39805,-92.5925925925926,4,1,1,40,0,0
40117,-94.3396226415094,4,1,1,35,0,0
40430,-96.1538461538461,4,1,1,30,0,0
40742,-98.0392156862745,4,1,1,25,0,0
41055,-99.009900990099,4,1,1,23,0,0
41367,-100,4,1,1,20,0,0
42617,-133.333333333333,4,1,2,50,0,0
57617,-111.111111111111,4,1,1,60,0,0
57774,-114.942528735632,4,1,1,60,0,0
57930,-117.647058823529,4,1,1,60,0,0
58086,-120.481927710843,4,1,1,60,0,0
58242,-125,4,1,1,60,0,0
58399,-129.87012987013,4,1,1,60,0,0
58555,-133.333333333333,4,1,1,60,0,0
58711,-136.986301369863,4,1,1,60,0,0
58867,-142.857142857143,4,1,1,60,0,0
59024,-149.253731343284,4,1,1,60,0,0
59180,-153.846153846154,4,1,1,60,0,0
59336,-158.730158730159,4,1,1,60,0,0
59492,-166.666666666667,4,1,1,60,0,0
59649,-175.438596491228,4,1,1,60,0,0
59805,-181.818181818182,4,1,1,60,0,0
59961,-188.679245283019,4,1,1,60,0,0
60117,-200,4,1,1,60,0,0
61367,-100,4,1,1,25,0,0
61680,-100,4,1,1,35,0,0
61992,-100,4,1,1,45,0,0
62305,-100,4,1,1,55,0,0
62617,-100,4,1,1,75,0,0
67617,-102.040816326531,4,1,1,75,0,0
67774,-104.166666666667,4,1,1,75,0,0
68086,-106.382978723404,4,1,1,75,0,0
68242,-108.695652173913,4,1,1,75,0,0
68555,-111.111111111111,4,1,1,75,0,0
68711,-113.636363636364,4,1,1,75,0,0
69024,-116.279069767442,4,1,1,75,0,0
69180,-119.047619047619,4,1,1,75,0,0
69492,-121.951219512195,4,1,1,75,0,0
69649,-125,4,1,1,75,0,0
69961,-116.279069767442,4,1,1,75,0,0
70117,-111.111111111111,4,1,1,75,0,0
70274,-103.092783505155,4,1,1,75,0,0
70430,-104.166666666667,4,1,1,75,0,0
70586,-105.263157894737,4,1,1,75,0,0
70742,-106.382978723404,4,1,1,75,0,0
70899,-107.52688172043,4,1,1,75,0,0
71055,-108.695652173913,4,1,1,75,0,0
71211,-109.89010989011,4,1,1,75,0,0
71367,-100,4,1,1,75,0,0
71602,-97.0873786407767,4,1,1,75,0,0
71836,-95.2380952380952,4,1,1,75,0,0
72071,-93.4579439252336,4,1,1,75,0,0
72305,-90.9090909090909,4,1,1,75,0,0
72617,-93.4579439252336,4,1,1,75,0,0
72774,-95.2380952380952,4,1,1,75,0,0
72930,-97.0873786407767,4,1,1,75,0,0
73086,-100,4,1,1,75,0,0
77617,-102.040816326531,4,1,1,75,0,0
77774,-104.166666666667,4,1,1,75,0,0
78086,-106.382978723404,4,1,1,75,0,0
78242,-108.695652173913,4,1,1,75,0,0
78555,-111.111111111111,4,1,1,75,0,0
78711,-113.636363636364,4,1,1,75,0,0
79024,-116.279069767442,4,1,1,75,0,0
79180,-119.047619047619,4,1,1,75,0,0
79492,-121.951219512195,4,1,1,75,0,0
79649,-125,4,1,1,75,0,0
79961,-116.279069767442,4,1,1,75,0,0
80117,-111.111111111111,4,1,1,75,0,0
80274,-103.092783505155,4,1,1,75,0,0
80430,-104.166666666667,4,1,1,75,0,0
80586,-105.263157894737,4,1,1,75,0,0
80742,-106.382978723404,4,1,1,75,0,0
80899,-107.52688172043,4,1,1,75,0,0
81055,-108.695652173913,4,1,1,75,0,0
81211,-109.89010989011,4,1,1,75,0,0
81367,-95.2380952380952,4,1,1,75,0,0
81602,-90.9090909090909,4,1,1,75,0,0
81836,-86.9565217391304,4,1,1,75,0,0
82071,-83.3333333333333,4,1,1,75,0,0
82305,-80,4,1,1,75,0,0
82657,-90.9090909090909,4,1,1,80,0,1
87617,-92.5925925925926,4,1,1,80,0,1
87774,-94.3396226415094,4,1,1,80,0,1
88086,-96.1538461538461,4,1,1,80,0,1
88242,-98.0392156862745,4,1,1,80,0,1
88555,-100,4,1,1,80,0,1
88711,-102.040816326531,4,1,1,80,0,1
89024,-104.166666666667,4,1,1,80,0,1
89180,-106.382978723404,4,1,1,80,0,1
89492,-108.695652173913,4,1,1,80,0,1
89649,-111.111111111111,4,1,1,80,0,1
89961,-105.263157894737,4,1,1,80,0,1
90117,-100,4,1,1,80,0,1
90274,-93.4579439252336,4,1,1,80,0,1
90430,-94.3396226415094,4,1,1,80,0,1
90586,-95.2380952380952,4,1,1,80,0,1
90742,-96.1538461538461,4,1,1,80,0,1
90899,-97.0873786407767,4,1,1,80,0,1
91055,-98.0392156862745,4,1,1,80,0,1
91211,-99.009900990099,4,1,1,80,0,1
91367,-97.0873786407767,4,1,1,80,0,1
91602,-95.2380952380952,4,1,1,80,0,1
91836,-93.4579439252336,4,1,1,80,0,1
92071,-90.9090909090909,4,1,1,80,0,1
92344,-86.9565217391304,4,1,1,80,0,0
92657,-90.9090909090909,4,1,1,80,0,1
97617,-92.5925925925926,4,1,1,80,0,1
97774,-94.3396226415094,4,1,1,80,0,1
98086,-96.1538461538461,4,1,1,80,0,1
98242,-98.0392156862745,4,1,1,80,0,1
98555,-100,4,1,1,80,0,1
98711,-102.040816326531,4,1,1,80,0,1
99024,-104.166666666667,4,1,1,80,0,1
99180,-106.382978723404,4,1,1,80,0,1
99492,-108.695652173913,4,1,1,80,0,1
99649,-111.111111111111,4,1,1,80,0,1
99961,-105.263157894737,4,1,1,80,0,1
100117,-100,4,1,1,80,0,1
100274,-93.4579439252336,4,1,1,80,0,1
100430,-94.3396226415094,4,1,1,80,0,1
100586,-95.2380952380952,4,1,1,80,0,1
100742,-96.1538461538461,4,1,1,80,0,1
100899,-97.0873786407767,4,1,1,80,0,1
101055,-98.0392156862745,4,1,1,80,0,1
101211,-99.009900990099,4,1,1,80,0,1
101367,-97.0873786407767,4,1,1,80,0,1
101602,-95.2380952380952,4,1,1,80,0,1
101836,-93.4579439252336,4,1,1,80,0,1
102071,-90.9090909090909,4,1,1,80,0,1
102305,-86.9565217391304,4,1,1,80,0,1
102657,-95.2380952380952,4,1,1,75,0,0
102774,-97.0873786407767,4,1,1,75,0,0
102852,-98.0392156862745,4,1,1,75,0,0
102930,-99.009900990099,4,1,1,75,0,0
103086,-100,4,1,1,75,0,0

[HitObjects]
256,192,2657,5,12,0:0:0:0:
256,192,2813,1,0,0:0:0:0:
256,192,2969,1,0,0:0:0:0:
256,192,3125,1,12,0:0:0:0:
256,192,3282,1,0,0:0:0:0:
256,192,3438,1,12,0:0:0:0:
256,192,3750,1,0,0:0:0:0:
256,192,3828,1,0,0:0:0:0:
256,192,3907,1,0,0:0:0:0:
256,192,4063,1,12,0:0:0:0:
256,192,4219,1,0,0:0:0:0:
256,192,4375,1,12,0:0:0:0:
256,192,4688,1,12,0:0:0:0:
256,192,4844,1,0,0:0:0:0:
256,192,5000,1,0,0:0:0:0:
256,192,5157,1,12,0:0:0:0:
256,192,5313,1,0,0:0:0:0:
256,192,5469,1,0,0:0:0:0:
256,192,5625,1,12,0:0:0:0:
256,192,5782,1,0,0:0:0:0:
256,192,5938,1,12,0:0:0:0:
256,192,6250,1,0,0:0:0:0:
256,192,6328,1,0,0:0:0:0:
256,192,6407,1,0,0:0:0:0:
256,192,6563,1,12,0:0:0:0:
256,192,6719,1,0,0:0:0:0:
256,192,6875,1,12,0:0:0:0:
256,192,7188,1,12,0:0:0:0:
256,192,7344,1,0,0:0:0:0:
256,192,7500,1,0,0:0:0:0:
256,192,7657,1,12,0:0:0:0:
256,192,7813,1,0,0:0:0:0:
256,192,7969,1,0,0:0:0:0:
256,192,8125,1,12,0:0:0:0:
256,192,8282,1,0,0:0:0:0:
256,192,8438,1,12,0:0:0:0:
256,192,8750,1,0,0:0:0:0:
256,192,8828,1,0,0:0:0:0:
256,192,8907,1,0,0:0:0:0:
256,192,9063,1,12,0:0:0:0:
256,192,9219,1,0,0:0:0:0:
256,192,9375,1,12,0:0:0:0:
256,192,9688,1,12,0:0:0:0:
256,192,9844,1,0,0:0:0:0:
256,192,10000,1,0,0:0:0:0:
256,192,10157,1,12,0:0:0:0:
256,192,10365,1,0,0:0:0:0:
256,192,10573,1,0,0:0:0:0:
256,192,10782,1,8,0:0:0:0:
256,192,10990,1,8,0:0:0:0:
256,192,11198,1,8,0:0:0:0:
256,192,11407,1,0,0:0:0:0:
256,192,11615,1,0,0:0:0:0:
256,192,11823,1,0,0:0:0:0:
256,192,12032,1,8,0:0:0:0:
256,192,12240,1,8,0:0:0:0:
256,192,12448,1,8,0:0:0:0:
256,192,12657,1,0,0:0:0:0:
256,192,16407,8,0,17500,0:0:0:0:
256,192,17657,5,12,0:0:0:0:
256,192,17813,1,0,0:0:0:0:
256,192,17969,1,8,0:0:0:0:
256,192,18125,1,8,0:0:0:0:
256,192,18203,1,8,0:0:0:0:
256,192,18282,1,0,0:0:0:0:
256,192,18360,1,8,0:0:0:0:
256,192,18438,1,0,0:0:0:0:
256,192,18594,1,8,0:0:0:0:
256,192,18750,1,0,0:0:0:0:
256,192,18907,1,0,0:0:0:0:
256,192,19063,1,0,0:0:0:0:
256,192,19141,1,0,0:0:0:0:
256,192,19219,1,8,0:0:0:0:
256,192,19375,1,0,0:0:0:0:
256,192,19453,1,8,0:0:0:0:
256,192,19532,1,0,0:0:0:0:
256,192,19610,1,0,0:0:0:0:
256,192,19688,1,8,0:0:0:0:
256,192,19844,1,8,0:0:0:0:
256,192,20000,1,0,0:0:0:0:
256,192,20157,1,0,0:0:0:0:
256,192,20235,1,8,0:0:0:0:
256,192,20313,1,8,0:0:0:0:
256,192,20391,1,0,0:0:0:0:
256,192,20469,1,8,0:0:0:0:
256,192,20625,1,8,0:0:0:0:
256,192,20703,1,8,0:0:0:0:
256,192,20782,1,0,0:0:0:0:
256,192,20860,1,0,0:0:0:0:
256,192,20938,1,8,0:0:0:0:
256,192,21094,1,8,0:0:0:0:
256,192,21250,1,0,0:0:0:0:
256,192,21328,1,8,0:0:0:0:
256,192,21407,1,0,0:0:0:0:
256,192,21563,1,0,0:0:0:0:
256,192,21719,1,8,0:0:0:0:
256,192,21875,1,8,0:0:0:0:
256,192,21953,1,8,0:0:0:0:
256,192,22032,1,0,0:0:0:0:
256,192,22110,1,8,0:0:0:0:
256,192,22188,1,0,0:0:0:0:
256,192,22344,1,8,0:0:0:0:
256,192,22500,1,0,0:0:0:0:
256,192,22657,1,0,0:0:0:0:
256,192,22813,1,0,0:0:0:0:
256,192,22891,1,0,0:0:0:0:
256,192,22969,1,8,0:0:0:0:
256,192,23125,1,8,0:0:0:0:
256,192,23203,1,0,0:0:0:0:
256,192,23282,1,8,0:0:0:0:
256,192,23360,1,8,0:0:0:0:
256,192,23438,1,0,0:0:0:0:
256,192,23594,1,8,0:0:0:0:
256,192,23750,1,0,0:0:0:0:
256,192,23907,1,0,0:0:0:0:
256,192,24063,1,0,0:0:0:0:
256,192,24141,1,0,0:0:0:0:
256,192,24219,1,8,0:0:0:0:
256,192,24375,1,8,0:0:0:0:
256,192,24453,1,8,0:0:0:0:
256,192,24532,1,0,0:0:0:0:
256,192,24610,1,0,0:0:0:0:
256,192,24688,1,8,0:0:0:0:
256,192,24844,1,0,0:0:0:0:
256,192,25000,1,0,0:0:0:0:
256,192,25157,1,0,0:0:0:0:
256,192,25235,1,8,0:0:0:0:
256,192,25313,1,8,0:0:0:0:
256,192,25391,1,0,0:0:0:0:
256,192,25469,1,8,0:0:0:0:
256,192,25625,1,0,0:0:0:0:
256,192,25703,1,8,0:0:0:0:
256,192,25782,1,0,0:0:0:0:
256,192,25860,1,8,0:0:0:0:
256,192,25938,1,8,0:0:0:0:
256,192,26094,1,0,0:0:0:0:
256,192,26250,1,8,0:0:0:0:
256,192,26407,1,0,0:0:0:0:
256,192,26563,1,0,0:0:0:0:
256,192,26641,1,0,0:0:0:0:
256,192,26719,1,8,0:0:0:0:
256,192,26875,1,8,0:0:0:0:
256,192,26953,1,8,0:0:0:0:
256,192,27032,1,0,0:0:0:0:
256,192,27110,1,8,0:0:0:0:
256,192,27188,1,0,0:0:0:0:
256,192,27344,1,8,0:0:0:0:
256,192,27500,1,0,0:0:0:0:
256,192,27657,1,12,0:0:0:0:
256,192,28125,1,0,0:0:0:0:
256,192,28282,1,8,0:0:0:0:
256,192,28360,1,8,0:0:0:0:
256,192,28438,1,8,0:0:0:0:
256,192,28594,1,0,0:0:0:0:
256,192,28907,1,0,0:0:0:0:
256,192,29063,1,8,0:0:0:0:
256,192,29219,1,0,0:0:0:0:
256,192,29375,1,0,0:0:0:0:
256,192,29532,1,8,0:0:0:0:
256,192,29610,1,8,0:0:0:0:
256,192,29688,1,8,0:0:0:0:
256,192,29844,1,0,0:0:0:0:
256,192,30157,1,0,0:0:0:0:
256,192,30313,1,8,0:0:0:0:
256,192,30625,1,0,0:0:0:0:
256,192,30782,1,8,0:0:0:0:
256,192,30860,1,8,0:0:0:0:
256,192,30938,1,8,0:0:0:0:
256,192,31094,1,0,0:0:0:0:
256,192,31407,1,0,0:0:0:0:
256,192,31563,1,8,0:0:0:0:
256,192,31719,1,0,0:0:0:0:
256,192,31875,1,0,0:0:0:0:
256,192,31953,1,0,0:0:0:0:
256,192,32032,1,8,0:0:0:0:
256,192,32266,1,8,0:0:0:0:
256,192,32500,1,8,0:0:0:0:
256,192,32657,1,0,0:0:0:0:
256,192,32813,1,0,0:0:0:0:
256,192,32969,1,0,0:0:0:0:
256,192,33125,1,0,0:0:0:0:
256,192,33203,1,0,0:0:0:0:
256,192,33282,1,8,0:0:0:0:
256,192,33438,1,0,0:0:0:0:
256,192,33594,1,0,0:0:0:0:
256,192,33907,1,0,0:0:0:0:
256,192,34063,1,8,0:0:0:0:
256,192,34219,1,0,0:0:0:0:
256,192,34375,1,0,0:0:0:0:
256,192,34532,1,8,0:0:0:0:
256,192,34610,1,8,0:0:0:0:
256,192,34688,1,8,0:0:0:0:
256,192,34844,1,0,0:0:0:0:
256,192,35000,1,8,0:0:0:0:
256,192,35157,1,0,0:0:0:0:
256,192,35313,1,0,0:0:0:0:
256,192,35469,1,0,0:0:0:0:
256,192,35625,1,0,0:0:0:0:
256,192,35782,1,8,0:0:0:0:
256,192,35860,1,8,0:0:0:0:
256,192,35938,1,0,0:0:0:0:
256,192,36094,1,0,0:0:0:0:
256,192,36250,1,0,0:0:0:0:
256,192,36407,1,8,0:0:0:0:
256,192,36563,1,0,0:0:0:0:
256,192,36641,1,0,0:0:0:0:
256,192,36719,1,0,0:0:0:0:
256,192,36875,1,8,0:0:0:0:
256,192,37032,1,0,0:0:0:0:
256,192,37110,1,8,0:0:0:0:
256,192,37266,1,8,0:0:0:0:
256,192,37344,1,0,0:0:0:0:
256,192,37500,1,0,0:0:0:0:
256,192,37657,1,12,0:0:0:0:
256,192,37813,8,0,41407,0:0:0:0:
256,192,42657,5,12,0:0:0:0:
256,192,43594,1,8,0:0:0:0:
256,192,43750,1,0,0:0:0:0:
256,192,44688,1,0,0:0:0:0:
256,192,44844,1,8,0:0:0:0:
256,192,45000,1,8,0:0:0:0:
256,192,45157,1,0,0:0:0:0:
256,192,46094,1,8,0:0:0:0:
256,192,46250,1,0,0:0:0:0:
256,192,46875,1,0,0:0:0:0:
256,192,47032,1,8,0:0:0:0:
256,192,47188,1,8,0:0:0:0:
256,192,47344,1,0,0:0:0:0:
256,192,47500,1,0,0:0:0:0:
256,192,47657,1,8,0:0:0:0:
256,192,47969,1,8,0:0:0:0:
256,192,48282,1,8,0:0:0:0:
256,192,48438,1,8,0:0:0:0:
256,192,48750,1,8,0:0:0:0:
256,192,48907,1,8,0:0:0:0:
256,192,49063,1,8,0:0:0:0:
256,192,49219,1,8,0:0:0:0:
256,192,49375,1,8,0:0:0:0:
256,192,49532,1,8,0:0:0:0:
256,192,49844,1,8,0:0:0:0:
256,192,50157,1,0,0:0:0:0:
256,192,50469,1,8,0:0:0:0:
256,192,50625,1,0,0:0:0:0:
256,192,50938,1,8,0:0:0:0:
256,192,51250,1,0,0:0:0:0:
256,192,51407,1,8,0:0:0:0:
256,192,51563,1,0,0:0:0:0:
256,192,51719,1,0,0:0:0:0:
256,192,52032,1,8,0:0:0:0:
256,192,52344,1,8,0:0:0:0:
256,192,52657,1,0,0:0:0:0:
256,192,53594,1,8,0:0:0:0:
256,192,53750,1,0,0:0:0:0:
256,192,54844,1,8,0:0:0:0:
256,192,55157,1,0,0:0:0:0:
256,192,55625,1,8,0:0:0:0:
256,192,56094,1,8,0:0:0:0:
256,192,56250,1,0,0:0:0:0:
256,192,56407,1,8,0:0:0:0:
256,192,56719,1,0,0:0:0:0:
256,192,57032,1,8,0:0:0:0:
256,192,57188,1,8,0:0:0:0:
256,192,57344,1,0,0:0:0:0:
256,192,57657,1,8,0:0:0:0:
256,192,57813,1,0,0:0:0:0:
256,192,57969,1,0,0:0:0:0:
256,192,58125,1,8,0:0:0:0:
256,192,58282,1,0,0:0:0:0:
256,192,58438,1,0,0:0:0:0:
256,192,58594,1,8,0:0:0:0:
256,192,58750,1,0,0:0:0:0:
256,192,58907,1,0,0:0:0:0:
256,192,59063,1,8,0:0:0:0:
256,192,59219,1,0,0:0:0:0:
256,192,59375,1,0,0:0:0:0:
256,192,59532,1,8,0:0:0:0:
256,192,59688,1,0,0:0:0:0:
256,192,59844,1,0,0:0:0:0:
256,192,60000,1,8,0:0:0:0:
256,192,60157,1,0,0:0:0:0:
256,192,61407,8,0,62500,0:0:0:0:
256,192,62657,5,12,0:0:0:0:
256,192,62813,1,0,0:0:0:0:
256,192,62969,1,8,0:0:0:0:
256,192,63125,1,0,0:0:0:0:
256,192,63203,1,0,0:0:0:0:
256,192,63282,1,8,0:0:0:0:
256,192,63360,1,0,0:0:0:0:
256,192,63438,1,8,0:0:0:0:
256,192,63594,1,8,0:0:0:0:
256,192,63750,1,0,0:0:0:0:
256,192,63907,1,8,0:0:0:0:
256,192,64063,1,0,0:0:0:0:
256,192,64141,1,0,0:0:0:0:
256,192,64219,1,8,0:0:0:0:
256,192,64375,1,0,0:0:0:0:
256,192,64453,1,0,0:0:0:0:
256,192,64532,1,8,0:0:0:0:
256,192,64610,1,8,0:0:0:0:
256,192,64688,1,0,0:0:0:0:
256,192,64844,1,8,0:0:0:0:
256,192,65000,1,0,0:0:0:0:
256,192,65157,1,0,0:0:0:0:
256,192,65313,1,0,0:0:0:0:
256,192,65391,1,0,0:0:0:0:
256,192,65469,1,8,0:0:0:0:
256,192,65625,1,0,0:0:0:0:
256,192,65703,1,8,0:0:0:0:
256,192,65782,1,0,0:0:0:0:
256,192,65860,1,8,0:0:0:0:
256,192,65938,1,0,0:0:0:0:
256,192,66094,1,8,0:0:0:0:
256,192,66250,1,0,0:0:0:0:
256,192,66407,1,8,0:0:0:0:
256,192,66563,1,0,0:0:0:0:
256,192,66641,1,0,0:0:0:0:
256,192,66719,1,8,0:0:0:0:
256,192,66875,1,8,0:0:0:0:
256,192,66953,1,8,0:0:0:0:
256,192,67032,1,0,0:0:0:0:
256,192,67110,1,8,0:0:0:0:
256,192,67188,1,0,0:0:0:0:
256,192,67344,1,8,0:0:0:0:
256,192,67500,1,0,0:0:0:0:
256,192,67657,1,12,0:0:0:0:
256,192,67813,1,0,0:0:0:0:
256,192,67891,1,0,0:0:0:0:
256,192,67969,1,0,0:0:0:0:
256,192,68125,1,12,0:0:0:0:
256,192,68282,1,0,0:0:0:0:
256,192,68360,1,0,0:0:0:0:
256,192,68438,1,0,0:0:0:0:
256,192,68594,1,12,0:0:0:0:
256,192,68750,1,0,0:0:0:0:
256,192,68828,1,0,0:0:0:0:
256,192,68907,1,0,0:0:0:0:
256,192,69063,1,12,0:0:0:0:
256,192,69219,1,0,0:0:0:0:
256,192,69297,1,0,0:0:0:0:
256,192,69375,1,0,0:0:0:0:
256,192,69532,1,12,0:0:0:0:
256,192,69688,1,0,0:0:0:0:
256,192,69766,1,0,0:0:0:0:
256,192,69844,1,0,0:0:0:0:
256,192,70000,1,12,0:0:0:0:
256,192,70157,1,4,0:0:0:0:
256,192,70313,1,8,0:0:0:0:
256,192,70469,1,8,0:0:0:0:
256,192,70625,1,0,0:0:0:0:
256,192,70782,1,8,0:0:0:0:
256,192,70938,1,8,0:0:0:0:
256,192,71094,1,0,0:0:0:0:
256,192,71250,1,8,0:0:0:0:
256,192,71407,1,4,0:0:0:0:
256,192,71641,1,4,0:0:0:0:
256,192,71875,1,12,0:0:0:0:
256,192,72110,1,12,0:0:0:0:
256,192,72344,1,4,0:0:0:0:
256,192,72657,1,12,0:0:0:0:
256,192,72813,1,0,0:0:0:0:
256,192,72969,1,8,0:0:0:0:
256,192,73125,1,0,0:0:0:0:
256,192,73203,1,8,0:0:0:0:
256,192,73282,1,0,0:0:0:0:
256,192,73360,1,0,0:0:0:0:
256,192,73438,1,8,0:0:0:0:
256,192,73594,1,8,0:0:0:0:
256,192,73750,1,0,0:0:0:0:
256,192,73828,1,0,0:0:0:0:
256,192,73907,1,0,0:0:0:0:
256,192,74063,1,0,0:0:0:0:
256,192,74141,1,8,0:0:0:0:
256,192,74219,1,8,0:0:0:0:
256,192,74375,1,0,0:0:0:0:
256,192,74453,1,0,0:0:0:0:
256,192,74532,1,8,0:0:0:0:
256,192,74610,1,0,0:0:0:0:
256,192,74688,1,8,0:0:0:0:
256,192,74844,1,8,0:0:0:0:
256,192,75000,1,0,0:0:0:0:
256,192,75157,1,8,0:0:0:0:
256,192,75313,1,8,0:0:0:0:
256,192,75391,1,0,0:0:0:0:
256,192,75469,1,8,0:0:0:0:
256,192,75625,1,0,0:0:0:0:
256,192,75703,1,8,0:0:0:0:
256,192,75782,1,0,0:0:0:0:
256,192,75860,1,8,0:0:0:0:
256,192,75938,1,0,0:0:0:0:
256,192,76094,1,8,0:0:0:0:
256,192,76250,1,0,0:0:0:0:
256,192,76407,1,8,0:0:0:0:
256,192,76563,1,0,0:0:0:0:
256,192,76641,1,0,0:0:0:0:
256,192,76719,1,8,0:0:0:0:
256,192,76875,1,0,0:0:0:0:
256,192,76953,1,0,0:0:0:0:
256,192,77032,1,8,0:0:0:0:
256,192,77110,1,8,0:0:0:0:
256,192,77188,1,0,0:0:0:0:
256,192,77344,1,8,0:0:0:0:
256,192,77500,1,0,0:0:0:0:
256,192,77657,1,12,0:0:0:0:
256,192,77813,1,0,0:0:0:0:
256,192,77891,1,0,0:0:0:0:
256,192,77969,1,0,0:0:0:0:
256,192,78125,1,12,0:0:0:0:
256,192,78282,1,0,0:0:0:0:
256,192,78360,1,0,0:0:0:0:
256,192,78438,1,0,0:0:0:0:
256,192,78594,1,12,0:0:0:0:
256,192,78750,1,0,0:0:0:0:
256,192,78828,1,0,0:0:0:0:
256,192,78907,1,0,0:0:0:0:
256,192,79063,1,12,0:0:0:0:
256,192,79219,1,0,0:0:0:0:
256,192,79297,1,0,0:0:0:0:
256,192,79375,1,0,0:0:0:0:
256,192,79532,1,12,0:0:0:0:
256,192,79688,1,0,0:0:0:0:
256,192,79766,1,0,0:0:0:0:
256,192,79844,1,0,0:0:0:0:
256,192,80000,1,12,0:0:0:0:
256,192,80157,1,4,0:0:0:0:
256,192,80313,1,8,0:0:0:0:
256,192,80469,1,8,0:0:0:0:
256,192,80625,1,0,0:0:0:0:
256,192,80782,1,8,0:0:0:0:
256,192,80938,1,8,0:0:0:0:
256,192,81094,1,0,0:0:0:0:
256,192,81250,1,8,0:0:0:0:
256,192,81407,1,4,0:0:0:0:
256,192,81641,1,4,0:0:0:0:
256,192,81875,1,12,0:0:0:0:
256,192,82110,1,12,0:0:0:0:
256,192,82344,1,4,0:0:0:0:
256,192,82657,1,12,0:0:0:0:
256,192,82813,1,0,0:0:0:0:
256,192,82969,1,8,0:0:0:0:
256,192,83125,1,0,0:0:0:0:
256,192,83203,1,8,0:0:0:0:
256,192,83282,1,0,0:0:0:0:
256,192,83360,1,0,0:0:0:0:
256,192,83438,1,8,0:0:0:0:
256,192,83594,1,8,0:0:0:0:
256,192,83750,1,0,0:0:0:0:
256,192,83828,1,0,0:0:0:0:
256,192,83907,1,8,0:0:0:0:
256,192,84063,1,0,0:0:0:0:
256,192,84219,1,8,0:0:0:0:
256,192,84375,1,8,0:0:0:0:
256,192,84453,1,8,0:0:0:0:
256,192,84532,1,0,0:0:0:0:
256,192,84610,1,8,0:0:0:0:
256,192,84688,1,0,0:0:0:0:
256,192,84844,1,8,0:0:0:0:
256,192,85000,1,0,0:0:0:0:
256,192,85157,1,0,0:0:0:0:
256,192,85235,1,0,0:0:0:0:
256,192,85313,1,0,0:0:0:0:
256,192,85469,1,8,0:0:0:0:
256,192,85625,1,0,0:0:0:0:
256,192,85703,1,8,0:0:0:0:
256,192,85782,1,8,0:0:0:0:
256,192,85860,1,0,0:0:0:0:
256,192,85938,1,8,0:0:0:0:
256,192,86094,1,8,0:0:0:0:
256,192,86250,1,0,0:0:0:0:
256,192,86407,1,8,0:0:0:0:
256,192,86563,1,0,0:0:0:0:
256,192,86719,1,8,0:0:0:0:
256,192,86875,1,0,0:0:0:0:
256,192,86953,1,0,0:0:0:0:
256,192,87032,1,8,0:0:0:0:
256,192,87110,1,8,0:0:0:0:
256,192,87188,1,0,0:0:0:0:
256,192,87344,1,8,0:0:0:0:
256,192,87500,1,0,0:0:0:0:
256,192,87657,1,12,0:0:0:0:
256,192,87813,1,0,0:0:0:0:
256,192,87891,1,0,0:0:0:0:
256,192,87969,1,0,0:0:0:0:
256,192,88125,1,12,0:0:0:0:
256,192,88282,1,0,0:0:0:0:
256,192,88360,1,0,0:0:0:0:
256,192,88438,1,0,0:0:0:0:
256,192,88594,1,12,0:0:0:0:
256,192,88750,1,0,0:0:0:0:
256,192,88828,1,0,0:0:0:0:
256,192,88907,1,0,0:0:0:0:
256,192,89063,1,12,0:0:0:0:
256,192,89219,1,0,0:0:0:0:
256,192,89297,1,0,0:0:0:0:
256,192,89375,1,0,0:0:0:0:
256,192,89532,1,12,0:0:0:0:
256,192,89688,1,0,0:0:0:0:
256,192,89766,1,0,0:0:0:0:
256,192,89844,1,0,0:0:0:0:
256,192,90000,1,12,0:0:0:0:
256,192,90157,1,4,0:0:0:0:
256,192,90313,1,8,0:0:0:0:
256,192,90469,1,8,0:0:0:0:
256,192,90625,1,0,0:0:0:0:
256,192,90782,1,8,0:0:0:0:
256,192,90938,1,8,0:0:0:0:
256,192,91094,1,0,0:0:0:0:
256,192,91250,1,8,0:0:0:0:
256,192,91407,1,4,0:0:0:0:
256,192,91641,1,4,0:0:0:0:
256,192,91875,1,12,0:0:0:0:
256,192,92110,1,12,0:0:0:0:
256,192,92344,1,4,0:0:0:0:
256,192,92657,1,12,0:0:0:0:
256,192,92813,1,0,0:0:0:0:
256,192,92969,1,8,0:0:0:0:
256,192,93125,1,0,0:0:0:0:
256,192,93203,1,8,0:0:0:0:
256,192,93282,1,0,0:0:0:0:
256,192,93360,1,8,0:0:0:0:
256,192,93438,1,0,0:0:0:0:
256,192,93594,1,8,0:0:0:0:
256,192,93750,1,0,0:0:0:0:
256,192,93828,1,0,0:0:0:0:
256,192,93907,1,8,0:0:0:0:
256,192,94063,1,0,0:0:0:0:
256,192,94219,1,8,0:0:0:0:
256,192,94375,1,8,0:0:0:0:
256,192,94453,1,8,0:0:0:0:
256,192,94532,1,0,0:0:0:0:
256,192,94610,1,8,0:0:0:0:
256,192,94688,1,0,0:0:0:0:
256,192,94844,1,8,0:0:0:0:
256,192,95000,1,0,0:0:0:0:
256,192,95157,1,0,0:0:0:0:
256,192,95235,1,0,0:0:0:0:
256,192,95391,1,8,0:0:0:0:
256,192,95469,1,0,0:0:0:0:
256,192,95625,1,8,0:0:0:0:
256,192,95782,1,0,0:0:0:0:
256,192,95860,1,0,0:0:0:0:
256,192,96016,1,8,0:0:0:0:
256,192,96094,1,0,0:0:0:0:
256,192,96250,1,8,0:0:0:0:
256,192,96407,1,0,0:0:0:0:
256,192,96563,1,0,0:0:0:0:
256,192,96641,1,8,0:0:0:0:
256,192,96719,1,0,0:0:0:0:
256,192,96875,1,8,0:0:0:0:
256,192,96953,1,8,0:0:0:0:
256,192,97032,1,0,0:0:0:0:
256,192,97188,1,0,0:0:0:0:
256,192,97344,1,8,0:0:0:0:
256,192,97422,1,0,0:0:0:0:
256,192,97500,1,8,0:0:0:0:
256,192,97657,1,12,0:0:0:0:
256,192,97813,1,0,0:0:0:0:
256,192,97891,1,0,0:0:0:0:
256,192,97969,1,0,0:0:0:0:
256,192,98125,1,12,0:0:0:0:
256,192,98282,1,0,0:0:0:0:
256,192,98360,1,0,0:0:0:0:
256,192,98438,1,0,0:0:0:0:
256,192,98594,1,12,0:0:0:0:
256,192,98750,1,0,0:0:0:0:
256,192,98828,1,0,0:0:0:0:
256,192,98907,1,0,0:0:0:0:
256,192,99063,1,12,0:0:0:0:
256,192,99219,1,0,0:0:0:0:
256,192,99297,1,0,0:0:0:0:
256,192,99375,1,0,0:0:0:0:
256,192,99532,1,12,0:0:0:0:
256,192,99688,1,0,0:0:0:0:
256,192,99766,1,0,0:0:0:0:
256,192,99844,1,0,0:0:0:0:
256,192,100000,1,12,0:0:0:0:
256,192,100157,1,4,0:0:0:0:
256,192,100313,1,8,0:0:0:0:
256,192,100469,1,8,0:0:0:0:
256,192,100625,1,0,0:0:0:0:
256,192,100782,1,8,0:0:0:0:
256,192,100938,1,8,0:0:0:0:
256,192,101094,1,0,0:0:0:0:
256,192,101250,1,8,0:0:0:0:
256,192,101407,1,4,0:0:0:0:
256,192,101641,1,4,0:0:0:0:
256,192,101875,1,12,0:0:0:0:
256,192,102110,1,12,0:0:0:0:
256,192,102344,1,4,0:0:0:0:
256,192,102657,1,12,0:0:0:0:
256,192,102813,1,0,0:0:0:0:
256,192,102891,1,0,0:0:0:0:
256,192,102969,1,8,0:0:0:0:
256,192,103125,1,0,0:0:0:0:
256,192,103203,1,0,0:0:0:0:
256,192,103282,1,0,0:0:0:0:
256,192,103360,1,0,0:0:0:0:
256,192,103438,1,0,0:0:0:0:
256,192,103594,1,8,0:0:0:0:
256,192,103907,1,0,0:0:0:0:
256,192,104063,1,0,0:0:0:0:
256,192,104141,1,0,0:0:0:0:
256,192,104219,1,8,0:0:0:0:
256,192,104375,1,0,0:0:0:0:
256,192,104453,1,0,0:0:0:0:
256,192,104532,1,0,0:0:0:0:
256,192,104610,1,0,0:0:0:0:
256,192,104688,1,0,0:0:0:0:
256,192,104844,1,8,0:0:0:0:
256,192,105000,1,0,0:0:0:0:
256,192,105157,1,0,0:0:0:0:
256,192,105469,1,8,0:0:0:0:
256,192,105625,1,0,0:0:0:0:
256,192,105703,1,0,0:0:0:0:
256,192,105782,1,0,0:0:0:0:
256,192,105860,1,0,0:0:0:0:
256,192,105938,1,0,0:0:0:0:
256,192,106094,1,8,0:0:0:0:
256,192,106407,1,0,0:0:0:0:
256,192,106563,1,0,0:0:0:0:
256,192,106641,1,0,0:0:0:0:
256,192,106719,1,8,0:0:0:0:
256,192,106875,1,0,0:0:0:0:
256,192,106953,1,0,0:0:0:0:
256,192,107032,1,0,0:0:0:0:
256,192,107110,1,0,0:0:0:0:
256,192,107188,1,0,0:0:0:0:
256,192,107344,1,8,0:0:0:0:
256,192,107500,1,0,0:0:0:0:
256,192,107657,1,12,0:0:0:0:
256,192,107813,1,0,0:0:0:0:
256,192,107969,1,0,0:0:0:0:
256,192,108125,1,12,0:0:0:0:
256,192,108282,1,0,0:0:0:0:
256,192,108438,1,12,0:0:0:0:
256,192,108750,1,0,0:0:0:0:
256,192,108828,1,0,0:0:0:0:
256,192,108907,1,0,0:0:0:0:
256,192,109063,1,12,0:0:0:0:
256,192,109219,1,0,0:0:0:0:
256,192,109375,1,12,0:0:0:0:
256,192,109688,1,12,0:0:0:0:
256,192,109844,1,0,0:0:0:0:
256,192,110000,1,0,0:0:0:0:
256,192,110157,1,12,0:0:0:0:
256,192,110313,1,0,0:0:0:0:
256,192,110469,1,0,0:0:0:0:
256,192,110625,1,12,0:0:0:0:
256,192,110782,1,0,0:0:0:0:
256,192,110938,1,12,0:0:0:0:
256,192,111250,1,0,0:0:0:0:
256,192,111328,1,0,0:0:0:0:
256,192,111407,1,0,0:0:0:0:
256,192,111563,1,12,0:0:0:0:
256,192,111719,1,0,0:0:0:0:
256,192,111875,1,12,0:0:0:0:
256,192,112032,1,0,0:0:0:0:
256,192,112188,1,12,0:0:0:0:
256,192,112344,1,0,0:0:0:0:
256,192,112500,1,0,0:0:0:0:
256,192,112657,1,12,0:0:0:0:
