osu file format v14

[General]
AudioFilename: audio.mp3
AudioLeadIn: 0
PreviewTime: 81407
Countdown: 0
SampleSet: Soft
StackLeniency: 0.7
Mode: 3
LetterboxInBreaks: 0
SpecialStyle: 0
WidescreenStoryboard: 1

[Editor]
DistanceSpacing: 1
BeatDivisor: 4
GridSize: 16
TimelineZoom: 1.7

[Metadata]
Title:Aqua Stars
TitleUnicode:Aqua Stars
Artist:Sound Souler
ArtistUnicode:Sound Souler
Creator:Xnery
Version:Normal
Source:osu!
Tags:overrapid muse dash sixtar gate featured artist fa dnb drum and bass artcore electronic video game instrumental piano milkyway traveler xnery
BeatmapID:2749394
BeatmapSetID:1279947

[Difficulty]
HPDrainRate:7
CircleSize:4
OverallDifficulty:7
ApproachRate:5
SliderMultiplier:1.4
SliderTickRate:1

[Events]
//Background and Video events
0,0,"aquastars.png",0,0
//Break Periods
//Storyboard Layer 0 (Background)
//Storyboard Layer 1 (Fail)
//Storyboard Layer 2 (Pass)
//Storyboard Layer 3 (Foreground)
//Storyboard Layer 4 (Overlay)
//Storyboard Sound Samples
Sample,2657,0,"cymbalcut.wav",70
Sample,3125,0,"cymbalcut.wav",70
Sample,3438,0,"cymbalcut.wav",70
Sample,5157,0,"cymbalcut.wav",70
Sample,5625,0,"cymbalcut.wav",70
Sample,5938,0,"cymbalcut.wav",70
Sample,7657,0,"cymbalcut.wav",70
Sample,8125,0,"cymbalcut.wav",70
Sample,8438,0,"cymbalcut.wav",70
Sample,21953,0,"soft-hitwhistle.wav",70
Sample,36641,0,"soft-hitwhistle.wav",70
Sample,37266,0,"soft-hitwhistle.wav",70
Sample,67813,0,"soft-hitwhistle.wav",70
Sample,67891,0,"soft-hitwhistle.wav",70
Sample,67969,0,"soft-hitwhistle.wav",70
Sample,68282,0,"soft-hitwhistle.wav",70
Sample,68360,0,"soft-hitwhistle.wav",70
Sample,68438,0,"soft-hitwhistle.wav",70
Sample,68750,0,"soft-hitwhistle.wav",70
Sample,68828,0,"soft-hitwhistle.wav",70
Sample,68907,0,"soft-hitwhistle.wav",70
Sample,69219,0,"soft-hitwhistle.wav",70
Sample,69297,0,"soft-hitwhistle.wav",70
Sample,69375,0,"soft-hitwhistle.wav",70
Sample,69688,0,"soft-hitwhistle.wav",70
Sample,69766,0,"soft-hitwhistle.wav",70
Sample,69844,0,"soft-hitwhistle.wav",70
Sample,77813,0,"soft-hitwhistle.wav",70
Sample,77891,0,"soft-hitwhistle.wav",70
Sample,77969,0,"soft-hitwhistle.wav",70
Sample,78282,0,"soft-hitwhistle.wav",70
Sample,78360,0,"soft-hitwhistle.wav",70
Sample,78438,0,"soft-hitwhistle.wav",70
Sample,78750,0,"soft-hitwhistle.wav",70
Sample,78828,0,"soft-hitwhistle.wav",70
Sample,78907,0,"soft-hitwhistle.wav",70
Sample,79219,0,"soft-hitwhistle.wav",70
Sample,79297,0,"soft-hitwhistle.wav",70
Sample,79375,0,"soft-hitwhistle.wav",70
Sample,79688,0,"soft-hitwhistle.wav",70
Sample,79766,0,"soft-hitwhistle.wav",70
Sample,79844,0,"soft-hitwhistle.wav",70
Sample,80313,0,"soft-hitclap.wav",70
Sample,80469,0,"soft-hitclap.wav",70
Sample,80938,0,"soft-hitclap.wav",70
Sample,81094,0,"soft-hitwhistle.wav",70
Sample,83203,0,"soft-hitwhistle.wav",70
Sample,85703,0,"soft-hitwhistle.wav",70
Sample,87813,0,"soft-hitwhistle.wav",70
Sample,87891,0,"soft-hitwhistle.wav",70
Sample,87969,0,"soft-hitwhistle.wav",70
Sample,88282,0,"soft-hitwhistle.wav",70
Sample,88360,0,"soft-hitwhistle.wav",70
Sample,88438,0,"soft-hitwhistle.wav",70
Sample,88750,0,"soft-hitwhistle.wav",70
Sample,88828,0,"soft-hitwhistle.wav",70
Sample,88907,0,"soft-hitwhistle.wav",70
Sample,89219,0,"soft-hitwhistle.wav",70
Sample,89297,0,"soft-hitwhistle.wav",70
Sample,89375,0,"soft-hitwhistle.wav",70
Sample,89688,0,"soft-hitwhistle.wav",70
Sample,89766,0,"soft-hitwhistle.wav",70
Sample,89844,0,"soft-hitwhistle.wav",70
Sample,91641,0,"cymbalcut.wav",70
Sample,91875,0,"cymbalcut.wav",70
Sample,92110,0,"cymbalcut.wav",70
Sample,92344,0,"cymbalcut.wav",70
Sample,93203,0,"soft-hitwhistle.wav",70
Sample,95469,0,"soft-hitclap.wav",70
Sample,95703,0,"soft-hitwhistle.wav",70
Sample,95938,0,"soft-hitwhistle.wav",70
Sample,96094,0,"soft-hitclap.wav",70
Sample,96563,0,"soft-hitwhistle.wav",70
Sample,96719,0,"soft-hitclap.wav",70
Sample,97813,0,"soft-hitwhistle.wav",70
Sample,97969,0,"soft-hitwhistle.wav",70
Sample,98125,0,"cymbalcut.wav",70
Sample,98360,0,"soft-hitwhistle.wav",70
Sample,98438,0,"soft-hitwhistle.wav",70
Sample,98594,0,"cymbalcut.wav",70
Sample,98594,0,"soft-hitclap.wav",70
Sample,98828,0,"soft-hitwhistle.wav",70
Sample,99063,0,"soft-hitclap.wav",70
Sample,99063,0,"cymbalcut.wav",70
Sample,99219,0,"soft-hitwhistle.wav",70
Sample,99297,0,"soft-hitwhistle.wav",70
Sample,99532,0,"cymbalcut.wav",70
Sample,99688,0,"soft-hitwhistle.wav",70
Sample,99844,0,"soft-hitwhistle.wav",70
Sample,107657,0,"cymbalcut.wav",70
Sample,108125,0,"cymbalcut.wav",70
Sample,108438,0,"cymbalcut.wav",70
Sample,110157,0,"cymbalcut.wav",70
Sample,110625,0,"cymbalcut.wav",70
Sample,110938,0,"cymbalcut.wav",70

[TimingPoints]
2657,312.5,4,2,1,60,1,0
17657,-100,4,2,1,60,0,1
37657,-100,4,2,1,60,0,0
82657,-100,4,2,1,60,0,1
102657,-100,4,2,1,60,0,0

[HitObjects]
320,192,2657,5,8,0:0:0:0:
64,192,2813,1,2,0:0:0:0:
64,192,2969,1,2,0:0:0:0:
320,192,3125,1,8,0:0:0:0:
320,192,3438,1,8,0:0:0:0:
192,192,3750,1,2,0:0:0:0:
320,192,3828,1,2,0:0:0:0:
192,192,3907,1,2,0:0:0:0:
320,192,4063,1,4,0:0:0:0:
448,192,4063,1,8,0:0:0:0:
64,192,4219,1,2,0:0:0:0:
448,192,4375,1,8,0:0:0:0:
448,192,4688,1,8,0:0:0:0:
192,192,4844,1,2,0:0:0:0:
192,192,5000,1,2,0:0:0:0:
320,192,5157,1,8,0:0:0:0:
64,192,5313,1,2,0:0:0:0:
64,192,5469,1,2,0:0:0:0:
320,192,5625,1,8,0:0:0:0:
320,192,5938,1,8,0:0:0:0:
192,192,6250,1,2,0:0:0:0:
320,192,6328,1,2,0:0:0:0:
192,192,6407,1,2,0:0:0:0:
320,192,6563,1,4,0:0:0:0:
448,192,6563,1,8,0:0:0:0:
448,192,6875,1,8,0:0:0:0:
448,192,7188,1,8,0:0:0:0:
192,192,7344,1,2,0:0:0:0:
448,192,7657,1,8,0:0:0:0:
64,192,7813,1,2,0:0:0:0:
64,192,7969,1,2,0:0:0:0:
448,192,8125,1,8,0:0:0:0:
448,192,8438,1,8,0:0:0:0:
192,192,8750,1,2,0:0:0:0:
320,192,8828,1,2,0:0:0:0:
192,192,8907,1,2,0:0:0:0:
320,192,9063,1,4,0:0:0:0:
448,192,9063,1,8,0:0:0:0:
192,192,9219,1,2,0:0:0:0:
448,192,9375,1,8,0:0:0:0:
448,192,9688,1,8,0:0:0:0:
320,192,9844,1,2,0:0:0:0:
320,192,10000,1,2,0:0:0:0:
64,192,10157,1,4,0:0:0:0:
448,192,10157,1,0,0:0:0:0:
192,192,10365,1,0,0:0:0:0:
320,192,10573,1,0,0:0:0:0:
192,192,10782,1,0,0:0:0:0:
320,192,10990,1,0,0:0:0:0:
448,192,11198,1,0,0:0:0:0:
64,192,11407,1,0,0:0:0:0:
192,192,11615,1,0,0:0:0:0:
320,192,11823,1,0,0:0:0:0:
448,192,12032,1,0,0:0:0:0:
320,192,12240,1,0,0:0:0:0:
192,192,12448,1,0,0:0:0:0:
64,192,12657,128,0,17657:0:0:0:0:
320,192,12657,1,0,0:0:0:0:
320,192,17657,128,4,17969:0:0:0:0:
448,192,17657,1,2,0:0:0:0:
64,192,17969,1,8,0:0:0:0:
192,192,17969,1,0,0:0:0:0:
448,192,18125,128,0,18438:0:0:0:0:
64,192,18203,1,2,0:0:0:0:
192,192,18438,1,8,0:0:0:0:
320,192,18438,1,0,0:0:0:0:
64,192,18594,128,0,19063:0:0:0:0:
448,192,18750,1,2,0:0:0:0:
320,192,18907,1,2,0:0:0:0:
192,192,19063,128,0,19532:0:0:0:0:
320,192,19219,1,8,0:0:0:0:
448,192,19219,1,0,0:0:0:0:
320,192,19453,1,2,0:0:0:0:
448,192,19532,128,0,19844:0:0:0:0:
64,192,19688,1,8,0:0:0:0:
192,192,19688,1,0,0:0:0:0:
320,192,19844,128,0,20157:0:0:0:0:
192,192,20000,1,2,0:0:0:0:
64,192,20157,128,2,20313:0:0:0:0:
448,192,20313,128,0,20469:0:0:0:0:
192,192,20469,1,8,0:0:0:0:
320,192,20469,1,0,0:0:0:0:
64,192,20625,128,0,20938:0:0:0:0:
448,192,20703,1,2,0:0:0:0:
192,192,20938,1,8,0:0:0:0:
320,192,20938,128,0,21250:0:0:0:0:
448,192,21250,128,2,21719:0:0:0:0:
192,192,21407,1,2,0:0:0:0:
64,192,21719,128,8,21875:0:0:0:0:
192,192,21719,1,0,0:0:0:0:
320,192,21875,128,0,22032:0:0:0:0:
192,192,22032,128,0,22188:0:0:0:0:
448,192,22188,128,2,22344:0:0:0:0:
64,192,22344,1,8,0:0:0:0:
320,192,22344,128,0,22500:0:0:0:0:
192,192,22500,128,2,22657:0:0:0:0:
64,192,22657,128,2,22969:0:0:0:0:
192,192,22969,1,8,0:0:0:0:
448,192,22969,1,0,0:0:0:0:
320,192,23125,128,0,23438:0:0:0:0:
448,192,23203,1,2,0:0:0:0:
64,192,23438,1,8,0:0:0:0:
192,192,23438,1,0,0:0:0:0:
448,192,23594,128,0,24063:0:0:0:0:
64,192,23750,1,2,0:0:0:0:
192,192,23907,1,2,0:0:0:0:
320,192,24063,128,0,24219:0:0:0:0:
64,192,24219,1,8,0:0:0:0:
448,192,24219,1,0,0:0:0:0:
192,192,24375,128,0,24688:0:0:0:0:
320,192,24453,1,2,0:0:0:0:
64,192,24688,128,8,24844:0:0:0:0:
448,192,24688,1,0,0:0:0:0:
192,192,24844,128,0,25000:0:0:0:0:
320,192,25000,128,2,25157:0:0:0:0:
448,192,25157,128,2,25313:0:0:0:0:
192,192,25313,128,0,25469:0:0:0:0:
320,192,25469,1,8,0:0:0:0:
448,192,25469,1,0,0:0:0:0:
64,192,25625,128,0,25938:0:0:0:0:
448,192,25703,1,2,0:0:0:0:
192,192,25938,128,8,26250:0:0:0:0:
320,192,25938,1,0,0:0:0:0:
320,192,26250,128,2,26407:0:0:0:0:
448,192,26407,128,2,26563:0:0:0:0:
64,192,26563,128,0,26719:0:0:0:0:
192,192,26719,128,8,26875:0:0:0:0:
320,192,26719,1,0,0:0:0:0:
448,192,26875,128,0,27032:0:0:0:0:
64,192,26953,1,2,0:0:0:0:
320,192,27032,128,0,27188:0:0:0:0:
192,192,27188,128,2,27344:0:0:0:0:
64,192,27344,1,8,0:0:0:0:
448,192,27344,128,0,27500:0:0:0:0:
320,192,27500,128,2,27657:0:0:0:0:
64,192,27657,1,6,0:0:0:0:
192,192,27813,1,0,0:0:0:0:
320,192,27969,1,0,0:0:0:0:
448,192,28125,1,2,0:0:0:0:
64,192,28282,1,8,0:0:0:0:
192,192,28282,1,0,0:0:0:0:
448,192,28438,1,0,0:0:0:0:
320,192,28594,1,2,0:0:0:0:
64,192,28907,1,2,0:0:0:0:
192,192,29063,1,8,0:0:0:0:
448,192,29063,1,0,0:0:0:0:
320,192,29219,1,0,0:0:0:0:
448,192,29375,1,2,0:0:0:0:
64,192,29532,1,8,0:0:0:0:
192,192,29532,1,0,0:0:0:0:
448,192,29688,1,0,0:0:0:0:
320,192,29844,1,2,0:0:0:0:
192,192,30000,1,0,0:0:0:0:
448,192,30157,128,2,30625:0:0:0:0:
320,192,30625,128,2,31094:0:0:0:0:
64,192,30782,1,8,0:0:0:0:
192,192,30782,1,0,0:0:0:0:
64,192,31094,128,2,31407:0:0:0:0:
192,192,31407,128,2,31563:0:0:0:0:
320,192,31563,128,8,31719:0:0:0:0:
448,192,31563,1,0,0:0:0:0:
64,192,31719,1,2,0:0:0:0:
192,192,31875,128,0,32032:0:0:0:0:
320,192,32032,1,8,0:0:0:0:
448,192,32032,1,0,0:0:0:0:
64,192,32188,1,0,0:0:0:0:
192,192,32266,1,8,0:0:0:0:
320,192,32344,128,2,32500:0:0:0:0:
192,192,32500,1,8,0:0:0:0:
448,192,32500,128,0,32657:0:0:0:0:
64,192,32657,128,2,33282:0:0:0:0:
192,192,32813,1,2,0:0:0:0:
320,192,32969,1,2,0:0:0:0:
320,192,33282,1,8,0:0:0:0:
448,192,33282,1,0,0:0:0:0:
192,192,33594,128,2,33750:0:0:0:0:
320,192,33750,128,0,33907:0:0:0:0:
448,192,33907,128,2,34063:0:0:0:0:
64,192,34063,1,8,0:0:0:0:
192,192,34063,1,0,0:0:0:0:
192,192,34375,128,2,34532:0:0:0:0:
320,192,34532,1,8,0:0:0:0:
448,192,34532,1,0,0:0:0:0:
192,192,34844,1,2,0:0:0:0:
320,192,35000,1,8,0:0:0:0:
448,192,35000,1,0,0:0:0:0:
64,192,35157,1,2,0:0:0:0:
192,192,35313,1,2,0:0:0:0:
320,192,35469,128,2,35625:0:0:0:0:
64,192,35625,1,2,0:0:0:0:
320,192,35782,128,2,35938:0:0:0:0:
448,192,35938,128,2,36094:0:0:0:0:
192,192,36094,1,2,0:0:0:0:
448,192,36250,128,2,36407:0:0:0:0:
192,192,36407,1,8,0:0:0:0:
320,192,36407,128,0,36563:0:0:0:0:
64,192,36563,128,2,36719:0:0:0:0:
320,192,36719,128,2,36875:0:0:0:0:
192,192,36875,1,8,0:0:0:0:
448,192,36875,128,0,37032:0:0:0:0:
64,192,37032,128,2,37188:0:0:0:0:
192,192,37188,128,0,37344:0:0:0:0:
320,192,37344,128,0,37500:0:0:0:0:
448,192,37500,128,2,37657:0:0:0:0:
64,192,37657,128,4,41407:0:0:0:0:
192,192,37657,128,2,41407:0:0:0:0:
64,192,42657,128,4,43594:0:0:0:0:
448,192,42657,1,0,0:0:0:0:
192,192,42813,1,0,0:0:0:0:
320,192,42969,1,0,0:0:0:0:
448,192,43125,1,0,0:0:0:0:
320,192,43594,128,0,43750:0:0:0:0:
64,192,43750,128,0,44532:0:0:0:0:
320,192,44532,1,0,0:0:0:0:
192,192,44688,128,0,44844:0:0:0:0:
448,192,44844,128,0,45000:0:0:0:0:
320,192,45000,128,0,45157:0:0:0:0:
192,192,45157,128,0,46094:0:0:0:0:
64,192,45313,1,0,0:0:0:0:
320,192,45469,1,0,0:0:0:0:
448,192,45625,1,0,0:0:0:0:
448,192,46094,128,0,46250:0:0:0:0:
192,192,46250,128,0,46875:0:0:0:0:
320,192,46563,1,0,0:0:0:0:
448,192,46719,1,0,0:0:0:0:
64,192,46875,128,0,47032:0:0:0:0:
448,192,47032,128,0,47188:0:0:0:0:
320,192,47188,128,0,47344:0:0:0:0:
192,192,47344,128,0,47500:0:0:0:0:
64,192,47500,128,0,47657:0:0:0:0:
192,192,47657,128,0,50157:0:0:0:0:
320,192,47969,1,0,0:0:0:0:
448,192,48125,1,0,0:0:0:0:
64,192,50157,128,0,50469:0:0:0:0:
192,192,50469,128,0,50625:0:0:0:0:
320,192,50625,128,0,50938:0:0:0:0:
448,192,50938,128,0,51250:0:0:0:0:
64,192,51094,1,0,0:0:0:0:
192,192,51250,128,0,51407:0:0:0:0:
320,192,51407,128,0,51719:0:0:0:0:
64,192,51563,1,0,0:0:0:0:
448,192,51719,128,0,52032:0:0:0:0:
192,192,51875,1,0,0:0:0:0:
320,192,52032,128,0,52344:0:0:0:0:
64,192,52188,1,0,0:0:0:0:
192,192,52344,128,0,52657:0:0:0:0:
448,192,52500,1,0,0:0:0:0:
64,192,52657,128,0,53594:0:0:0:0:
192,192,52813,1,0,0:0:0:0:
320,192,52969,1,0,0:0:0:0:
448,192,53125,1,0,0:0:0:0:
448,192,53594,128,0,53750:0:0:0:0:
64,192,53750,128,0,54844:0:0:0:0:
192,192,54063,1,0,0:0:0:0:
448,192,54375,1,0,0:0:0:0:
320,192,54532,1,0,0:0:0:0:
448,192,54844,128,0,55157:0:0:0:0:
192,192,55157,128,0,55625:0:0:0:0:
64,192,55313,1,0,0:0:0:0:
320,192,55469,1,0,0:0:0:0:
448,192,55625,128,0,56094:0:0:0:0:
192,192,56094,128,0,56250:0:0:0:0:
320,192,56250,128,0,56407:0:0:0:0:
448,192,56407,128,0,56719:0:0:0:0:
64,192,56563,1,0,0:0:0:0:
320,192,56719,128,0,57032:0:0:0:0:
448,192,56875,1,0,0:0:0:0:
192,192,57032,128,0,57344:0:0:0:0:
64,192,57344,128,0,57657:0:0:0:0:
448,192,57657,1,0,0:0:0:0:
320,192,57813,1,0,0:0:0:0:
192,192,57969,1,0,0:0:0:0:
448,192,58125,1,0,0:0:0:0:
320,192,58282,1,0,0:0:0:0:
64,192,58438,1,0,0:0:0:0:
448,192,58594,1,0,0:0:0:0:
192,192,58750,1,0,0:0:0:0:
64,192,58907,1,0,0:0:0:0:
320,192,59063,1,0,0:0:0:0:
192,192,59219,1,0,0:0:0:0:
64,192,59375,1,0,0:0:0:0:
448,192,59532,1,0,0:0:0:0:
320,192,59688,1,0,0:0:0:0:
192,192,59844,1,0,0:0:0:0:
448,192,60000,1,0,0:0:0:0:
320,192,60157,128,0,62657:0:0:0:0:
64,192,62657,1,4,0:0:0:0:
448,192,62657,1,2,0:0:0:0:
192,192,62813,1,0,0:0:0:0:
320,192,62891,1,0,0:0:0:0:
448,192,62969,1,8,0:0:0:0:
64,192,63125,1,0,0:0:0:0:
192,192,63203,1,2,0:0:0:0:
448,192,63282,1,0,0:0:0:0:
320,192,63360,1,0,0:0:0:0:
192,192,63438,1,2,0:0:0:0:
320,192,63594,1,8,0:0:0:0:
192,192,63750,1,0,0:0:0:0:
64,192,63907,1,0,0:0:0:0:
448,192,64063,1,2,0:0:0:0:
320,192,64141,1,0,0:0:0:0:
192,192,64219,1,8,0:0:0:0:
64,192,64375,1,0,0:0:0:0:
192,192,64453,1,0,0:0:0:0:
320,192,64532,1,2,0:0:0:0:
448,192,64610,1,0,0:0:0:0:
64,192,64688,1,2,0:0:0:0:
448,192,64844,1,8,0:0:0:0:
320,192,65157,1,2,0:0:0:0:
64,192,65313,1,0,0:0:0:0:
192,192,65391,1,0,0:0:0:0:
320,192,65469,1,8,0:0:0:0:
64,192,65625,1,0,0:0:0:0:
192,192,65703,1,2,0:0:0:0:
448,192,65782,1,0,0:0:0:0:
320,192,65860,1,0,0:0:0:0:
192,192,65938,1,2,0:0:0:0:
448,192,66094,1,8,0:0:0:0:
320,192,66250,1,0,0:0:0:0:
64,192,66407,1,0,0:0:0:0:
192,192,66563,1,2,0:0:0:0:
320,192,66641,1,0,0:0:0:0:
448,192,66719,1,8,0:0:0:0:
64,192,66875,1,0,0:0:0:0:
192,192,66953,1,0,0:0:0:0:
448,192,67032,1,2,0:0:0:0:
64,192,67110,1,0,0:0:0:0:
320,192,67188,1,2,0:0:0:0:
192,192,67344,1,8,0:0:0:0:
64,192,67500,1,0,0:0:0:0:
320,192,67657,1,8,0:0:0:0:
448,192,67657,1,0,0:0:0:70:cymbalcut.wav
192,192,68125,1,8,0:0:0:0:
448,192,68125,1,0,0:0:0:70:cymbalcut.wav
192,192,68594,1,8,0:0:0:0:
320,192,68594,1,0,0:0:0:70:cymbalcut.wav
64,192,69063,1,8,0:0:0:0:
320,192,69063,1,0,0:0:0:70:cymbalcut.wav
64,192,69532,1,8,0:0:0:0:
192,192,69532,1,0,0:0:0:70:cymbalcut.wav
320,192,70000,1,8,0:0:0:0:
448,192,70000,1,0,0:0:0:0:
64,192,70157,1,4,0:0:0:0:
192,192,70157,1,2,0:0:0:0:
320,192,70313,1,8,0:0:0:0:
448,192,70469,1,8,0:0:0:0:
64,192,70625,1,2,0:0:0:0:
192,192,70782,1,8,0:0:0:0:
320,192,70938,1,8,0:0:0:0:
64,192,71094,1,2,0:0:0:0:
320,192,71250,1,8,0:0:0:0:
192,192,71407,1,0,0:0:0:70:cymbalcut.wav
448,192,71407,1,0,0:0:0:0:
64,192,71641,1,0,0:0:0:70:cymbalcut.wav
320,192,71641,1,0,0:0:0:0:
192,192,71875,1,0,0:0:0:70:cymbalcut.wav
448,192,71875,1,0,0:0:0:0:
320,192,72032,1,0,0:0:0:0:
64,192,72110,1,0,0:0:0:70:cymbalcut.wav
192,192,72188,1,2,0:0:0:0:
64,192,72344,1,0,0:0:0:70:cymbalcut.wav
448,192,72344,1,0,0:0:0:0:
320,192,72500,1,2,0:0:0:0:
64,192,72657,1,4,0:0:0:0:
192,192,72657,1,2,0:0:0:0:
448,192,72813,1,0,0:0:0:0:
320,192,72891,1,0,0:0:0:0:
192,192,72969,1,8,0:0:0:0:
64,192,73125,1,0,0:0:0:0:
192,192,73203,1,2,0:0:0:0:
320,192,73282,1,0,0:0:0:0:
448,192,73360,1,0,0:0:0:0:
192,192,73438,1,2,0:0:0:0:
320,192,73594,1,8,0:0:0:0:
64,192,73770,1,0,0:0:0:0:
448,192,73770,1,0,0:0:0:0:
320,192,73907,1,0,0:0:0:0:
192,192,74063,1,2,0:0:0:0:
448,192,74219,1,8,0:0:0:0:
320,192,74375,1,0,0:0:0:0:
192,192,74453,1,0,0:0:0:0:
64,192,74532,1,2,0:0:0:0:
320,192,74610,1,0,0:0:0:0:
448,192,74688,1,2,0:0:0:0:
192,192,74844,1,8,0:0:0:0:
64,192,75000,1,0,0:0:0:0:
448,192,75157,1,2,0:0:0:0:
320,192,75313,1,0,0:0:0:0:
64,192,75391,1,0,0:0:0:0:
192,192,75469,1,8,0:0:0:0:
320,192,75625,1,0,0:0:0:0:
448,192,75703,1,2,0:0:0:0:
192,192,75782,1,0,0:0:0:0:
320,192,75860,1,0,0:0:0:0:
64,192,75938,1,2,0:0:0:0:
192,192,76094,1,8,0:0:0:0:
192,192,76407,1,0,0:0:0:0:
320,192,76563,1,2,0:0:0:0:
448,192,76641,1,0,0:0:0:0:
64,192,76719,1,8,0:0:0:0:
320,192,76875,1,0,0:0:0:0:
192,192,76953,1,0,0:0:0:0:
64,192,77032,1,2,0:0:0:0:
448,192,77110,1,0,0:0:0:0:
192,192,77188,1,2,0:0:0:0:
320,192,77344,1,8,0:0:0:0:
448,192,77500,1,2,0:0:0:0:
64,192,77657,1,0,0:0:0:70:cymbalcut.wav
192,192,77657,1,0,0:0:0:0:
64,192,78125,1,0,0:0:0:70:cymbalcut.wav
320,192,78125,1,0,0:0:0:0:
192,192,78594,1,0,0:0:0:70:cymbalcut.wav
320,192,78594,1,0,0:0:0:0:
192,192,79063,1,0,0:0:0:70:cymbalcut.wav
448,192,79063,1,0,0:0:0:0:
320,192,79532,1,0,0:0:0:70:cymbalcut.wav
448,192,79532,1,0,0:0:0:0:
64,192,80000,1,0,0:0:0:70:cymbalcut.wav
192,192,80000,1,0,0:0:0:0:
320,192,80157,1,4,0:0:0:0:
448,192,80157,1,2,0:0:0:0:
192,192,80391,1,0,0:0:0:0:
64,192,80625,1,2,0:0:0:0:
192,192,80782,1,8,0:0:0:0:
448,192,81016,1,0,0:0:0:0:
64,192,81250,1,8,0:0:0:0:
192,192,81407,1,8,0:0:0:0:
448,192,81407,1,0,0:0:0:70:cymbalcut.wav
192,192,81641,1,8,0:0:0:0:
448,192,81641,1,0,0:0:0:70:cymbalcut.wav
64,192,81875,1,8,0:0:0:0:
320,192,81875,1,0,0:0:0:70:cymbalcut.wav
64,192,82110,1,8,0:0:0:0:
320,192,82110,1,0,0:0:0:70:cymbalcut.wav
192,192,82188,1,2,0:0:0:0:
192,192,82344,1,8,0:0:0:0:
448,192,82344,1,0,0:0:0:70:cymbalcut.wav
320,192,82500,1,2,0:0:0:0:
192,192,82578,1,2,0:0:0:0:
64,192,82657,128,4,83594:0:0:0:0:
448,192,82657,1,2,0:0:0:0:
192,192,82813,1,0,0:0:0:0:
320,192,82969,1,8,0:0:0:0:
448,192,83125,1,0,0:0:0:0:
192,192,83438,1,2,0:0:0:0:
320,192,83594,128,8,83750:0:0:0:0:
64,192,83750,128,0,84688:0:0:0:0:
192,192,83907,1,0,0:0:0:0:
320,192,84063,1,2,0:0:0:0:
448,192,84219,1,8,0:0:0:0:
192,192,84375,1,0,0:0:0:0:
320,192,84532,1,2,0:0:0:0:
192,192,84688,128,2,84844:0:0:0:0:
448,192,84844,128,8,85000:0:0:0:0:
320,192,85000,128,0,85157:0:0:0:0:
192,192,85157,128,2,86094:0:0:0:0:
64,192,85313,1,0,0:0:0:0:
320,192,85469,1,8,0:0:0:0:
448,192,85625,1,0,0:0:0:0:
64,192,85938,1,2,0:0:0:0:
448,192,86094,128,8,86250:0:0:0:0:
192,192,86250,128,0,86875:0:0:0:0:
64,192,86407,1,0,0:0:0:0:
320,192,86563,1,2,0:0:0:0:
448,192,86719,1,8,0:0:0:0:
64,192,86875,128,0,87032:0:0:0:0:
448,192,87032,128,2,87188:0:0:0:0:
320,192,87188,128,2,87344:0:0:0:0:
192,192,87344,128,8,87500:0:0:0:0:
64,192,87500,128,0,87657:0:0:0:0:
320,192,87657,128,8,87969:0:0:0:0:
448,192,87657,128,0,87969:0:0:0:70:cymbalcut.wav
192,192,88125,128,8,88438:0:0:0:0:
448,192,88125,128,0,88438:0:0:0:70:cymbalcut.wav
192,192,88594,128,8,88907:0:0:0:0:
320,192,88594,128,0,88907:0:0:0:70:cymbalcut.wav
64,192,89063,128,8,89375:0:0:0:0:
320,192,89063,128,0,89375:0:0:0:70:cymbalcut.wav
64,192,89532,128,8,89844:0:0:0:0:
192,192,89532,128,0,89844:0:0:0:70:cymbalcut.wav
192,192,90000,128,8,90157:0:0:0:0:
320,192,90000,128,0,90157:0:0:0:0:
64,192,90157,128,4,90313:0:0:0:0:
448,192,90157,1,2,0:0:0:0:
192,192,90313,128,8,90469:0:0:0:0:
320,192,90469,128,8,90625:0:0:0:0:
448,192,90625,128,2,90782:0:0:0:0:
192,192,90782,128,8,90938:0:0:0:0:
64,192,90938,128,8,91094:0:0:0:0:
320,192,91094,128,2,91250:0:0:0:0:
192,192,91250,128,8,91407:0:0:0:0:
64,192,91407,128,8,91875:0:0:0:0:
448,192,91407,1,0,0:0:0:70:cymbalcut.wav
320,192,91641,1,8,0:0:0:0:
192,192,91875,1,8,0:0:0:0:
64,192,92110,1,8,0:0:0:0:
192,192,92188,1,2,0:0:0:0:
448,192,92344,1,8,0:0:0:0:
192,192,92500,1,2,0:0:0:0:
64,192,92657,1,4,0:0:0:0:
320,192,92657,128,2,93750:0:0:0:0:
448,192,92813,1,0,0:0:0:0:
64,192,92969,1,8,0:0:0:0:
192,192,93125,1,0,0:0:0:0:
448,192,93438,1,2,0:0:0:0:
64,192,93594,1,8,0:0:0:0:
448,192,93750,128,0,94532:0:0:0:0:
64,192,93907,1,0,0:0:0:0:
192,192,94063,1,2,0:0:0:0:
320,192,94219,1,8,0:0:0:0:
192,192,94375,1,0,0:0:0:0:
64,192,94532,1,2,0:0:0:0:
320,192,94688,128,2,94844:0:0:0:0:
192,192,94844,128,8,95000:0:0:0:0:
64,192,95000,128,0,95157:0:0:0:0:
448,192,95157,128,2,95391:0:0:0:0:
320,192,95391,128,0,95625:0:0:0:0:
192,192,95625,128,0,95782:0:0:0:0:
320,192,95782,128,0,96016:0:0:0:0:
192,192,96016,128,0,96250:0:0:0:0:
64,192,96250,128,0,96407:0:0:0:0:
448,192,96407,128,0,96641:0:0:0:0:
320,192,96641,128,0,96875:0:0:0:0:
64,192,96875,128,0,97032:0:0:0:0:
192,192,97032,128,2,97188:0:0:0:0:
448,192,97188,128,2,97344:0:0:0:0:
64,192,97344,128,8,97500:0:0:0:0:
320,192,97500,128,0,97657:0:0:0:0:
192,192,97657,1,8,0:0:0:0:
448,192,97657,128,0,97891:0:0:0:70:cymbalcut.wav
320,192,97891,128,2,98125:0:0:0:0:
192,192,98125,128,8,98282:0:0:0:0:
64,192,98282,128,2,98516:0:0:0:0:
448,192,98516,128,0,98750:0:0:0:0:
64,192,98750,128,2,98907:0:0:0:0:
320,192,98907,128,2,99141:0:0:0:0:
192,192,99141,128,0,99375:0:0:0:0:
64,192,99375,128,2,99532:0:0:0:0:
192,192,99532,128,8,99766:0:0:0:0:
320,192,99766,128,2,100000:0:0:0:0:
64,192,100000,1,8,0:0:0:0:
192,192,100000,128,0,100157:0:0:0:0:
320,192,100157,1,4,0:0:0:0:
448,192,100157,128,2,101407:0:0:0:0:
192,192,100313,1,8,0:0:0:0:
192,192,100469,1,8,0:0:0:0:
320,192,100625,1,2,0:0:0:0:
64,192,100782,1,8,0:0:0:0:
64,192,100938,1,8,0:0:0:0:
320,192,101094,1,2,0:0:0:0:
192,192,101250,1,8,0:0:0:0:
64,192,101407,1,8,0:0:0:0:
320,192,101407,1,0,0:0:0:70:cymbalcut.wav
64,192,101641,1,8,0:0:0:0:
320,192,101641,1,0,0:0:0:70:cymbalcut.wav
192,192,101875,1,8,0:0:0:0:
448,192,101875,1,0,0:0:0:70:cymbalcut.wav
192,192,102110,1,8,0:0:0:0:
448,192,102110,1,0,0:0:0:70:cymbalcut.wav
320,192,102188,1,2,0:0:0:0:
64,192,102344,1,8,0:0:0:0:
320,192,102344,1,0,0:0:0:70:cymbalcut.wav
192,192,102500,1,2,0:0:0:0:
320,192,102578,1,2,0:0:0:0:
64,192,102657,1,4,0:0:0:0:
448,192,102657,1,2,0:0:0:0:
320,192,102813,1,0,0:0:0:0:
192,192,102891,1,0,0:0:0:0:
64,192,102969,1,8,0:0:0:0:
448,192,103125,1,0,0:0:0:0:
320,192,103203,1,0,0:0:0:0:
64,192,103282,1,0,0:0:0:0:
192,192,103360,1,0,0:0:0:0:
448,192,103438,1,2,0:0:0:0:
320,192,103594,1,8,0:0:0:0:
192,192,103907,1,2,0:0:0:0:
192,192,104063,1,2,0:0:0:0:
448,192,104141,1,0,0:0:0:0:
320,192,104219,1,8,0:0:0:0:
64,192,104375,1,0,0:0:0:0:
192,192,104453,1,0,0:0:0:0:
320,192,104532,1,0,0:0:0:0:
448,192,104610,1,0,0:0:0:0:
64,192,104688,1,2,0:0:0:0:
320,192,104844,1,8,0:0:0:0:
64,192,105000,1,2,0:0:0:0:
64,192,105157,1,2,0:0:0:0:
320,192,105313,1,0,0:0:0:0:
192,192,105391,1,0,0:0:0:0:
64,192,105469,1,8,0:0:0:0:
448,192,105625,1,0,0:0:0:0:
320,192,105703,1,0,0:0:0:0:
64,192,105782,1,0,0:0:0:0:
192,192,105860,1,0,0:0:0:0:
448,192,105938,1,2,0:0:0:0:
320,192,106094,1,8,0:0:0:0:
192,192,106407,1,2,0:0:0:0:
192,192,106563,1,2,0:0:0:0:
448,192,106641,1,0,0:0:0:0:
320,192,106719,1,8,0:0:0:0:
64,192,106875,1,0,0:0:0:0:
192,192,106953,1,0,0:0:0:0:
320,192,107032,1,0,0:0:0:0:
448,192,107110,1,0,0:0:0:0:
64,192,107188,1,2,0:0:0:0:
320,192,107344,1,8,0:0:0:0:
64,192,107500,1,2,0:0:0:0:
320,192,107657,1,8,0:0:0:0:
64,192,107813,1,2,0:0:0:0:
64,192,107969,1,2,0:0:0:0:
320,192,108125,1,8,0:0:0:0:
320,192,108438,1,8,0:0:0:0:
192,192,108750,1,2,0:0:0:0:
320,192,108828,1,2,0:0:0:0:
192,192,108907,1,2,0:0:0:0:
320,192,109063,1,4,0:0:0:0:
448,192,109063,1,8,0:0:0:0:
64,192,109219,1,2,0:0:0:0:
448,192,109375,1,8,0:0:0:0:
448,192,109688,1,8,0:0:0:0:
192,192,109844,1,2,0:0:0:0:
192,192,110000,1,2,0:0:0:0:
320,192,110157,1,8,0:0:0:0:
64,192,110313,1,2,0:0:0:0:
64,192,110469,1,2,0:0:0:0:
320,192,110625,1,8,0:0:0:0:
320,192,110938,1,8,0:0:0:0:
192,192,111250,1,2,0:0:0:0:
320,192,111328,1,2,0:0:0:0:
192,192,111407,1,2,0:0:0:0:
320,192,111563,1,4,0:0:0:0:
448,192,111563,1,8,0:0:0:0:
448,192,111875,1,8,0:0:0:0:
448,192,112188,1,8,0:0:0:0:
192,192,112344,1,2,0:0:0:0:
192,192,112500,1,2,0:0:0:0:
320,192,112657,128,4,113125:0:0:0:0:
448,192,112657,128,0,113125:0:0:0:0:
