osu file format v14

[General]
AudioFilename: audio.mp3
AudioLeadIn: 0
PreviewTime: 42480
Countdown: 0
SampleSet: Soft
StackLeniency: 0.7
Mode: 0
LetterboxInBreaks: 0
WidescreenStoryboard: 0

[Editor]
DistanceSpacing: 1.7
BeatDivisor: 4
GridSize: 32
TimelineZoom: 1.7

[Metadata]
Title:Aqua Stars
TitleUnicode:Aqua Stars
Artist:Sound Souler
ArtistUnicode:Sound Souler
Creator:Azzedd
Version:Insane
Source:OverRapid
Tags:Drum & Bass DnB Artcore video game
BeatmapID:1968986
BeatmapSetID:942425

[Difficulty]
HPDrainRate:5
CircleSize:4
OverallDifficulty:8
ApproachRate:9
SliderMultiplier:1.4
SliderTickRate:1

[Events]
//Background and Video events
0,0,"wallhaven-718956.jpg",0,0
//Break Periods
//Storyboard Layer 0 (Background)
//Storyboard Layer 1 (Fail)
//Storyboard Layer 2 (Pass)
//Storyboard Layer 3 (Foreground)
//Storyboard Sound Samples

[TimingPoints]
2478,312.5,4,2,1,35,1,0
3884,-100,4,2,5,35,0,0
4978,-100,4,2,2,35,0,0
6384,-100,4,2,4,35,0,0
7478,-100,4,2,1,45,0,0
8884,-100,4,2,5,45,0,0
9040,-100,4,2,1,45,0,0
9978,-133.333333333333,4,2,3,45,0,0
10603,-117.647058823529,4,2,3,50,0,0
11228,-117.647058823529,4,2,3,55,0,0
11853,-117.647058823529,4,2,3,60,0,0
12478,-117.647058823529,4,2,1,65,0,0
17243,-117.647058823529,4,2,1,5,0,0
17478,-90.9090909090909,4,2,4,55,0,0
27478,-111.111111111111,4,2,5,40,0,0
34978,-100,4,2,5,40,0,0
35603,-100,4,2,1,45,0,0
36228,-100,4,2,1,50,0,0
36853,-100,4,2,1,60,0,0
37478,-100,4,2,4,60,0,0
41228,-100,4,2,4,5,0,0
42478,-133.333333333333,4,2,3,25,0,0
50446,-133.333333333333,4,2,3,25,0,0
57478,-117.647058823529,4,2,1,25,0,0
57946,-117.647058823529,4,2,1,23,0,0
58415,-117.647058823529,4,2,1,21,0,0
58884,-117.647058823529,4,2,1,19,0,0
59353,-117.647058823529,4,2,1,17,0,0
59821,-117.647058823529,4,2,1,13,0,0
60290,-117.647058823529,4,2,1,5,0,0
62321,-117.647058823529,4,2,1,60,0,0
62478,-100,4,2,4,40,0,0
67478,-100,4,2,1,40,0,0
68415,-100,4,2,2,40,0,0
69353,-100,4,2,1,40,0,0
69978,-100,4,2,4,40,0,0
71228,-100,4,2,1,40,0,0
71696,-100,4,2,2,40,0,0
72165,-100,4,2,1,40,0,0
72478,-100,4,2,4,40,0,0
77478,-100,4,2,2,40,0,0
78415,-100,4,2,1,40,0,0
79353,-100,4,2,2,40,0,0
79509,-100,4,2,1,40,0,0
79978,-100,4,2,4,40,0,0
81228,-100,4,2,1,40,0,0
81696,-100,4,2,2,40,0,0
82009,-100,4,2,1,40,0,0
82478,-76.9230769230769,4,2,3,65,0,1
82790,-76.9230769230769,4,2,1,65,0,1
88415,-76.9230769230769,4,2,2,65,0,1
89353,-76.9230769230769,4,2,1,65,0,1
89978,-76.9230769230769,4,2,4,65,0,1
91228,-76.9230769230769,4,2,1,65,0,1
91696,-76.9230769230769,4,2,2,65,0,1
92009,-76.9230769230769,4,2,1,65,0,1
92478,-76.9230769230769,4,2,4,65,0,1
95603,-86.9565217391304,4,2,1,65,0,1
96228,-100,4,2,1,65,0,1
96853,-76.9230769230769,4,2,1,65,0,1
97478,-76.9230769230769,4,2,2,65,0,1
98415,-76.9230769230769,4,2,1,65,0,1
99353,-76.9230769230769,4,2,2,65,0,1
99509,-76.9230769230769,4,2,4,65,0,1
101228,-76.9230769230769,4,2,1,65,0,1
101696,-76.9230769230769,4,2,2,65,0,1
102009,-76.9230769230769,4,2,1,65,0,1
102478,-100,4,2,4,40,0,0
107478,-100,4,2,1,45,0,0
108884,-100,4,2,5,45,0,0
109978,-100,4,2,2,45,0,0
111384,-100,4,2,4,45,0,0

[Colours]
Combo1 : 135,92,161
Combo2 : 246,213,182
Combo3 : 206,101,134

[HitObjects]
13,49,2478,5,6,3:2:0:0:
104,11,2634,2,0,L|98:90,1,70,0|0,3:0|3:0,0:0:0:0:
60,200,2946,2,0,P|98:185|137:193,1,70,6|0,0:0|0:0,0:0:0:0:
221,234,3259,2,0,P|259:249|298:241,1,70,6|0,0:0|0:0,0:0:0:0:
378,194,3571,1,0,3:0:0:0:
378,194,3649,1,0,3:0:0:0:
378,194,3728,1,0,3:0:0:0:
458,336,3884,6,0,L|453:267,1,70,6|0,0:0|3:0,0:0:0:0:
484,96,4196,2,0,L|478:165,1,70,2|0,0:0|0:0,0:0:0:0:
373,166,4509,1,2,0:0:0:0:
400,51,4665,2,0,P|423:25|461:14,1,70,2|0,3:2|3:0,0:0:0:0:
305,106,4978,5,6,3:2:0:0:
245,39,5134,2,0,L|160:51,1,70,0|0,3:0|3:0,0:0:0:0:
50,91,5446,2,0,P|66:120|60:163,1,70,6|0,0:0|0:0,0:0:0:0:
162,211,5759,2,0,P|144:239|104:255,1,70,6|0,0:0|0:0,0:0:0:0:
1,246,6071,1,0,3:0:0:0:
1,246,6149,1,0,3:0:0:0:
1,246,6228,1,0,3:0:0:0:
51,346,6384,6,0,P|79:365|114:367,1,70,6|0,0:0|0:0,0:0:0:0:
280,354,6696,2,0,P|251:334|217:333,1,70,2|0,0:0|0:0,0:0:0:0:
112,254,7009,1,2,0:0:0:0:
241,245,7165,2,0,B|257:187|257:187|240:135,1,105,2|0,3:2|0:0,0:0:0:0:
229,114,7478,5,6,3:2:0:0:
338,206,7634,1,0,3:0:0:0:
164,185,7790,1,0,3:0:0:0:
333,107,7946,2,0,L|343:37,1,70,6|0,0:0|0:0,0:0:0:0:
460,137,8259,2,0,L|470:206,1,70,6|0,0:0|0:0,0:0:0:0:
453,324,8571,1,0,3:0:0:0:
453,324,8649,1,0,3:0:0:0:
453,324,8728,1,0,3:0:0:0:
341,253,8884,6,0,P|314:275|304:308,1,70,6|0,0:0|3:0,0:0:0:0:
177,325,9196,2,0,P|182:359|206:383,1,70,2|0,0:0|0:0,0:0:0:0:
222,249,9509,1,2,0:0:0:0:
134,200,9665,2,0,L|57:213,1,70,2|0,3:2|3:0,0:0:0:0:
84,98,9978,6,0,P|88:58|109:25,2,70.0000026702882,6|2|2,0:0|0:0|0:0,0:0:0:0:
186,89,10603,2,0,P|217:63|255:55,2,79.3333348464966,2|2|2,0:0|0:0|0:0,0:0:0:0:
284,172,11228,5,2,0:0:0:0:
302,168,11436,1,2,0:0:0:0:
329,161,11644,1,2,0:0:0:0:
435,274,11853,5,2,0:0:0:0:
400,265,12061,1,2,0:0:0:0:
362,255,12269,1,2,0:0:0:0:
427,180,12478,5,2,0:0:0:0:
256,192,12634,12,0,17243,0:0:0:0:
461,109,17478,5,6,3:2:0:0:
416,24,17634,2,0,P|368:21|324:40,1,77.0000023498536,2|8,0:0|0:0,0:0:0:0:
176,118,17946,2,0,P|233:93|226:161,1,154.000004699707,2|0,0:0|0:0,0:0:0:0:
83,170,18415,2,0,P|45:209|53:330,1,154.000004699707,2|0,0:0|0:0,0:0:0:0:
182,263,18884,2,0,B|269:264|238:319|337:322,1,154.000004699707,2|0,0:0|0:0,0:0:0:0:
438,261,19353,2,0,L|428:347,1,77.0000023498536,2|8,0:0|0:0,0:0:0:0:
331,210,19665,1,2,0:0:0:0:
442,179,19821,1,0,3:2:0:0:
354,77,19978,5,2,0:0:0:0:
354,77,20134,2,0,P|338:39|307:19,1,77.0000023498536,2|8,0:0|0:0,0:0:0:0:
238,89,20446,2,0,P|197:83|164:100,1,77.0000023498536,2|0,0:0|0:0,0:0:0:0:
211,177,20759,2,0,P|186:209|184:246,1,77.0000023498536,10|0,0:0|0:0,0:0:0:0:
334,305,21071,2,0,B|247:308|275:357|188:358,1,154.000004699707,2|0,0:0|0:0,0:0:0:0:
99,298,21540,5,10,0:0:0:0:
173,355,21696,1,0,0:0:0:0:
3,323,21853,1,2,0:0:0:0:
119,214,22009,1,0,3:2:0:0:
173,355,22165,1,10,0:0:0:0:
98,296,22321,1,2,3:2:0:0:
54,160,22478,6,0,L|207:183,1,154.000004699707,2|8,3:2|0:0,0:0:0:0:
358,259,22946,2,0,L|205:282,1,154.000004699707,2|8,0:0|0:0,0:0:0:0:
205,85,23415,2,0,L|358:108,1,154.000004699707,2|0,0:0|3:0,0:0:0:0:
464,151,23884,2,0,P|477:188|470:229,1,77.0000023498536,2|8,0:0|0:0,0:0:0:0:
442,350,24196,2,0,P|480:346|512:325,1,77.0000023498536,2|0,0:0|0:0,0:0:0:0:
375,242,24509,1,10,0:0:0:0:
351,361,24665,1,2,0:0:0:0:
278,248,24821,1,0,3:2:0:0:
239,359,24978,5,2,3:2:0:0:
239,359,25134,2,0,P|201:354|169:333,1,77.0000023498536,2|8,0:0|0:0,0:0:0:0:
132,214,25446,2,0,P|69:193|63:268,1,154.000004699707,2|10,0:0|0:0,0:0:0:0:
148,316,25915,1,0,0:0:0:0:
148,316,26071,1,2,3:2:0:0:
212,149,26228,5,2,3:2:0:0:
228,251,26384,1,0,0:0:0:0:
115,111,26540,1,10,0:0:0:0:
231,136,26696,1,2,0:0:0:0:
250,123,26774,1,0,3:0:0:0:
269,110,26853,2,0,L|351:104,1,77.0000023498536,2|0,0:0|3:2,0:0:0:0:
483,199,27165,2,0,L|401:205,1,77.0000023498536,10|0,0:0|3:0,0:0:0:0:
343,0,27478,6,0,P|426:19|457:109,1,188.999994232178,6|0,0:0|3:0,0:0:0:0:
345,104,28103,2,0,L|281:107,1,62.9999980773926,10|0,0:0|0:0,0:0:0:0:
206,115,28415,1,2,3:2:0:0:
206,115,28728,5,0,3:2:0:0:
102,93,28884,2,0,P|114:64|136:42,2,62.9999980773926,10|0|0,0:0|0:0|3:2,0:0:0:0:
7,115,29353,2,0,P|14:145|33:170,1,62.9999980773926,10|0,0:0|0:0,0:0:0:0:
51,257,29665,2,0,P|20:260|-9:253,1,62.9999980773926,2|0,3:2|0:0,0:0:0:0:
138,193,29978,6,0,P|222:168|317:202,2,188.999994232178,2|2|2,3:2|3:2|3:2,0:0:0:0:
268,303,31228,1,2,3:2:0:0:
364,332,31384,2,0,P|366:297|358:260,1,62.9999980773926,10|0,0:0|3:0,0:0:0:0:
469,268,31696,2,0,P|453:207|418:154,1,125.999996154785,2|0,0:0|0:0,0:0:0:0:
402,141,32087,1,8,0:0:0:0:
402,141,32165,1,2,3:2:0:0:
359,254,32321,1,8,0:0:0:0:
282,160,32478,5,2,3:2:0:0:
325,47,32634,1,0,3:2:0:0:
256,155,32790,2,0,L|190:142,1,62.9999980773926,0|0,3:2|0:0,0:0:0:0:
121,53,33103,2,0,L|55:65,1,62.9999980773926,8|0,0:0|0:0,0:0:0:0:
53,217,33415,1,2,3:2:0:0:
107,145,33571,1,2,0:0:0:0:
108,297,33728,5,2,3:2:0:0:
108,297,33884,2,0,P|147:286|227:321,1,125.999996154785,10|2,0:0|3:2,0:0:0:0:
409,190,34353,2,0,P|370:179|290:214,1,125.999996154785,8|0,0:0|3:0,0:0:0:0:
364,270,34821,1,8,0:0:0:0:
322,101,34978,5,2,3:2:0:0:
443,71,35134,1,2,3:2:0:0:
291,6,35290,2,0,P|261:23|243:52,1,70,2|0,3:2|3:0,0:0:0:0:
271,199,35603,1,0,3:0:0:0:
129,139,35759,2,0,P|120:172|127:206,1,70,2|0,3:2|3:0,0:0:0:0:
285,169,36071,1,2,3:2:0:0:
229,306,36228,6,0,L|155:317,1,70,10|2,0:2|3:2,0:0:0:0:
136,322,36462,1,2,3:2:0:0:
136,322,36540,1,2,3:2:0:0:
268,227,36696,1,10,0:0:0:0:
107,56,36852,1,2,3:2:0:0:
127,206,37009,1,2,0:0:0:0:
127,206,37087,1,0,3:0:0:0:
127,206,37165,1,2,0:0:0:0:
340,101,37321,1,2,3:2:0:0:
238,0,37478,5,4,0:0:0:0:
256,192,37556,12,0,41228,0:0:0:0:
32,211,42478,6,0,B|153:215|114:283|236:285,1,210.000008010865,6|0,0:0|0:0,0:0:0:0:
356,249,43415,1,2,0:0:0:0:
356,249,43571,2,0,P|308:138|218:203,1,262.500010013581,2|0,0:0|0:0,0:0:0:0:
223,284,44509,1,0,0:0:0:0:
139,198,44665,2,0,P|143:167|151:143,1,52.5000020027161,2|0,0:0|0:0,0:0:0:0:
187,50,44978,6,0,L|397:61,1,210.000008010865,2|0,0:0|0:0,0:0:0:0:
497,4,45915,1,2,0:0:0:0:
497,4,46071,2,0,P|437:82|468:180,1,210.000008010865,2|0,0:0|0:0,0:0:0:0:
510,260,46853,1,2,0:0:0:0:
418,256,47009,1,0,0:0:0:0:
468,180,47165,1,2,0:0:0:0:
459,334,47321,1,0,0:0:0:0:
324,340,47478,6,0,B|262:315|214:360|214:360|262:315|304:246|311:164|313:85|251:38|176:56|117:103|130:173|188:212,1,630.000024032594,2|0,0:0|0:0,0:0:0:0:
58,50,49978,5,2,0:0:0:0:
66,72,50290,1,0,0:0:0:0:
167,85,50446,2,0,L|159:195,1,105.000004005432,2|0,0:0|0:0,0:0:0:0:
52,288,51071,1,2,0:0:0:0:
52,288,51228,6,0,P|102:283|159:312,1,105.000004005432,2|0,0:0|0:0,0:0:0:0:
272,359,51853,2,0,P|322:364|379:335,1,105.000004005432,0|2,0:0|0:0,0:0:0:0:
352,217,52478,6,0,P|270:199|316:273,1,210.000008010865,2|0,0:0|0:0,0:0:0:0:
483,263,53415,1,2,0:0:0:0:
483,263,53571,2,0,B|427:211|417:139|463:87|545:122|525:198,1,262.500010013581,2|0,0:0|0:0,0:0:0:0:
410,44,54665,1,2,0:0:0:0:
384,56,54978,6,0,L|274:42,1,105.000004005432,2|0,0:0|0:0,0:0:0:0:
264,136,55446,2,0,L|154:150,1,105.000004005432,2|0,0:0|0:0,0:0:0:0:
63,160,55915,1,2,0:0:0:0:
102,72,56071,1,0,0:0:0:0:
120,237,56228,6,0,P|128:283|102:345,1,105.000004005432,2|0,0:0|0:0,0:0:0:0:
292,378,56853,2,0,P|241:367|191:384,1,105.000004005432,0|2,0:0|0:0,0:0:0:0:
266,126,57478,5,2,0:0:0:0:
391,70,57634,2,0,P|419:67|450:76,1,59.5000011348725,2|0,0:0|0:0,0:0:0:0:
288,157,57946,5,2,0:0:0:0:
409,159,58103,2,0,P|430:176|446:204,1,59.5000011348725,2|0,0:0|0:0,0:0:0:0:
266,189,58415,5,2,0:0:0:0:
372,231,58571,2,0,P|374:259|366:290,1,59.5000011348725,2|0,0:0|0:0,0:0:0:0:
229,177,58884,5,2,0:0:0:0:
287,269,59040,2,0,P|269:290|241:306,1,59.5000011348725,2|0,0:0|0:0,0:0:0:0:
229,138,59353,5,2,0:0:0:0:
180,229,59509,2,0,P|151:231|120:223,2,59.5000011348725,2|0|2,0:0|0:0|0:0,0:0:0:0:
156,154,59978,5,2,0:0:0:0:
256,192,60603,12,0,62321,0:0:0:0:
119,114,62478,6,0,P|127:54|184:75,1,140,6|8,0:0|0:0,0:0:0:0:
161,201,62946,1,0,0:0:0:0:
161,201,63024,1,0,3:0:0:0:
161,201,63103,2,0,P|147:233|157:268,1,70,0|0,0:0|3:0,0:0:0:0:
245,207,63415,1,10,0:0:0:0:
256,313,63571,6,0,B|325:312|298:264|382:262,1,140,2|0,0:0|3:0,0:0:0:0:
493,239,64040,2,0,L|482:314,1,70,8|0,0:0|0:0,0:0:0:0:
479,339,64274,1,0,0:0:0:0:
479,339,64353,1,0,3:0:0:0:
395,162,64509,1,2,3:2:0:0:
381,262,64665,1,10,0:0:0:0:
478,155,64821,1,2,0:0:0:0:
312,169,64978,6,0,P|337:95|400:75,1,140,2|8,3:2|0:0,0:0:0:0:
238,36,65446,1,0,0:0:0:0:
238,36,65524,1,0,3:0:0:0:
238,36,65603,2,0,L|162:43,1,70,0|0,0:0|3:0,0:0:0:0:
59,54,65915,1,10,0:0:0:0:
124,143,66071,6,0,P|143:174|129:280,1,140,2|0,0:0|3:0,0:0:0:0:
48,214,66540,1,8,0:0:0:0:
85,378,66696,1,2,0:0:0:0:
85,378,66774,1,0,0:0:0:0:
85,378,66853,2,0,L|161:369,1,70,2|0,3:2|3:2,0:0:0:0:
235,271,67165,1,10,0:0:0:0:
133,273,67321,1,0,0:0:0:0:
274,367,67478,5,6,0:0:0:0:
252,251,67634,2,0,L|262:218,2,35,0|0|0,3:0|3:0|3:0,0:0:0:0:
394,369,67946,5,6,0:0:0:0:
406,220,68102,2,0,L|416:253,2,35,0|0|0,3:0|3:0|3:0,0:0:0:0:
331,115,68415,5,6,0:0:0:0:
393,22,68571,2,0,L|433:27,2,35,0|0|0,3:0|3:0|3:0,0:0:0:0:
247,142,68884,5,6,0:0:0:0:
225,32,69040,2,0,L|256:7,2,35,0|0|0,3:0|3:0|3:0,0:0:0:0:
206,220,69353,5,6,0:0:0:0:
113,157,69509,2,0,L|118:117,2,35,0|0|0,3:0|3:0|3:0,0:0:0:0:
105,270,69821,1,10,0:0:0:0:
227,241,69978,5,6,3:2:0:0:
183,359,70134,1,8,0:0:0:0:
312,285,70290,2,0,L|384:298,1,70,8|2,0:0|3:2,0:0:0:0:
495,174,70603,1,8,0:0:0:0:
469,301,70759,1,8,0:0:0:0:
396,127,70915,1,2,3:2:0:0:
498,304,71071,1,10,0:0:0:0:
335,193,71228,6,0,P|313:159|311:125,1,70,14|0,0:0|0:0,0:0:0:0:
230,155,71462,2,0,P|227:114|243:84,1,70,14|0,0:0|0:0,0:0:0:0:
158,69,71696,2,0,P|176:32|204:14,1,70,14|2,0:0|0:0,0:0:0:0:
233,12,71931,1,12,0:0:0:0:
233,12,72009,1,0,3:0:0:0:
92,10,72165,2,0,L|22:20,1,70,6|0,0:0|3:0,0:0:0:0:
84,240,72478,6,0,B|101:172|101:172|74:107,1,140,6|8,0:0|0:0,0:0:0:0:
196,215,72946,1,0,0:0:0:0:
196,215,73024,1,0,3:0:0:0:
196,215,73103,2,0,L|177:287,1,70,0|0,0:0|3:0,0:0:0:0:
141,384,73415,1,8,0:0:0:0:
264,328,73571,6,0,B|333:329|306:377|390:379,1,140,2|0,0:0|3:0,0:0:0:0:
449,248,74040,2,0,P|415:257|387:281,1,70,8|0,0:0|0:0,0:0:0:0:
380,297,74274,1,0,0:0:0:0:
380,297,74353,1,0,3:0:0:0:
477,340,74509,1,2,3:2:0:0:
447,159,74665,2,0,P|482:163|512:181,1,70,8|2,0:0|0:0,0:0:0:0:
302,232,74978,5,2,3:2:0:0:
414,167,75134,1,0,0:0:0:0:
302,102,75290,1,10,0:0:0:0:
275,249,75446,5,2,0:0:0:0:
405,249,75602,1,2,0:0:0:0:
340,137,75758,1,0,3:2:0:0:
345,336,75915,2,0,L|266:342,1,70,10|2,0:0|0:0,0:0:0:0:
177,261,76228,5,2,0:0:0:0:
154,357,76384,1,0,3:2:0:0:
113,188,76540,1,10,0:0:0:0:
90,284,76696,1,2,0:0:0:0:
207,159,76853,5,2,3:2:0:0:
41,120,77009,1,2,3:2:0:0:
177,261,77165,1,10,0:0:0:0:
125,62,77321,1,2,0:0:0:0:
281,236,77478,5,6,0:0:0:0:
296,118,77634,2,0,L|333:123,2,35,0|0|0,3:0|3:0|3:0,0:0:0:0:
439,299,77946,5,6,0:0:0:0:
424,181,78102,2,0,L|387:186,2,35,0|0|0,3:0|3:0|3:0,0:0:0:0:
339,330,78415,5,6,0:0:0:0:
199,296,78571,2,0,L|204:334,2,35,0|0|0,3:0|3:0|3:0,0:0:0:0:
95,201,78884,5,6,0:0:0:0:
235,167,79040,2,0,L|230:205,2,35,0|0|0,3:0|3:0|3:0,0:0:0:0:
339,72,79353,5,6,0:0:0:0:
199,38,79509,2,0,L|204:76,2,35,0|0|0,3:0|3:0|3:0,0:0:0:0:
74,108,79821,1,10,0:0:0:0:
196,15,79978,6,0,P|231:1|270:0,1,70,6|8,3:2|0:0,0:0:0:0:
364,52,80290,1,8,0:0:0:0:
196,183,80446,2,0,P|231:197|270:198,1,70,0|10,3:0|0:0,0:0:0:0:
364,146,80758,1,8,0:0:0:0:
344,255,80915,1,0,3:0:0:0:
440,206,81071,1,10,0:0:0:0:
413,360,81228,6,0,L|336:351,1,70,14|0,0:0|0:0,0:0:0:0:
269,347,81462,2,0,L|192:356,1,70,12|0,0:0|0:0,0:0:0:0:
125,360,81696,2,0,L|48:351,1,70,12|2,0:0|0:0,0:0:0:0:
29,345,81931,1,12,3:2:0:0:
29,345,82009,1,0,3:0:0:0:
100,270,82165,1,4,0:0:0:0:
24,162,82321,1,0,3:0:0:0:
28,145,82399,1,0,3:0:0:0:
32,128,82478,6,0,B|138:131|104:191|211:193,1,181.999991668702,6|8,0:0|0:0,0:0:0:0:
347,179,82946,1,0,0:0:0:0:
347,179,83024,1,0,3:0:0:0:
347,179,83103,2,0,P|321:216|322:260,1,90.9999958343508,0|0,0:0|3:0,0:0:0:0:
363,358,83415,1,10,0:0:0:0:
435,217,83571,6,0,P|436:117|368:73,1,181.999991668702,2|0,0:0|3:0,0:0:0:0:
270,128,84040,1,8,0:0:0:0:
287,2,84196,1,0,0:0:0:0:
287,2,84274,1,0,0:0:0:0:
287,2,84353,2,0,L|189:12,1,90.9999958343508,0|0,3:0|3:2,0:0:0:0:
83,113,84665,1,10,0:0:0:0:
98,8,84821,1,2,0:0:0:0:
182,166,84978,6,0,B|247:162|247:162|288:188|288:188|356:183,1,181.999991668702,2|8,3:2|0:0,0:0:0:0:
246,335,85446,1,0,0:0:0:0:
246,335,85524,1,0,3:0:0:0:
246,335,85603,2,0,P|221:290|221:251,1,90.9999958343508,0|0,0:0|3:0,0:0:0:0:
356,321,85915,1,10,0:0:0:0:
136,349,86071,6,0,P|119:243|146:167,1,181.999991668702,2|0,0:0|3:0,0:0:0:0:
227,97,86540,1,8,0:0:0:0:
246,231,86696,1,0,0:0:0:0:
246,231,86774,1,0,0:0:0:0:
246,231,86853,2,0,L|340:222,1,90.9999958343508,2|0,3:2|3:2,0:0:0:0:
460,166,87165,1,10,0:0:0:0:
423,265,87321,1,0,0:0:0:0:
375,136,87478,5,4,0:0:0:0:
448,284,87634,2,0,L|439:332,2,45.4999979171754,0|0|0,3:0|3:0|3:0,0:0:0:0:
372,107,87946,5,4,0:0:0:0:
299,255,88102,2,0,L|308:303,2,45.4999979171754,0|0|0,3:0|3:0|3:0,0:0:0:0:
137,136,88415,5,4,0:0:0:0:
64,284,88571,2,0,L|73:332,2,45.4999979171754,0|0|0,3:0|3:0|3:0,0:0:0:0:
140,107,88883,5,4,0:0:0:0:
213,255,89039,2,0,L|204:303,2,45.4999979171754,0|0|0,0:0|3:0|3:0,0:0:0:0:
256,45,89353,5,4,0:0:0:0:
236,158,89509,2,0,P|256:162|283:158,2,45.4999979171754,0|0|0,3:0|3:0|3:0,0:0:0:0:
107,73,89821,1,8,0:0:0:0:
46,196,89978,6,0,P|90:204|133:192,1,90.9999958343508,6|8,3:2|0:0,0:0:0:0:
187,89,90290,1,8,0:0:0:0:
233,236,90446,1,2,3:2:0:0:
367,127,90603,2,0,P|324:114|280:123,1,90.9999958343508,8|8,0:0|0:0,0:0:0:0:
251,252,90915,1,2,3:2:0:0:
320,199,91071,1,8,0:0:0:0:
327,375,91228,6,0,L|331:281,1,90.9999958343508,14|0,0:0|0:0,0:0:0:0:
410,241,91462,2,0,L|410:332,1,90.9999958343508,12|0,0:0|0:0,0:0:0:0:
493,375,91696,2,0,L|489:281,1,90.9999958343508,4|0,0:0|0:0,0:0:0:0:
490,257,91931,1,4,3:2:0:0:
490,257,92009,1,0,3:0:0:0:
410,150,92165,2,0,L|410:241,1,90.9999958343508,4|0,0:0|3:0,0:0:0:0:
499,100,92478,6,0,P|431:52|338:76,1,181.999991668702,6|8,0:0|0:0,0:0:0:0:
254,141,92946,1,0,0:0:0:0:
254,141,93024,1,0,3:0:0:0:
254,141,93103,2,0,P|205:145|168:127,1,90.9999958343508,0|0,0:0|3:0,0:0:0:0:
104,44,93415,1,8,0:0:0:0:
83,197,93571,6,0,B|127:278|127:278|94:363,1,181.999991668702,2|0,0:0|3:0,0:0:0:0:
20,276,94040,1,8,0:0:0:0:
160,278,94196,1,0,0:0:0:0:
173,280,94274,1,0,0:0:0:0:
186,283,94353,2,0,L|274:263,1,90.9999958343508,0|0,3:0|3:2,0:0:0:0:
349,191,94665,1,10,0:0:0:0:
354,333,94821,1,2,0:0:0:0:
450,215,94978,6,0,P|443:145|391:98,1,136.499993751526,2|2,3:2|0:0,0:0:0:0:
360,95,95290,2,0,L|266:110,1,90.9999958343508,8|2,0:0|0:0,0:0:0:0:
165,26,95603,2,0,L|42:45,1,120.750002303124,2|2,0:0|0:0,0:0:0:0:
13,53,95915,2,0,P|4:88|20:131,1,80.5000015354157,8|2,0:0|0:0,0:0:0:0:
87,203,96228,2,0,P|98:248|77:304,1,105,2|2,0:0|0:0,0:0:0:0:
68,317,96540,2,0,L|-2:305,1,70,8|2,0:0|0:0,0:0:0:0:
281,149,96853,5,2,3:2:0:0:
204,226,97009,1,0,3:2:0:0:
310,255,97165,1,10,0:0:0:0:
285,129,97321,1,2,0:0:0:0:
162,311,97478,5,4,0:0:0:0:
310,384,97634,2,0,L|358:375,2,45.4999979171754,0|0|0,3:0|3:0|3:0,0:0:0:0:
133,308,97946,5,4,0:0:0:0:
281,235,98102,2,0,L|329:244,2,45.4999979171754,0|0|0,3:0|3:0|3:0,0:0:0:0:
162,73,98415,5,4,0:0:0:0:
310,0,98571,2,0,L|358:9,2,45.4999979171754,0|0|0,3:0|3:0|3:0,0:0:0:0:
133,76,98883,5,4,0:0:0:0:
281,149,99039,2,0,L|329:140,2,45.4999979171754,0|0|0,0:0|3:0|3:0,0:0:0:0:
61,192,99353,5,4,0:0:0:0:
173,216,99509,2,0,P|169:193|174:171,2,45.4999979171754,0|0|0,3:0|3:0|3:0,0:0:0:0:
157,322,99821,1,8,0:0:0:0:
267,284,99978,6,0,L|357:291,1,90.9999958343508,6|8,3:2|0:0,0:0:0:0:
491,252,100290,1,8,0:0:0:0:
440,373,100446,1,2,3:2:0:0:
415,184,100603,2,0,L|422:93,1,90.9999958343508,8|8,0:0|0:0,0:0:0:0:
323,0,100915,1,2,3:2:0:0:
458,0,101071,1,8,0:0:0:0:
327,127,101228,6,0,P|282:112|238:133,1,90.9999958343508,12|0,0:0|0:0,0:0:0:0:
198,55,101462,2,0,P|162:86|158:135,1,90.9999958343508,12|0,0:0|0:0,0:0:0:0:
71,130,101696,2,0,P|80:176|120:204,1,90.9999958343508,12|0,0:0|0:0,0:0:0:0:
147,209,101931,1,12,3:2:0:0:
147,209,102009,1,0,3:0:0:0:
0,225,102165,1,12,0:0:0:0:
122,327,102321,1,2,3:2:0:0:
142,316,102399,1,2,3:2:0:0:
164,312,102478,6,0,B|248:314|221:362|306:363,1,140,6|8,0:0|0:0,0:0:0:0:
399,359,102946,2,0,L|408:290,1,70,2|0,0:0|0:0,0:0:0:0:
422,191,103259,1,2,3:2:0:0:
298,275,103415,2,0,P|241:232|168:224,1,140,8|0,0:0|3:0,0:0:0:0:
78,176,103884,1,2,3:2:0:0:
80,275,104040,1,8,0:0:0:0:
150,129,104196,2,0,L|139:56,1,70,2|0,0:0|0:0,0:0:0:0:
243,204,104509,1,2,3:2:0:0:
261,85,104665,2,0,L|271:16,1,70,10|0,0:0|3:0,0:0:0:0:
481,144,104978,6,0,P|414:140|348:167,1,140,2|8,3:2|0:0,0:0:0:0:
440,301,105446,2,0,L|431:222,1,70,2|0,0:0|0:0,0:0:0:0:
320,189,105759,1,2,3:2:0:0:
341,319,105915,2,0,B|257:321|284:369|199:370,1,140,8|0,0:0|3:0,0:0:0:0:
107,346,106384,1,2,3:2:0:0:
207,292,106540,1,8,0:0:0:0:
93,255,106696,2,0,P|101:212|121:191,1,70,2|0,0:0|0:0,0:0:0:0:
210,161,107009,1,2,3:2:0:0:
72,96,107165,2,0,P|113:81|141:88,1,70,10|0,0:0|3:0,0:0:0:0:
226,191,107478,5,6,3:2:0:0:
357,96,107634,2,0,L|348:166,1,70,0|0,3:0|3:0,0:0:0:0:
283,314,107946,2,0,P|319:289|358:285,1,70,6|0,0:0|0:0,0:0:0:0:
507,277,108259,2,0,P|479:255|445:247,1,70,6|0,0:0|0:0,0:0:0:0:
426,354,108571,1,0,3:0:0:0:
426,354,108649,1,0,3:0:0:0:
426,354,108728,1,0,3:0:0:0:
375,210,108884,6,0,L|384:140,1,70,6|0,0:0|3:0,0:0:0:0:
480,50,109196,2,0,L|489:119,1,70,2|0,0:0|0:0,0:0:0:0:
357,22,109509,1,2,0:0:0:0:
300,119,109665,2,0,P|264:128|232:122,1,70,2|0,3:2|3:0,0:0:0:0:
141,67,109978,5,6,3:2:0:0:
161,204,110134,2,0,L|173:277,1,70,0|0,3:0|3:0,0:0:0:0:
76,137,110446,2,0,P|42:130|9:140,1,70,6|0,0:0|0:0,0:0:0:0:
232,122,110759,2,0,P|266:126|300:117,1,70,6|0,0:0|0:0,0:0:0:0:
381,58,111071,1,0,3:0:0:0:
381,58,111149,1,0,3:0:0:0:
381,58,111228,1,0,3:0:0:0:
438,162,111384,6,0,L|427:237,1,70,6|0,0:0|0:0,0:0:0:0:
292,230,111696,2,0,L|302:299,1,70,2|0,0:0|0:0,0:0:0:0:
422,262,112009,1,10,0:0:0:0:
361,370,112165,2,0,P|329:388|291:386,1,70,2|0,3:2|3:0,0:0:0:0:
193,286,112478,5,6,3:2:0:0:
