osu file format v14

[General]
AudioFilename: audio.mp3
AudioLeadIn: 0
PreviewTime: 82674
Countdown: 0
SampleSet: Normal
StackLeniency: 1
Mode: 1
LetterboxInBreaks: 0
WidescreenStoryboard: 0

[Editor]
DistanceSpacing: 1
BeatDivisor: 2
GridSize: 32
TimelineZoom: 2.3

[Metadata]
Title:Aqua Stars
TitleUnicode:Aqua Stars
Artist:Sound Souler
ArtistUnicode:Sound Souler
Creator:Axer
Version:Depth Strider
Source:osu!
Tags:artcore muse dash overrapid electronic instrumental fa featured artist mg mappers' guild video game
BeatmapID:2403820
BeatmapSetID:1151616

[Difficulty]
HPDrainRate:5
CircleSize:2
OverallDifficulty:6
ApproachRate:10
SliderMultiplier:1.4
SliderTickRate:1

[Events]
//Background and Video events
0,0,"Starfishe.jpg",0,0
//Break Periods
2,12874,14724
2,37874,40349
//Storyboard Layer 0 (Background)
//Storyboard Layer 1 (Fail)
//Storyboard Layer 2 (Pass)
//Storyboard Layer 3 (Foreground)
//Storyboard Layer 4 (Overlay)
//Storyboard Sound Samples

[TimingPoints]
174,312.5,4,1,0,10,1,0
174,-200,4,1,0,10,0,0
799,-200,4,1,0,10,0,0
955,-190.507760333617,4,1,0,15,0,0
1111,-181.875389895367,4,1,0,19,0,0
1267,-173.991717994223,4,1,0,24,0,0
1424,-166.762833233832,4,1,0,28,0,0
1580,-160.110924848735,4,1,0,33,0,0
1736,-153.969092244423,4,1,0,37,0,0
1892,-148.281271778812,4,1,0,42,0,0
2049,-142.998507095586,4,1,0,46,0,0
2205,-138.079398415677,4,1,0,51,0,0
2361,-133.487288672936,4,1,0,55,0,0
2517,-129.190954566125,4,1,0,60,0,0
2674,-111.239407227447,4,1,0,80,0,0
10590,-125,4,1,0,60,0,0
10799,-128.194938351054,4,1,0,60,0,0
11007,-131.557309653018,4,1,0,60,0,0
11215,-135.100994748624,4,1,0,60,0,0
11424,-138.840873086946,4,1,0,60,0,0
11632,-142.793497755286,4,1,0,60,0,0
11840,-146.977985637311,4,1,0,60,0,0
12049,-151.415125765403,4,1,0,60,0,0
12257,-156.12851250121,4,1,0,60,0,0
12465,-161.144512787623,4,1,0,60,0,0
12674,-166.493790614079,4,1,0,60,0,0
12830,-200,4,1,0,10,0,0
15174,-200,4,1,0,10,0,0
15330,-193.548262226928,4,1,0,13,0,0
15486,-187.500117187573,4,1,0,17,0,0
15642,-181.818181818182,4,1,0,20,0,0
15799,-176.470484429127,4,1,0,23,0,0
15955,-171.428669387811,4,1,0,27,0,0
16111,-166.666666666667,4,1,0,30,0,0
16267,-162.162074506987,4,1,0,33,0,0
16424,-157.894819944642,4,1,0,37,0,0
16580,-153.846153846154,4,1,0,40,0,0
16736,-149.999925000038,4,1,0,43,0,0
16892,-146.341534800749,4,1,0,47,0,0
17049,-142.857142857143,4,1,0,50,0,0
17205,-139.534818821014,4,1,0,53,0,0
17361,-136.363698347136,4,1,0,57,0,0
17517,-133.333333333333,4,1,0,60,0,0
17674,-111.239407227447,4,1,0,80,0,0
37830,-200,4,1,0,10,0,0
40799,-166.666666666667,4,1,0,25,0,0
41580,-200,4,1,0,10,0,0
42595,-133.333333333333,4,1,2,60,0,0
42830,-166.666666666667,4,1,2,50,0,0
57674,-133.333333333333,4,1,0,50,0,0
57830,-135.016721820998,4,1,0,50,0,0
57986,-136.742973804149,4,1,0,50,0,0
58142,-138.514131211666,4,1,0,50,0,0
58299,-140.331772376252,4,1,0,50,0,0
58455,-142.197549367434,4,1,0,50,0,0
58611,-144.113815326792,4,1,0,50,0,0
58767,-146.082434317685,4,1,0,50,0,0
58924,-148.105362154637,4,1,0,50,0,0
59080,-150.18532869561,4,1,0,50,0,0
59236,-152.324316749277,4,1,0,50,0,0
59392,-154.525352201909,4,1,0,50,0,0
59549,-156.790928704029,4,1,0,50,0,0
59705,-159.123674101986,4,1,0,50,0,0
59861,-161.527142213342,4,1,0,50,0,0
60017,-164.004329714304,4,1,0,50,0,0
60174,-166.558403704259,4,1,0,50,0,0
60330,-166.558403704259,4,1,0,10,0,0
60799,-166.666666666667,4,1,0,10,0,0
60955,-161.764658304512,4,1,0,10,0,0
61111,-157.14276734699,4,1,0,15,0,0
61267,-152.77788387353,4,1,0,20,0,0
61424,-148.648708911639,4,1,0,25,0,0
61580,-144.736861149587,4,1,0,30,0,0
61736,-141.025622945433,4,1,0,35,0,0
61892,-137.499948437519,4,1,0,40,0,0
62049,-134.146259666915,4,1,0,45,0,0
62205,-130.952443310687,4,1,0,50,0,0
62361,-127.907006490002,4,1,0,55,0,0
62517,-125,4,1,0,60,0,0
62674,-100,4,1,0,80,0,0
67674,-90.9090909090909,4,1,0,80,0,0
67830,-91.9540229885058,4,1,0,80,0,0
67908,-92.485549132948,4,1,0,80,0,0
67986,-93.0232558139535,4,1,0,80,0,0
68142,-94.1176470588235,4,1,0,80,0,0
68299,-95.2380952380952,4,1,0,80,0,0
68377,-95.8083832335329,4,1,0,80,0,0
68455,-96.3855421686747,4,1,0,80,0,0
68611,-97.5609756097561,4,1,0,80,0,0
68767,-98.7654320987654,4,1,0,80,0,0
68845,-99.3788819875776,4,1,0,80,0,0
68924,-100,4,1,0,80,0,0
69080,-101.26582278481,4,1,0,80,0,0
69236,-102.564102564103,4,1,0,80,0,0
69314,-103.225806451613,4,1,0,80,0,0
69392,-103.896103896104,4,1,0,80,0,0
69549,-105.263157894737,4,1,0,80,0,0
69705,-106.666666666667,4,1,0,80,0,0
69783,-107.38255033557,4,1,0,80,0,0
69861,-108.108108108108,4,1,0,80,0,0
70017,-109.58904109589,4,1,0,80,0,0
70174,-111.111111111111,4,1,0,80,0,0
71424,-111.111111111111,4,1,0,80,0,0
71658,-108.843537414966,4,1,0,80,0,0
71892,-106.666666666667,4,1,0,80,0,0
72127,-104.575163398693,4,1,0,80,0,0
72205,-103.896103896104,4,1,0,80,0,0
72361,-102.564102564103,4,1,0,80,0,0
72517,-101.26582278481,4,1,0,80,0,0
72595,-100.62893081761,4,1,0,80,0,0
72674,-100,4,1,0,80,0,0
77674,-90.9090909090909,4,1,0,80,0,0
77830,-91.9540229885058,4,1,0,80,0,0
77908,-92.485549132948,4,1,0,80,0,0
77986,-93.0232558139535,4,1,0,80,0,0
78142,-94.1176470588235,4,1,0,80,0,0
78299,-95.2380952380952,4,1,0,80,0,0
78377,-95.8083832335329,4,1,0,80,0,0
78455,-96.3855421686747,4,1,0,80,0,0
78611,-97.5609756097561,4,1,0,80,0,0
78767,-98.7654320987654,4,1,0,80,0,0
78845,-99.3788819875776,4,1,0,80,0,0
78924,-100,4,1,0,80,0,0
79080,-101.26582278481,4,1,0,80,0,0
79236,-102.564102564103,4,1,0,80,0,0
79314,-103.225806451613,4,1,0,80,0,0
79392,-103.896103896104,4,1,0,80,0,0
79549,-105.263157894737,4,1,0,80,0,0
79705,-106.666666666667,4,1,0,80,0,0
79783,-107.38255033557,4,1,0,80,0,0
79861,-108.108108108108,4,1,0,80,0,0
80017,-109.58904109589,4,1,0,80,0,0
80174,-111.111111111111,4,1,0,80,0,0
81424,-111.111111111111,4,1,0,80,0,0
81658,-106.666666666667,4,1,0,80,0,0
81892,-102.564102564103,4,1,0,80,0,0
82127,-98.7654320987654,4,1,0,80,0,0
82205,-97.5609756097561,4,1,0,80,0,0
82361,-95.2380952380952,4,1,0,80,0,0
82517,-93.0232558139535,4,1,0,80,0,0
82595,-91.9540229885058,4,1,0,80,0,0
82674,-90.9090909090909,4,1,0,90,0,1
87674,-83.3333333333333,4,1,0,90,0,1
87830,-84.2105263157895,4,1,0,90,0,1
87908,-84.6560846560847,4,1,0,90,0,1
87986,-85.1063829787234,4,1,0,90,0,1
88142,-86.0215053763441,4,1,0,90,0,1
88299,-86.9565217391304,4,1,0,90,0,1
88377,-87.431693989071,4,1,0,90,0,1
88455,-87.9120879120879,4,1,0,90,0,1
88611,-88.8888888888889,4,1,0,90,0,1
88767,-89.8876404494382,4,1,0,90,0,1
88845,-90.3954802259887,4,1,0,90,0,1
88924,-90.9090909090909,4,1,0,90,0,1
89080,-91.9540229885058,4,1,0,90,0,1
89236,-93.0232558139535,4,1,0,90,0,1
89314,-93.5672514619883,4,1,0,90,0,1
89392,-94.1176470588235,4,1,0,90,0,1
89549,-95.2380952380952,4,1,0,90,0,1
89705,-96.3855421686747,4,1,0,90,0,1
89783,-96.969696969697,4,1,0,90,0,1
89861,-97.5609756097561,4,1,0,90,0,1
90017,-98.7654320987654,4,1,0,90,0,1
90174,-100,4,1,0,90,0,1
91424,-100,4,1,0,90,0,1
91658,-98.159509202454,4,1,0,90,0,1
91892,-96.3855421686747,4,1,0,90,0,1
92127,-94.6745562130178,4,1,0,90,0,1
92205,-94.1176470588235,4,1,0,90,0,1
92361,-93.0232558139535,4,1,0,90,0,1
92517,-91.9540229885058,4,1,0,90,0,1
92595,-91.4285714285714,4,1,0,90,0,1
92674,-90.9090909090909,4,1,0,90,0,1
97674,-83.3333333333333,4,1,0,90,0,1
97830,-84.2105263157895,4,1,0,90,0,1
97908,-84.6560846560847,4,1,0,90,0,1
97986,-85.1063829787234,4,1,0,90,0,1
98142,-86.0215053763441,4,1,0,90,0,1
98299,-86.9565217391304,4,1,0,90,0,1
98377,-87.431693989071,4,1,0,90,0,1
98455,-87.9120879120879,4,1,0,90,0,1
98611,-88.8888888888889,4,1,0,90,0,1
98767,-89.8876404494382,4,1,0,90,0,1
98845,-90.3954802259887,4,1,0,90,0,1
98924,-90.9090909090909,4,1,0,90,0,1
99080,-91.9540229885058,4,1,0,90,0,1
99236,-93.0232558139535,4,1,0,90,0,1
99314,-93.5672514619883,4,1,0,90,0,1
99392,-94.1176470588235,4,1,0,90,0,1
99549,-95.2380952380952,4,1,0,90,0,1
99705,-96.3855421686747,4,1,0,90,0,1
99783,-96.969696969697,4,1,0,90,0,1
99861,-97.5609756097561,4,1,0,90,0,1
100017,-98.7654320987654,4,1,0,90,0,1
100174,-100,4,1,0,90,0,1
101424,-100,4,1,0,90,0,1
101658,-98.159509202454,4,1,0,90,0,1
101892,-96.3855421686747,4,1,0,90,0,1
102127,-94.6745562130178,4,1,0,90,0,1
102205,-94.1176470588235,4,1,0,90,0,1
102361,-93.0232558139535,4,1,0,90,0,1
102517,-91.9540229885058,4,1,0,90,0,1
102595,-91.4285714285714,4,1,0,90,0,1
102674,-90.9090909090909,4,1,0,90,0,0
102986,-100,4,1,0,80,0,0
103142,-100.717308672365,4,1,0,80,0,0
103220,-101.079733715549,4,1,0,80,0,0
103299,-101.444879417544,4,1,0,80,0,0
103377,-101.812672827012,4,1,0,80,0,0
103455,-102.183142846925,4,1,0,80,0,0
103611,-102.932230448795,4,1,0,80,0,0
103924,-104.463735414251,4,1,0,80,0,0
104080,-105.246761557147,4,1,0,80,0,0
104158,-105.642581566637,4,1,0,80,0,0
104236,-106.041502523258,4,1,0,80,0,0
104392,-106.848451498817,4,1,0,80,0,0
104470,-107.256549084887,4,1,0,80,0,0
104549,-107.667776003652,4,1,0,80,0,0
104627,-108.08205157027,4,1,0,80,0,0
104705,-108.49964520616,4,1,0,80,0,0
104861,-109.344588536313,4,1,0,80,0,0
105017,-110.202795183697,4,1,0,80,0,0
105174,-111.074456540453,4,1,0,80,0,0

[HitObjects]
256,192,799,8,0,2517,0:0:0:0:
256,192,2674,5,12,0:0:0:0:
256,192,2830,1,0,0:0:0:0:
256,192,2986,1,0,0:0:0:0:
256,192,3142,1,12,0:0:0:0:
256,192,3299,1,0,0:0:0:0:
256,192,3455,1,12,0:0:0:0:
256,192,3767,1,0,0:0:0:0:
256,192,3845,1,0,0:0:0:0:
256,192,3924,1,0,0:0:0:0:
256,192,4080,1,12,0:0:0:0:
256,192,4236,1,0,0:0:0:0:
256,192,4392,1,8,0:0:0:0:
256,192,4549,1,0,0:0:0:0:
256,192,4705,1,8,0:0:0:0:
256,192,4861,1,0,0:0:0:0:
256,192,5017,1,0,0:0:0:0:
256,192,5174,1,12,0:0:0:0:
256,192,5330,1,0,0:0:0:0:
256,192,5486,1,0,0:0:0:0:
256,192,5642,1,12,0:0:0:0:
256,192,5799,1,0,0:0:0:0:
256,192,5955,1,12,0:0:0:0:
256,192,6267,1,0,0:0:0:0:
256,192,6345,1,0,0:0:0:0:
256,192,6424,1,0,0:0:0:0:
256,192,6580,1,12,0:0:0:0:
256,192,6736,1,0,0:0:0:0:
256,192,6892,1,8,0:0:0:0:
256,192,7049,1,0,0:0:0:0:
256,192,7205,1,8,0:0:0:0:
256,192,7361,1,0,0:0:0:0:
256,192,7674,1,12,0:0:0:0:
256,192,7830,1,0,0:0:0:0:
256,192,7986,1,0,0:0:0:0:
256,192,8142,1,12,0:0:0:0:
256,192,8299,1,0,0:0:0:0:
256,192,8455,1,12,0:0:0:0:
256,192,8767,1,0,0:0:0:0:
256,192,8845,1,0,0:0:0:0:
256,192,8924,1,0,0:0:0:0:
256,192,9080,1,12,0:0:0:0:
256,192,9236,1,0,0:0:0:0:
256,192,9392,1,8,0:0:0:0:
256,192,9549,1,0,0:0:0:0:
256,192,9705,1,8,0:0:0:0:
256,192,9861,1,0,0:0:0:0:
256,192,10017,1,0,0:0:0:0:
256,192,10174,1,12,0:0:0:0:
256,192,10590,1,0,0:0:0:0:
256,192,10799,1,8,0:0:0:0:
256,192,11007,1,0,0:0:0:0:
256,192,11215,1,0,0:0:0:0:
256,192,11424,1,8,0:0:0:0:
256,192,11632,1,0,0:0:0:0:
256,192,11840,1,8,0:0:0:0:
256,192,12049,1,8,0:0:0:0:
256,192,12257,1,0,0:0:0:0:
256,192,12465,1,0,0:0:0:0:
256,192,12674,1,8,0:0:0:0:
256,192,15174,12,0,17517,0:0:0:0:
256,192,17674,5,4,0:0:0:0:
256,192,17830,1,0,0:0:0:0:
256,192,17908,1,0,0:0:0:0:
256,192,17986,1,8,0:0:0:0:
256,192,18142,1,0,0:0:0:0:
256,192,18220,1,0,0:0:0:0:
256,192,18299,1,0,0:0:0:0:
256,192,18377,1,0,0:0:0:0:
256,192,18455,1,8,0:0:0:0:
256,192,18611,1,0,0:0:0:0:
256,192,18767,1,0,0:0:0:0:
256,192,18924,1,0,0:0:0:0:
256,192,19080,1,8,0:0:0:0:
256,192,19236,1,0,0:0:0:0:
256,192,19392,1,8,0:0:0:0:
256,192,19470,1,0,0:0:0:0:
256,192,19549,1,8,0:0:0:0:
256,192,19627,1,8,0:0:0:0:
256,192,19705,1,0,0:0:0:0:
256,192,19861,1,8,0:0:0:0:
256,192,20017,1,8,0:0:0:0:
256,192,20174,1,0,0:0:0:0:
256,192,20330,1,0,0:0:0:0:
256,192,20408,1,0,0:0:0:0:
256,192,20486,1,8,0:0:0:0:
256,192,20642,1,0,0:0:0:0:
256,192,20720,1,0,0:0:0:0:
256,192,20799,1,0,0:0:0:0:
256,192,20877,1,0,0:0:0:0:
256,192,20955,1,8,0:0:0:0:
256,192,21111,1,0,0:0:0:0:
256,192,21267,1,8,0:0:0:0:
256,192,21424,1,0,0:0:0:0:
256,192,21580,1,0,0:0:0:0:
256,192,21736,1,8,0:0:0:0:
256,192,21892,1,0,0:0:0:0:
256,192,21970,1,0,0:0:0:0:
256,192,22049,1,8,0:0:0:0:
256,192,22127,1,8,0:0:0:0:
256,192,22205,1,0,0:0:0:0:
256,192,22361,1,8,0:0:0:0:
256,192,22517,1,8,0:0:0:0:
256,192,22674,1,0,0:0:0:0:
256,192,22830,1,0,0:0:0:0:
256,192,22908,1,0,0:0:0:0:
256,192,22986,1,8,0:0:0:0:
256,192,23142,1,0,0:0:0:0:
256,192,23220,1,0,0:0:0:0:
256,192,23299,1,0,0:0:0:0:
256,192,23377,1,0,0:0:0:0:
256,192,23455,1,8,0:0:0:0:
256,192,23611,1,0,0:0:0:0:
256,192,23767,1,0,0:0:0:0:
256,192,23924,1,0,0:0:0:0:
256,192,24080,1,8,0:0:0:0:
256,192,24236,1,0,0:0:0:0:
256,192,24392,1,8,0:0:0:0:
256,192,24470,1,8,0:0:0:0:
256,192,24549,1,0,0:0:0:0:
256,192,24627,1,0,0:0:0:0:
256,192,24705,1,8,0:0:0:0:
256,192,24861,1,0,0:0:0:0:
256,192,25017,1,8,0:0:0:0:
256,192,25174,1,0,0:0:0:0:
256,192,25330,1,0,0:0:0:0:
256,192,25408,1,0,0:0:0:0:
256,192,25486,1,8,0:0:0:0:
256,192,25642,1,0,0:0:0:0:
256,192,25720,1,0,0:0:0:0:
256,192,25799,1,0,0:0:0:0:
256,192,25877,1,0,0:0:0:0:
256,192,25955,1,8,0:0:0:0:
256,192,26111,1,0,0:0:0:0:
256,192,26267,1,8,0:0:0:0:
256,192,26424,1,8,0:0:0:0:
256,192,26580,1,8,0:0:0:0:
256,192,26658,1,0,0:0:0:0:
256,192,26736,1,8,0:0:0:0:
256,192,26892,1,0,0:0:0:0:
256,192,26970,1,0,0:0:0:0:
256,192,27049,1,8,0:0:0:0:
256,192,27127,1,8,0:0:0:0:
256,192,27205,1,0,0:0:0:0:
256,192,27361,1,8,0:0:0:0:
256,192,27517,1,0,0:0:0:0:
256,192,27674,1,12,0:0:0:0:
256,192,27830,1,0,0:0:0:0:
256,192,28142,1,8,0:0:0:0:
256,192,28220,1,0,0:0:0:0:
256,192,28299,1,8,0:0:0:0:
256,192,28377,1,8,0:0:0:0:
256,192,28455,1,0,0:0:0:0:
256,192,28611,1,0,0:0:0:0:
256,192,28924,1,0,0:0:0:0:
256,192,29080,1,8,0:0:0:0:
256,192,29392,1,8,0:0:0:0:
256,192,29470,1,0,0:0:0:0:
256,192,29549,1,8,0:0:0:0:
256,192,29627,1,0,0:0:0:0:
256,192,29705,1,0,0:0:0:0:
256,192,29861,1,8,0:0:0:0:
256,192,30017,1,0,0:0:0:0:
256,192,30174,1,8,0:0:0:0:
256,192,30330,1,0,0:0:0:0:
256,192,30642,1,8,0:0:0:0:
256,192,30720,1,0,0:0:0:0:
256,192,30799,1,8,0:0:0:0:
256,192,30877,1,8,0:0:0:0:
256,192,30955,1,0,0:0:0:0:
256,192,31111,1,0,0:0:0:0:
256,192,31424,1,0,0:0:0:0:
256,192,31580,1,8,0:0:0:0:
256,192,31892,1,8,0:0:0:0:
256,192,31970,1,0,0:0:0:0:
256,192,32049,1,8,0:0:0:0:
256,192,32205,1,0,0:0:0:0:
256,192,32283,1,8,0:0:0:0:
256,192,32361,1,0,0:0:0:0:
256,192,32517,1,8,0:0:0:0:
256,192,32674,1,8,0:0:0:0:
256,192,32830,1,0,0:0:0:0:
256,192,33142,1,8,0:0:0:0:
256,192,33220,1,0,0:0:0:0:
256,192,33299,1,8,0:0:0:0:
256,192,33377,1,0,0:0:0:0:
256,192,33455,1,0,0:0:0:0:
256,192,33611,1,0,0:0:0:0:
256,192,33924,1,0,0:0:0:0:
256,192,34080,1,8,0:0:0:0:
256,192,34392,1,8,0:0:0:0:
256,192,34470,1,0,0:0:0:0:
256,192,34549,1,8,0:0:0:0:
256,192,34627,1,8,0:0:0:0:
256,192,34705,1,0,0:0:0:0:
256,192,34861,1,0,0:0:0:0:
256,192,35017,1,8,0:0:0:0:
256,192,35174,1,0,0:0:0:0:
256,192,35330,1,0,0:0:0:0:
256,192,35486,1,0,0:0:0:0:
256,192,35642,1,8,0:0:0:0:
256,192,35720,1,0,0:0:0:0:
256,192,35799,1,8,0:0:0:0:
256,192,35877,1,0,0:0:0:0:
256,192,35955,1,0,0:0:0:0:
256,192,36111,1,0,0:0:0:0:
256,192,36424,1,8,0:0:0:0:
256,192,36580,1,0,0:0:0:0:
256,192,36658,1,0,0:0:0:0:
256,192,36736,1,0,0:0:0:0:
256,192,36892,1,8,0:0:0:0:
256,192,36970,1,0,0:0:0:0:
256,192,37049,1,8,0:0:0:0:
256,192,37127,1,8,0:0:0:0:
256,192,37205,1,0,0:0:0:0:
256,192,37283,1,0,0:0:0:0:
256,192,37361,1,8,0:0:0:0:
256,192,37517,1,8,0:0:0:0:
256,192,37674,1,4,0:0:0:0:
256,192,40799,12,0,41424,0:0:0:0:
256,192,42674,5,4,0:0:0:0:
256,192,43611,1,8,0:0:0:0:
256,192,43767,1,0,0:0:0:0:
256,192,44705,1,0,0:0:0:0:
256,192,44861,1,8,0:0:0:0:
256,192,45017,1,8,0:0:0:0:
256,192,45174,1,0,0:0:0:0:
256,192,46111,1,8,0:0:0:0:
256,192,46267,1,0,0:0:0:0:
256,192,46892,1,0,0:0:0:0:
256,192,47049,1,8,0:0:0:0:
256,192,47205,1,0,0:0:0:0:
256,192,47361,1,8,0:0:0:0:
256,192,47517,1,8,0:0:0:0:
256,192,47674,1,0,0:0:0:0:
256,192,47986,1,2,0:0:0:0:
256,192,48299,1,0,0:0:0:0:
256,192,48455,1,2,0:0:0:0:
256,192,48767,1,0,0:0:0:0:
256,192,48924,1,2,0:0:0:0:
256,192,49080,1,0,0:0:0:0:
256,192,49236,1,0,0:0:0:0:
256,192,49392,1,2,0:0:0:0:
256,192,49549,1,0,0:0:0:0:
256,192,49861,1,2,0:0:0:0:
256,192,50174,1,0,0:0:0:0:
256,192,50486,1,8,0:0:0:0:
256,192,50642,1,0,0:0:0:0:
256,192,50955,1,8,0:0:0:0:
256,192,51267,1,0,0:0:0:0:
256,192,51424,1,8,0:0:0:0:
256,192,51736,1,0,0:0:0:0:
256,192,52049,1,8,0:0:0:0:
256,192,52361,1,8,0:0:0:0:
256,192,52674,1,0,0:0:0:0:
256,192,53611,1,8,0:0:0:0:
256,192,53767,1,0,0:0:0:0:
256,192,54861,1,8,0:0:0:0:
256,192,55174,1,0,0:0:0:0:
256,192,55642,1,8,0:0:0:0:
256,192,56111,1,0,0:0:0:0:
256,192,56267,1,0,0:0:0:0:
256,192,56424,1,8,0:0:0:0:
256,192,56736,1,0,0:0:0:0:
256,192,57049,1,8,0:0:0:0:
256,192,57361,1,0,0:0:0:0:
256,192,57674,1,8,0:0:0:0:
256,192,57830,1,0,0:0:0:0:
256,192,57986,1,0,0:0:0:0:
256,192,58142,1,8,0:0:0:0:
256,192,58299,1,0,0:0:0:0:
256,192,58455,1,0,0:0:0:0:
256,192,58611,1,8,0:0:0:0:
256,192,58767,1,0,0:0:0:0:
256,192,58924,1,0,0:0:0:0:
256,192,59080,1,8,0:0:0:0:
256,192,59236,1,0,0:0:0:0:
256,192,59392,1,0,0:0:0:0:
256,192,59549,1,8,0:0:0:0:
256,192,59705,1,8,0:0:0:0:
256,192,59861,1,0,0:0:0:0:
256,192,60017,1,8,0:0:0:0:
256,192,60174,1,0,0:0:0:0:
256,192,60799,12,0,62517,0:0:0:0:
256,192,62674,5,4,0:0:0:0:
256,192,62830,1,0,0:0:0:0:
256,192,62908,1,0,0:0:0:0:
256,192,62986,1,8,0:0:0:0:
256,192,63142,1,0,0:0:0:0:
256,192,63220,1,8,0:0:0:0:
256,192,63299,1,0,0:0:0:0:
256,192,63377,1,8,0:0:0:0:
256,192,63455,1,0,0:0:0:0:
256,192,63611,1,8,0:0:0:0:
256,192,63767,1,8,0:0:0:0:
256,192,63924,1,0,0:0:0:0:
256,192,64080,1,0,0:0:0:0:
256,192,64158,1,0,0:0:0:0:
256,192,64236,1,8,0:0:0:0:
256,192,64392,1,8,0:0:0:0:
256,192,64470,1,0,0:0:0:0:
256,192,64549,1,8,0:0:0:0:
256,192,64627,1,8,0:0:0:0:
256,192,64705,1,0,0:0:0:0:
256,192,64861,1,8,0:0:0:0:
256,192,65017,1,8,0:0:0:0:
256,192,65174,1,0,0:0:0:0:
256,192,65330,1,0,0:0:0:0:
256,192,65408,1,0,0:0:0:0:
256,192,65486,1,8,0:0:0:0:
256,192,65642,1,0,0:0:0:0:
256,192,65720,1,8,0:0:0:0:
256,192,65799,1,8,0:0:0:0:
256,192,65877,1,8,0:0:0:0:
256,192,65955,1,0,0:0:0:0:
256,192,66111,1,8,0:0:0:0:
256,192,66267,1,8,0:0:0:0:
256,192,66424,1,0,0:0:0:0:
256,192,66580,1,0,0:0:0:0:
256,192,66658,1,0,0:0:0:0:
256,192,66736,1,8,0:0:0:0:
256,192,66892,1,0,0:0:0:0:
256,192,66970,1,0,0:0:0:0:
256,192,67049,1,8,0:0:0:0:
256,192,67127,1,8,0:0:0:0:
256,192,67205,1,0,0:0:0:0:
256,192,67361,1,8,0:0:0:0:
256,192,67517,1,0,0:0:0:0:
256,192,67674,1,12,0:0:0:0:
256,192,67830,1,0,0:0:0:0:
256,192,67908,1,0,0:0:0:0:
256,192,67986,1,0,0:0:0:0:
256,192,68142,1,12,0:0:0:0:
256,192,68299,1,0,0:0:0:0:
256,192,68377,1,0,0:0:0:0:
256,192,68455,1,0,0:0:0:0:
256,192,68611,1,12,0:0:0:0:
256,192,68767,1,0,0:0:0:0:
256,192,68845,1,0,0:0:0:0:
256,192,68924,1,0,0:0:0:0:
256,192,69080,1,12,0:0:0:0:
256,192,69236,1,0,0:0:0:0:
256,192,69314,1,0,0:0:0:0:
256,192,69392,1,0,0:0:0:0:
256,192,69549,1,12,0:0:0:0:
256,192,69705,1,0,0:0:0:0:
256,192,69783,1,0,0:0:0:0:
256,192,69861,1,0,0:0:0:0:
256,192,70017,1,8,0:0:0:0:
256,192,70174,1,4,0:0:0:0:
256,192,70330,1,8,0:0:0:0:
256,192,70486,1,8,0:0:0:0:
256,192,70642,1,0,0:0:0:0:
256,192,70799,1,8,0:0:0:0:
256,192,70955,1,8,0:0:0:0:
256,192,71111,1,0,0:0:0:0:
256,192,71267,1,8,0:0:0:0:
256,192,71424,1,8,0:0:0:0:
256,192,71658,1,8,0:0:0:0:
256,192,71892,1,8,0:0:0:0:
256,192,72127,1,0,0:0:0:0:
256,192,72205,1,8,0:0:0:0:
256,192,72361,1,8,0:0:0:0:
256,192,72517,1,0,0:0:0:0:
256,192,72595,1,0,0:0:0:0:
256,192,72674,1,12,0:0:0:0:
256,192,72830,1,0,0:0:0:0:
256,192,72908,1,0,0:0:0:0:
256,192,72986,1,8,0:0:0:0:
256,192,73142,1,0,0:0:0:0:
256,192,73220,1,8,0:0:0:0:
256,192,73299,1,0,0:0:0:0:
256,192,73377,1,8,0:0:0:0:
256,192,73455,1,0,0:0:0:0:
256,192,73611,1,0,0:0:0:0:
256,192,73767,1,12,0:0:0:0:
256,192,73924,1,0,0:0:0:0:
256,192,74080,1,0,0:0:0:0:
256,192,74158,1,0,0:0:0:0:
256,192,74236,1,8,0:0:0:0:
256,192,74392,1,8,0:0:0:0:
256,192,74470,1,0,0:0:0:0:
256,192,74549,1,8,0:0:0:0:
256,192,74627,1,8,0:0:0:0:
256,192,74705,1,0,0:0:0:0:
256,192,74861,1,8,0:0:0:0:
256,192,75017,1,0,0:0:0:0:
256,192,75174,1,8,0:0:0:0:
256,192,75330,1,0,0:0:0:0:
256,192,75408,1,0,0:0:0:0:
256,192,75486,1,8,0:0:0:0:
256,192,75642,1,0,0:0:0:0:
256,192,75720,1,8,0:0:0:0:
256,192,75799,1,8,0:0:0:0:
256,192,75877,1,8,0:0:0:0:
256,192,75955,1,0,0:0:0:0:
256,192,76111,1,8,0:0:0:0:
256,192,76267,1,0,0:0:0:0:
256,192,76424,1,8,0:0:0:0:
256,192,76580,1,0,0:0:0:0:
256,192,76658,1,0,0:0:0:0:
256,192,76736,1,8,0:0:0:0:
256,192,76892,1,0,0:0:0:0:
256,192,76970,1,0,0:0:0:0:
256,192,77049,1,8,0:0:0:0:
256,192,77127,1,8,0:0:0:0:
256,192,77205,1,0,0:0:0:0:
256,192,77361,1,8,0:0:0:0:
256,192,77517,1,0,0:0:0:0:
256,192,77674,1,12,0:0:0:0:
256,192,77830,1,0,0:0:0:0:
256,192,77908,1,0,0:0:0:0:
256,192,77986,1,0,0:0:0:0:
256,192,78142,1,12,0:0:0:0:
256,192,78299,1,0,0:0:0:0:
256,192,78377,1,0,0:0:0:0:
256,192,78455,1,0,0:0:0:0:
256,192,78611,1,12,0:0:0:0:
256,192,78767,1,0,0:0:0:0:
256,192,78845,1,0,0:0:0:0:
256,192,78924,1,0,0:0:0:0:
256,192,79080,1,12,0:0:0:0:
256,192,79236,1,0,0:0:0:0:
256,192,79314,1,0,0:0:0:0:
256,192,79392,1,0,0:0:0:0:
256,192,79549,1,12,0:0:0:0:
256,192,79705,1,0,0:0:0:0:
256,192,79783,1,0,0:0:0:0:
256,192,79861,1,0,0:0:0:0:
256,192,80017,1,8,0:0:0:0:
256,192,80174,1,4,0:0:0:0:
256,192,80330,1,8,0:0:0:0:
256,192,80486,1,8,0:0:0:0:
256,192,80642,1,0,0:0:0:0:
256,192,80799,1,8,0:0:0:0:
256,192,80955,1,8,0:0:0:0:
256,192,81111,1,0,0:0:0:0:
256,192,81267,1,8,0:0:0:0:
256,192,81424,1,8,0:0:0:0:
256,192,81658,1,8,0:0:0:0:
256,192,81892,1,8,0:0:0:0:
256,192,82127,1,0,0:0:0:0:
256,192,82205,1,8,0:0:0:0:
256,192,82361,1,8,0:0:0:0:
256,192,82517,1,0,0:0:0:0:
256,192,82595,1,0,0:0:0:0:
256,192,82674,1,12,0:0:0:0:
256,192,82830,1,0,0:0:0:0:
256,192,82908,1,0,0:0:0:0:
256,192,82986,1,8,0:0:0:0:
256,192,83142,1,0,0:0:0:0:
256,192,83220,1,8,0:0:0:0:
256,192,83299,1,0,0:0:0:0:
256,192,83377,1,8,0:0:0:0:
256,192,83455,1,0,0:0:0:0:
256,192,83533,1,0,0:0:0:0:
256,192,83611,1,8,0:0:0:0:
256,192,83767,1,8,0:0:0:0:
256,192,83924,1,0,0:0:0:0:
256,192,84080,1,0,0:0:0:0:
256,192,84158,1,0,0:0:0:0:
256,192,84236,1,8,0:0:0:0:
256,192,84392,1,8,0:0:0:0:
256,192,84470,1,0,0:0:0:0:
256,192,84549,1,8,0:0:0:0:
256,192,84627,1,8,0:0:0:0:
256,192,84705,1,0,0:0:0:0:
256,192,84783,1,0,0:0:0:0:
256,192,84861,1,8,0:0:0:0:
256,192,85017,1,8,0:0:0:0:
256,192,85095,1,8,0:0:0:0:
256,192,85174,1,0,0:0:0:0:
256,192,85330,1,0,0:0:0:0:
256,192,85408,1,0,0:0:0:0:
256,192,85486,1,8,0:0:0:0:
256,192,85642,1,0,0:0:0:0:
256,192,85720,1,8,0:0:0:0:
256,192,85799,1,8,0:0:0:0:
256,192,85877,1,8,0:0:0:0:
256,192,85955,1,0,0:0:0:0:
256,192,86033,1,0,0:0:0:0:
256,192,86111,1,8,0:0:0:0:
256,192,86267,1,8,0:0:0:0:
256,192,86424,1,0,0:0:0:0:
256,192,86580,1,0,0:0:0:0:
256,192,86658,1,0,0:0:0:0:
256,192,86736,1,8,0:0:0:0:
256,192,86892,1,0,0:0:0:0:
256,192,86970,1,0,0:0:0:0:
256,192,87049,1,8,0:0:0:0:
256,192,87127,1,8,0:0:0:0:
256,192,87205,1,0,0:0:0:0:
256,192,87283,1,0,0:0:0:0:
256,192,87361,1,8,0:0:0:0:
256,192,87517,1,0,0:0:0:0:
256,192,87674,1,12,0:0:0:0:
256,192,87830,1,0,0:0:0:0:
256,192,87908,1,0,0:0:0:0:
256,192,87986,1,0,0:0:0:0:
256,192,88142,1,12,0:0:0:0:
256,192,88299,1,0,0:0:0:0:
256,192,88377,1,0,0:0:0:0:
256,192,88455,1,0,0:0:0:0:
256,192,88611,1,12,0:0:0:0:
256,192,88767,1,0,0:0:0:0:
256,192,88845,1,0,0:0:0:0:
256,192,88924,1,0,0:0:0:0:
256,192,89080,1,12,0:0:0:0:
256,192,89236,1,0,0:0:0:0:
256,192,89314,1,0,0:0:0:0:
256,192,89392,1,0,0:0:0:0:
256,192,89549,1,12,0:0:0:0:
256,192,89705,1,0,0:0:0:0:
256,192,89783,1,0,0:0:0:0:
256,192,89861,1,0,0:0:0:0:
256,192,90017,1,8,0:0:0:0:
256,192,90174,1,4,0:0:0:0:
256,192,90330,1,8,0:0:0:0:
256,192,90486,1,8,0:0:0:0:
256,192,90642,1,0,0:0:0:0:
256,192,90799,1,8,0:0:0:0:
256,192,90955,1,8,0:0:0:0:
256,192,91111,1,0,0:0:0:0:
256,192,91267,1,8,0:0:0:0:
256,192,91424,1,8,0:0:0:0:
256,192,91658,1,8,0:0:0:0:
256,192,91892,1,8,0:0:0:0:
256,192,92127,1,0,0:0:0:0:
256,192,92205,1,8,0:0:0:0:
256,192,92361,1,8,0:0:0:0:
256,192,92517,1,0,0:0:0:0:
256,192,92595,1,0,0:0:0:0:
256,192,92674,1,12,0:0:0:0:
256,192,92830,1,0,0:0:0:0:
256,192,92908,1,0,0:0:0:0:
256,192,92986,1,8,0:0:0:0:
256,192,93142,1,0,0:0:0:0:
256,192,93220,1,8,0:0:0:0:
256,192,93299,1,0,0:0:0:0:
256,192,93377,1,8,0:0:0:0:
256,192,93455,1,0,0:0:0:0:
256,192,93533,1,0,0:0:0:0:
256,192,93611,1,0,0:0:0:0:
256,192,93767,1,8,0:0:0:0:
256,192,93924,1,0,0:0:0:0:
256,192,94080,1,0,0:0:0:0:
256,192,94158,1,0,0:0:0:0:
256,192,94236,1,8,0:0:0:0:
256,192,94392,1,8,0:0:0:0:
256,192,94470,1,0,0:0:0:0:
256,192,94549,1,8,0:0:0:0:
256,192,94627,1,8,0:0:0:0:
256,192,94705,1,0,0:0:0:0:
256,192,94783,1,0,0:0:0:0:
256,192,94861,1,8,0:0:0:0:
256,192,95017,1,0,0:0:0:0:
256,192,95095,1,0,0:0:0:0:
256,192,95174,1,8,0:0:0:0:
256,192,95330,1,0,0:0:0:0:
256,192,95408,1,8,0:0:0:0:
256,192,95486,1,0,0:0:0:0:
256,192,95642,1,8,0:0:0:0:
256,192,95720,1,0,0:0:0:0:
256,192,95799,1,8,0:0:0:0:
256,192,95877,1,8,0:0:0:0:
256,192,95955,1,0,0:0:0:0:
256,192,96111,1,8,0:0:0:0:
256,192,96267,1,0,0:0:0:0:
256,192,96424,1,8,0:0:0:0:
256,192,96580,1,0,0:0:0:0:
256,192,96658,1,0,0:0:0:0:
256,192,96736,1,8,0:0:0:0:
256,192,96892,1,0,0:0:0:0:
256,192,96970,1,0,0:0:0:0:
256,192,97049,1,8,0:0:0:0:
256,192,97127,1,8,0:0:0:0:
256,192,97205,1,0,0:0:0:0:
256,192,97283,1,0,0:0:0:0:
256,192,97361,1,8,0:0:0:0:
256,192,97517,1,0,0:0:0:0:
256,192,97674,1,12,0:0:0:0:
256,192,97830,1,0,0:0:0:0:
256,192,97908,1,8,0:0:0:0:
256,192,97986,1,0,0:0:0:0:
256,192,98142,1,12,0:0:0:0:
256,192,98299,1,0,0:0:0:0:
256,192,98377,1,8,0:0:0:0:
256,192,98455,1,0,0:0:0:0:
256,192,98611,1,12,0:0:0:0:
256,192,98767,1,0,0:0:0:0:
256,192,98845,1,8,0:0:0:0:
256,192,98924,1,0,0:0:0:0:
256,192,99080,1,12,0:0:0:0:
256,192,99236,1,0,0:0:0:0:
256,192,99314,1,8,0:0:0:0:
256,192,99392,1,0,0:0:0:0:
256,192,99549,1,12,0:0:0:0:
256,192,99705,1,0,0:0:0:0:
256,192,99783,1,8,0:0:0:0:
256,192,99861,1,0,0:0:0:0:
256,192,100017,1,8,0:0:0:0:
256,192,100174,1,4,0:0:0:0:
256,192,100330,1,8,0:0:0:0:
256,192,100486,1,8,0:0:0:0:
256,192,100642,1,0,0:0:0:0:
256,192,100799,1,8,0:0:0:0:
256,192,100955,1,8,0:0:0:0:
256,192,101111,1,0,0:0:0:0:
256,192,101267,1,8,0:0:0:0:
256,192,101424,1,8,0:0:0:0:
256,192,101658,1,8,0:0:0:0:
256,192,101892,1,8,0:0:0:0:
256,192,102127,1,0,0:0:0:0:
256,192,102205,1,8,0:0:0:0:
256,192,102361,1,8,0:0:0:0:
256,192,102517,1,0,0:0:0:0:
256,192,102595,1,0,0:0:0:0:
256,192,102674,1,12,0:0:0:0:
256,192,102986,1,8,0:0:0:0:
256,192,103142,1,0,0:0:0:0:
256,192,103220,1,8,0:0:0:0:
256,192,103299,1,0,0:0:0:0:
256,192,103377,1,8,0:0:0:0:
256,192,103455,1,0,0:0:0:0:
256,192,103611,1,8,0:0:0:0:
256,192,103924,1,0,0:0:0:0:
256,192,104080,1,0,0:0:0:0:
256,192,104158,1,0,0:0:0:0:
256,192,104236,1,8,0:0:0:0:
256,192,104392,1,8,0:0:0:0:
256,192,104470,1,0,0:0:0:0:
256,192,104549,1,8,0:0:0:0:
256,192,104627,1,8,0:0:0:0:
256,192,104705,1,0,0:0:0:0:
256,192,104861,1,8,0:0:0:0:
256,192,105017,1,8,0:0:0:0:
256,192,105174,1,0,0:0:0:0:
256,192,105486,1,8,0:0:0:0:
256,192,105642,1,0,0:0:0:0:
256,192,105720,1,8,0:0:0:0:
256,192,105799,1,8,0:0:0:0:
256,192,105877,1,8,0:0:0:0:
256,192,105955,1,0,0:0:0:0:
256,192,106111,1,8,0:0:0:0:
256,192,106424,1,0,0:0:0:0:
256,192,106580,1,0,0:0:0:0:
256,192,106658,1,0,0:0:0:0:
256,192,106736,1,8,0:0:0:0:
256,192,106892,1,0,0:0:0:0:
256,192,106970,1,0,0:0:0:0:
256,192,107049,1,8,0:0:0:0:
256,192,107127,1,8,0:0:0:0:
256,192,107205,1,0,0:0:0:0:
256,192,107361,1,8,0:0:0:0:
256,192,107517,1,0,0:0:0:0:
256,192,107674,1,12,0:0:0:0:
256,192,107830,1,0,0:0:0:0:
256,192,107986,1,0,0:0:0:0:
256,192,108142,1,12,0:0:0:0:
256,192,108299,1,0,0:0:0:0:
256,192,108455,1,12,0:0:0:0:
256,192,108767,1,0,0:0:0:0:
256,192,108845,1,0,0:0:0:0:
256,192,108924,1,0,0:0:0:0:
256,192,109080,1,12,0:0:0:0:
256,192,109236,1,0,0:0:0:0:
256,192,109392,1,8,0:0:0:0:
256,192,109549,1,0,0:0:0:0:
256,192,109705,1,8,0:0:0:0:
256,192,109861,1,0,0:0:0:0:
256,192,110017,1,0,0:0:0:0:
256,192,110174,1,12,0:0:0:0:
256,192,110330,1,0,0:0:0:0:
256,192,110486,1,0,0:0:0:0:
256,192,110642,1,12,0:0:0:0:
256,192,110799,1,0,0:0:0:0:
256,192,110955,1,12,0:0:0:0:
256,192,111267,1,0,0:0:0:0:
256,192,111345,1,0,0:0:0:0:
256,192,111424,1,0,0:0:0:0:
256,192,111580,1,12,0:0:0:0:
256,192,111736,1,0,0:0:0:0:
256,192,111892,1,8,0:0:0:0:
256,192,112049,1,0,0:0:0:0:
256,192,112205,1,8,0:0:0:0:
256,192,112361,1,0,0:0:0:0:
256,192,112517,1,0,0:0:0:0:
256,192,112674,1,12,0:0:0:0:
