osu file format v14

[General]
AudioFilename: audio.mp3
AudioLeadIn: 0
PreviewTime: 62578
Countdown: 0
SampleSet: Soft
StackLeniency: 0.2
Mode: 0
LetterboxInBreaks: 0
EpilepsyWarning: 1
WidescreenStoryboard: 1

[Editor]
DistanceSpacing: 1
BeatDivisor: 4
GridSize: 16
TimelineZoom: 3.499999

[Metadata]
Title:Aqua Stars
TitleUnicode:Aqua Stars
Artist:Sound Souler
ArtistUnicode:Sound Souler
Creator:Affirmation
Version:Insane
Source:OverRapid
Tags:artcore muse dash instrumental electronic
BeatmapID:2270072
BeatmapSetID:1085144

[Difficulty]
HPDrainRate:5.2
CircleSize:4.2
OverallDifficulty:7.8
ApproachRate:9
SliderMultiplier:1.7
SliderTickRate:1

[Events]
//Background and Video events
0,0,"BG.jpg",0,0
//Break Periods
2,12857,17057
2,60358,62057
//Storyboard Layer 0 (Background)
//Storyboard Layer 1 (Fail)
//Storyboard Layer 2 (Pass)
//Storyboard Layer 3 (Foreground)
//Storyboard Layer 4 (Overlay)
//Storyboard Sound Samples

[TimingPoints]
2657,312.5,4,2,1,60,1,0
2657,-66.6666666666667,4,2,1,60,0,0
3125,-133.333333333333,4,2,1,60,0,0
5157,-66.6666666666667,4,2,1,60,0,0
5625,-133.333333333333,4,2,1,60,0,0
7657,-66.6666666666667,4,2,1,60,0,0
8125,-133.333333333333,4,2,1,60,0,0
10157,-200,4,2,1,40,0,0
12657,-200,4,2,2,40,0,0
17657,-90.9090909090909,4,2,1,70,0,0
27657,-125,4,2,1,50,0,0
37657,-125,4,2,2,50,0,0
42657,-166.666666666667,4,2,3,45,0,0
43594,-166.666666666667,4,2,1,45,0,0
47657,-166.666666666667,4,2,2,45,0,0
50157,-166.666666666667,4,2,1,45,0,0
52657,-166.666666666667,4,2,2,45,0,0
53594,-166.666666666667,4,2,1,45,0,0
57657,-166.666666666667,4,2,2,45,0,0
57813,-166.666666666667,4,2,1,45,0,0
58125,-166.666666666667,4,2,2,45,0,0
58282,-166.666666666667,4,2,1,45,0,0
58594,-166.666666666667,4,2,2,45,0,0
58750,-166.666666666667,4,2,1,45,0,0
59063,-166.666666666667,4,2,2,45,0,0
59219,-166.666666666667,4,2,1,45,0,0
59532,-166.666666666667,4,2,2,45,0,0
59688,-166.666666666667,4,2,1,45,0,0
59844,-166.666666666667,4,2,2,45,0,0
60000,-166.666666666667,4,2,1,45,0,0
60157,-166.666666666667,4,2,2,35,0,0
62657,-83.3333333333333,4,2,4,70,0,0
62969,-83.3333333333333,4,2,1,70,0,0
63594,-71.4285714285714,4,2,1,70,0,0
64063,-83.3333333333333,4,2,1,70,0,0
65157,-83.3333333333333,4,2,2,70,0,0
66094,-71.4285714285714,4,2,1,70,0,0
66563,-83.3333333333333,4,2,1,70,0,0
67657,-83.3333333333333,4,2,5,70,0,0
68125,-86.9565217391304,4,2,2,70,0,0
68594,-90.9090909090909,4,2,2,70,0,0
69063,-95.2380952380952,4,2,2,70,0,0
69532,-100,4,2,2,70,0,0
70000,-90.9090909090909,4,2,2,70,0,0
70157,-83.3333333333333,4,2,2,70,0,0
70313,-83.3333333333333,4,2,1,70,0,0
71407,-71.4285714285714,4,2,1,70,0,0
72657,-83.3333333333333,4,2,5,70,0,0
73594,-71.4285714285714,4,2,5,70,0,0
73750,-71.4285714285714,4,2,1,70,0,0
74063,-83.3333333333333,4,2,1,70,0,0
75157,-83.3333333333333,4,2,2,70,0,0
75313,-83.3333333333333,4,2,1,70,0,0
77657,-83.3333333333333,4,2,5,70,0,0
78125,-86.9565217391304,4,2,2,70,0,0
78594,-90.9090909090909,4,2,2,70,0,0
79063,-95.2380952380952,4,2,2,70,0,0
79532,-100,4,2,2,70,0,0
80000,-90.9090909090909,4,2,2,70,0,0
80157,-83.3333333333333,4,2,2,70,0,0
80782,-83.3333333333333,4,2,1,70,0,0
81407,-71.4285714285714,4,2,1,70,0,0
82657,-83.3333333333333,4,2,4,80,0,0
82969,-83.3333333333333,4,2,6,80,0,0
83594,-71.4285714285714,4,2,6,80,0,0
84063,-83.3333333333333,4,2,6,80,0,0
85157,-83.3333333333333,4,2,1,80,0,0
86094,-71.4285714285714,4,2,6,80,0,0
86563,-83.3333333333333,4,2,6,80,0,0
87657,-83.3333333333333,4,2,7,80,0,0
88125,-86.9565217391304,4,2,2,80,0,0
88594,-90.9090909090909,4,2,2,80,0,0
89063,-95.2380952380952,4,2,2,80,0,0
89532,-100,4,2,2,80,0,0
90000,-90.9090909090909,4,2,2,80,0,0
90157,-83.3333333333333,4,2,1,80,0,0
90313,-83.3333333333333,4,2,6,80,0,0
91407,-71.4285714285714,4,2,2,80,0,0
92657,-83.3333333333333,4,2,7,80,0,0
93594,-71.4285714285714,4,2,7,80,0,0
93750,-71.4285714285714,4,2,6,80,0,0
94063,-83.3333333333333,4,2,6,80,0,0
95157,-83.3333333333333,4,2,1,80,0,0
95782,-83.3333333333333,4,2,6,80,0,0
96094,-71.4285714285714,4,2,6,80,0,0
96563,-83.3333333333333,4,2,6,80,0,0
97657,-83.3333333333333,4,2,7,80,0,0
98125,-86.9565217391304,4,2,2,80,0,0
98282,-86.9565217391304,4,2,6,80,0,0
98594,-90.9090909090909,4,2,1,80,0,0
98750,-90.9090909090909,4,2,6,80,0,0
99063,-95.2380952380952,4,2,1,80,0,0
99375,-95.2380952380952,4,2,6,80,0,0
99532,-100,4,2,2,80,0,0
100000,-90.9090909090909,4,2,2,80,0,0
100157,-83.3333333333333,4,2,1,80,0,0
101407,-71.4285714285714,4,2,2,80,0,0
102657,-66.6666666666667,4,2,1,60,0,0
103125,-100,4,2,1,60,0,0
105157,-66.6666666666667,4,2,1,60,0,0
105625,-100,4,2,1,60,0,0
107657,-89.2857142857143,4,2,3,65,0,0
108125,-89.2857142857143,4,2,1,65,0,0
110157,-89.2857142857143,4,2,3,65,0,0
110625,-89.2857142857143,4,2,1,65,0,0
112657,-89.2857142857143,4,2,3,65,0,0

[Colours]
Combo1 : 86,212,255
Combo2 : 96,124,255
Combo3 : 72,25,255
Combo4 : 247,255,147
Combo5 : 222,184,255
Combo6 : 255,124,157
Combo7 : 163,163,163
Combo8 : 91,91,91
SliderBorder : 192,255,216
SliderTrackOverride : 0,32,64

[HitObjects]
70,286,2657,118,0,B|126:279|126:279|140:284|140:284|195:276,1,127.500004863739,4|0,1:2|3:0,0:0:0:0:
195,276,2969,1,0,3:0:0:0:
293,211,3125,6,0,L|291:274,1,63.7500024318696,0|0,1:0|0:0,0:0:0:0:
294,147,3438,2,0,L|292:210,1,63.7500024318696,0|0,1:0|0:0,0:0:0:0:
286,357,3750,21,0,3:0:0:0:
286,357,3828,1,0,3:0:0:0:
286,357,3907,1,0,3:0:0:0:
293,211,4063,6,0,L|291:274,1,63.7500024318696,0|0,1:0|3:0,0:0:0:0:
294,147,4376,2,0,L|292:210,1,63.7500024318696,0|0,1:0|0:0,0:0:0:0:
457,297,4688,1,0,1:0:0:0:
403,233,4844,1,0,3:0:0:0:
375,312,5000,1,0,3:0:0:0:
481,100,5157,54,0,B|500:136|500:136|487:222,1,127.500004863739,0|0,1:0|3:0,0:0:0:0:
487,222,5469,1,0,3:0:0:0:
333,63,5625,6,0,L|396:61,1,63.7500024318696,0|0,1:0|0:0,0:0:0:0:
269,64,5938,2,0,L|332:62,1,63.7500024318696,0|0,1:0|0:0,0:0:0:0:
482,99,6250,21,0,3:0:0:0:
482,99,6328,1,0,3:0:0:0:
482,99,6407,1,0,3:0:0:0:
333,63,6563,6,0,L|396:61,1,63.7500024318696,0|0,1:0|0:0,0:0:0:0:
269,64,6876,2,0,L|332:62,1,63.7500024318696,0|0,1:0|0:0,0:0:0:0:
205,65,7188,1,0,1:0:0:0:
205,65,7344,2,0,L|268:63,1,63.7500024318696,0|0,3:0|0:0,0:0:0:0:
173,168,7657,54,0,B|94:177|121:143|48:151,1,127.500004863739,4|0,1:2|3:0,0:0:0:0:
48,151,7969,1,0,3:0:0:0:
270,191,8125,6,0,L|271:254,1,63.7500024318696,0|0,1:0|0:0,0:0:0:0:
269,127,8438,2,0,L|270:190,1,63.7500024318696,0|0,1:0|0:0,0:0:0:0:
170,293,8750,21,0,3:0:0:0:
170,293,8828,1,0,3:0:0:0:
170,293,8907,1,0,3:0:0:0:
270,191,9063,6,0,L|271:254,1,63.7500024318696,0|0,1:0|3:0,0:0:0:0:
269,127,9376,2,0,L|270:190,1,63.7500024318696,0|0,1:0|0:0,0:0:0:0:
268,63,9688,1,0,1:0:0:0:
268,63,9844,2,0,L|269:126,1,63.7500024318696,0|0,3:0|3:0,0:0:0:0:
388,184,10157,21,6,3:3:0:0:
388,184,10573,1,2,0:2:0:0:
288,309,10782,6,0,L|344:313,2,56.6666666666667,2|2|2,0:2|0:2|0:2,0:0:0:0:
214,196,11407,2,0,L|270:191,2,56.6666666666667,2|2|2,0:2|0:2|0:2,0:0:0:0:
140,309,12032,2,0,L|196:313,2,56.6666666666667,2|2|2,0:2|0:2|0:2,0:0:0:0:
68,205,12657,101,2,0:3:0:0:
150,156,17657,22,0,B|248:147|224:207|327:197,1,187.000005706787,6|0,3:1|1:0,0:0:0:0:
481,140,18125,1,0,3:0:0:0:
481,140,18203,2,0,L|434:137,1,46.7500014266968,0|0,3:0|0:0,0:0:0:0:
407,129,18438,2,0,L|412:222,1,93.5000028533936,0|0,1:0|0:0,0:0:0:0:
337,377,18750,5,0,3:0:0:0:
286,298,18907,2,0,B|243:278|243:278|154:306,1,140.25000428009,0|0,3:0|0:0,0:0:0:0:
141,319,19219,6,0,P|128:299|122:276,1,46.7500014266968,0|0,1:0|0:0,0:0:0:0:
233,164,19453,2,0,P|222:185|205:201,1,46.7500014266968,0|0,3:0|0:0,0:0:0:0:
53,162,19688,2,0,P|76:160|99:167,1,46.7500014266968,0|0,1:0|0:0,0:0:0:0:
112,178,19844,22,0,B|109:135|109:135|112:126|112:126|109:85,1,93.5000028533936,0|0,0:0|3:0,0:0:0:0:
266,26,20157,54,0,P|348:10|368:92,1,187.000005706787,2|0,3:3|1:0,0:0:0:0:
252,203,20625,1,0,3:0:0:0:
252,203,20703,2,0,L|205:200,1,46.7500014266968,0|0,3:0|0:0,0:0:0:0:
179,191,20938,2,0,L|272:186,1,93.5000028533936,0|0,1:0|0:0,0:0:0:0:
493,284,21250,5,0,3:0:0:0:
463,194,21407,2,0,P|395:204|350:255,1,140.25000428009,0|0,3:0|0:0,0:0:0:0:
339,270,21719,6,0,L|343:316,1,46.7500014266968,0|0,1:0|0:0,0:0:0:0:
330,120,21953,2,0,L|367:92,1,46.7500014266968,0|0,3:0|0:0,0:0:0:0:
205,203,22188,2,0,L|162:184,1,46.7500014266968,0|0,3:0|0:0,0:0:0:0:
149,171,22344,22,0,B|152:212|152:212|149:221|149:221|152:264,1,93.5000028533936,0|0,1:0|3:0,0:0:0:0:
74,54,22657,54,0,B|123:37|123:37|189:86|189:86|238:70,1,187.000005706787,6|0,3:3|1:0,0:0:0:0:
404,45,23125,1,0,3:0:0:0:
404,45,23203,2,0,L|357:42,1,46.7500014266968,0|0,3:0|0:0,0:0:0:0:
334,26,23438,2,0,L|329:119,1,93.5000028533936,0|0,1:0|0:0,0:0:0:0:
264,270,23750,5,0,3:0:0:0:
251,177,23907,2,0,B|299:144|352:172|352:172|342:203,1,140.25000428009,0|0,3:0|0:0,0:0:0:0:
351,220,24219,6,0,P|372:229|394:235,1,46.7500014266968,0|0,1:0|0:0,0:0:0:0:
342,71,24453,2,0,P|339:47|333:25,1,46.7500014266968,0|0,3:0|0:0,0:0:0:0:
217,153,24688,2,0,P|198:166|181:183,1,46.7500014266968,0|0,1:0|0:0,0:0:0:0:
166,194,24844,22,0,B|125:191|125:191|116:194|116:194|73:191,1,93.5000028533936,0|0,0:0|3:0,0:0:0:0:
208,356,25157,54,0,P|299:361|367:301,1,187.000005706787,2|0,3:3|1:0,0:0:0:0:
425,176,25625,1,0,3:0:0:0:
425,176,25703,2,0,L|378:172,1,46.7500014266968,0|0,3:0|0:0,0:0:0:0:
356,155,25938,2,0,L|262:163,1,93.5000028533936,0|0,1:0|0:0,0:0:0:0:
84,147,26250,5,0,3:0:0:0:
159,91,26407,2,0,P|177:158|170:227,1,140.25000428009,0|0,3:0|0:0,0:0:0:0:
158,242,26719,6,0,B|179:252|179:252|202:252,1,46.7500014266968,0|0,1:0|0:0,0:0:0:0:
356,155,26953,2,0,B|336:168|336:168|325:188,1,46.7500014266968,0|0,3:0|0:0,0:0:0:0:
332,369,27188,2,0,B|330:345|330:345|318:325,1,46.7500014266968,0|0,3:0|0:0,0:0:0:0:
308,310,27344,22,0,B|351:313|351:313|360:310|360:310|401:313,1,93.5000028533936,0|0,1:0|0:0,0:0:0:0:
478,192,27657,102,0,B|445:159|445:159|355:154,1,136,6|0,3:1|0:0,0:0:0:0:
355,154,28125,1,0,3:0:0:0:
487,48,28282,2,0,B|451:77|451:77|361:72,1,136,0|0,1:0|3:0,0:0:0:0:
206,155,28907,5,0,3:0:0:0:
84,193,29063,2,0,B|116:160|116:160|206:155,1,136,0|0,1:0|3:0,0:0:0:0:
75,49,29532,2,0,B|110:78|110:78|200:73,1,136,0|0,1:0|3:0,0:0:0:0:
364,235,30157,102,0,B|274:230|274:230|239:259,1,136,2|0,3:3|0:0,0:0:0:0:
301,311,30625,1,0,3:0:0:0:
175,335,30782,2,0,B|265:340|265:340|300:311,1,136,0|0,1:0|3:0,0:0:0:0:
299,158,31407,5,0,3:0:0:0:
381,151,31563,2,0,L|377:218,1,68,0|0,1:0|0:0,0:0:0:0:
364,235,32032,2,0,P|414:235|454:265,2,102,0|0|0,1:0|1:0|1:0,0:0:0:0:
300,310,32657,5,6,3:3:0:0:
300,310,32813,1,0,3:0:0:0:
300,310,32969,1,0,3:0:0:0:
87,351,33282,2,0,B|82:261|82:261|111:226,1,136,0|0,1:0|3:0,0:0:0:0:
253,151,33907,101,0,3:0:0:0:
229,26,34064,2,0,B|258:61|258:61|253:151,1,136,0|0,1:0|3:0,0:0:0:0:
373,35,34532,2,0,B|340:67|340:67|335:157,1,136,0|0,1:0|3:0,0:0:0:0:
383,222,35000,1,0,1:0:0:0:
254,261,35157,102,0,L|186:253,1,68,2|0,3:3|3:0,0:0:0:0:
181,349,35469,2,0,L|113:356,1,68,0|0,3:0|3:0,0:0:0:0:
186,253,35782,6,0,L|118:245,1,68,0|0,3:0|3:0,0:0:0:0:
249,342,36094,2,0,L|181:349,1,68,0|0,3:0|3:0,0:0:0:0:
20,362,36407,101,0,1:0:0:0:
25,280,36563,1,0,3:0:0:0:
25,280,36641,1,0,3:0:0:0:
25,280,36719,1,0,3:0:0:0:
30,198,36875,1,0,1:0:0:0:
186,253,37032,6,0,B|244:248|224:270|286:261,2,102,0|0|0,1:0|1:0|1:0,0:0:0:0:
263,183,37657,37,6,3:1:0:0:
256,192,37735,12,0,41407,0:0:0:0:
168,177,42657,102,0,B|279:168|235:243|357:231,1,203.999993774414,6|0,0:1|0:0,0:0:0:0:
452,125,43594,1,2,0:2:0:0:
426,108,43750,2,0,B|303:119|347:44|236:53,1,203.999993774414,2|0,0:2|0:0,0:0:0:0:
75,99,44688,2,0,L|70:48,2,50.9999984436036,2|2|2,0:2|0:2|0:2,0:0:0:0:
103,110,45157,6,0,L|84:313,1,203.999993774414,2|0,0:2|0:0,0:0:0:0:
179,360,46094,1,2,0:2:0:0:
207,349,46250,2,0,L|225:145,1,203.999993774414,2|2,0:2|0:2,0:0:0:0:
247,59,47032,102,0,P|271:64|297:66,1,50.9999984436036,2|2,0:2|0:2,0:0:0:0:
373,42,47344,2,0,P|347:43|322:49,1,50.9999984436036,2|2,0:2|0:2,0:0:0:0:
388,143,47657,6,0,B|419:196|400:246|400:246|380:290|405:313|434:328|474:327|516:286|520:228|467:192|389:201|333:238|333:238|283:282|195:240|195:240|261:256|300:209,1,713.99997821045,2|0,0:3|0:0,0:0:0:0:
228,47,50157,102,0,P|215:95|224:145,1,101.999996887207,2|2,0:2|0:2,0:0:0:0:
198,161,50625,2,0,L|96:151,1,101.999996887207,2|2,0:2|0:2,0:0:0:0:
35,295,51250,5,2,0:2:0:0:
35,295,51407,2,0,L|136:285,1,101.999996887207,2|2,0:2|0:2,0:0:0:0:
197,365,52032,2,0,L|298:374,1,101.999996887207,2|2,0:2|0:2,0:0:0:0:
418,311,52657,102,0,B|401:345|401:371|401:371|352:316|386:238,1,203.999993774414,2|0,0:3|0:0,0:0:0:0:
447,97,53594,1,2,0:2:0:0:
460,124,53750,2,0,B|385:135|317:98|369:82|301:45|224:56,1,254.999992218018,2|0,0:2|0:0,0:0:0:0:
79,195,54844,1,2,0:2:0:0:
172,243,55157,6,0,P|182:193|171:144,1,101.999996887207,2|0,0:2|0:0,0:0:0:0:
163,114,55625,2,0,L|61:119,1,101.999996887207,2|0,0:2|0:0,0:0:0:0:
31,125,56094,2,0,L|33:74,1,50.9999984436036,2|2,0:2|0:2,0:0:0:0:
79,195,56407,101,2,0:2:0:0:
78,207,56719,1,2,0:2:0:0:
77,220,57032,1,2,0:2:0:0:
77,233,57344,1,2,0:2:0:0:
216,343,57657,6,0,L|266:339,2,50.9999984436036,2|2|2,0:3|0:2|0:2,0:0:0:0:
241,255,58125,2,0,L|291:251,2,50.9999984436036,2|2|2,0:3|0:2|0:2,0:0:0:0:
266,167,58594,102,0,L|316:163,2,50.9999984436036,2|2|2,0:3|0:2|0:2,0:0:0:0:
291,79,59063,2,0,L|341:75,2,50.9999984436036,2|2|2,0:3|0:2|0:2,0:0:0:0:
203,102,59532,6,0,L|152:98,1,50.9999984436036,2|2,0:3|0:2,0:0:0:0:
178,190,59844,2,0,L|127:186,1,50.9999984436036,2|2,0:3|0:2,0:0:0:0:
266,167,60158,101,2,0:3:0:0:
101,142,62657,22,0,B|210:118|210:118|242:143,1,152.999995330811,6|0,3:1|0:0,0:0:0:0:
257,158,62969,1,0,1:0:0:0:
354,47,63125,5,0,3:0:0:0:
354,47,63203,2,0,L|356:97,1,50.9999984436036,0|0,3:0|0:0,0:0:0:0:
379,126,63438,2,0,L|376:176,1,50.9999984436036,0|0,3:0|0:0,0:0:0:0:
345,262,63594,6,0,B|430:253|430:253|455:274,2,118.999996368408,2|2|0,1:2|0:2|0:0,0:0:0:0:
143,324,64063,6,0,P|130:301|131:276,1,50.9999984436036,0|0,3:0|0:0,0:0:0:0:
199,214,64219,2,0,P|242:274|234:349,1,152.999995330811,0|0,1:0|0:0,0:0:0:0:
229,364,64532,6,0,L|279:358,1,50.9999984436036,0|0,3:0|0:0,0:0:0:0:
338,282,64688,2,0,L|388:276,1,50.9999984436036,2|0,3:2|0:0,0:0:0:0:
482,335,64844,5,2,1:2:0:0:
508,236,65000,1,2,0:2:0:0:
410,94,65157,38,0,P|337:96|297:157,1,152.999995330811,2|0,3:3|0:0,0:0:0:0:
307,176,65469,1,0,1:0:0:0:
169,212,65625,5,0,3:0:0:0:
169,212,65703,2,0,L|166:161,1,50.9999984436036,0|0,3:0|0:0,0:0:0:0:
192,136,65938,2,0,L|194:85,1,50.9999984436036,0|0,3:0|0:0,0:0:0:0:
57,106,66094,6,0,B|54:162|54:162|57:170|57:170|54:224,2,118.999996368408,2|2|0,1:2|0:2|0:0,0:0:0:0:
165,246,66563,6,0,L|163:297,1,50.9999984436036,0|0,3:0|0:0,0:0:0:0:
252,323,66719,2,0,L|256:221,1,101.999996887207,0|2,1:0|0:2,0:0:0:0:
335,35,67032,5,2,3:2:0:0:
345,137,67188,1,2,3:2:0:0:
335,35,67344,1,2,1:2:0:0:
345,137,67500,1,2,0:2:0:0:
426,321,67657,6,0,L|430:219,1,101.999996887207,6|0,1:1|3:0,0:0:0:0:
431,142,67891,1,0,3:0:0:0:
431,142,67969,1,0,3:0:0:0:
340,313,68125,70,0,L|344:216,1,97.7500018644333,4|0,1:2|3:0,0:0:0:0:
345,139,68360,1,0,3:0:0:0:
345,139,68438,1,0,3:0:0:0:
254,307,68594,38,0,L|258:214,1,93.5000028533936,4|0,1:2|3:0,0:0:0:0:
259,137,68828,1,0,3:0:0:0:
259,137,68906,1,0,3:0:0:0:
167,300,69063,70,0,L|171:211,1,89.2499972763062,4|0,1:2|3:0,0:0:0:0:
172,134,69297,1,0,3:0:0:0:
172,134,69375,1,0,3:0:0:0:
81,292,69532,38,0,L|85:208,1,85,4|0,1:2|3:0,0:0:0:0:
86,131,69766,1,0,3:0:0:0:
86,131,69844,1,0,3:0:0:0:
258,213,70000,38,0,B|261:237|261:237|246:219,1,46.7500014266968,4|0,1:2|0:0,0:0:0:0:
172,134,70157,5,6,1:3:0:0:
274,131,70313,1,2,1:2:0:0:
376,128,70469,2,0,L|379:26,1,101.999996887207,2|2,1:2|3:2,0:0:0:0:
481,238,70782,37,2,1:2:0:0:
379,235,70938,1,2,1:2:0:0:
277,232,71094,2,0,L|273:130,1,101.999996887207,2|2,3:2|1:2,0:0:0:0:
121,77,71407,38,0,L|117:137,1,59.4999981842042,6|0,1:2|0:0,0:0:0:0:
140,69,71641,2,0,L|136:129,1,59.4999981842042,6|0,1:2|0:0,0:0:0:0:
159,61,71875,2,0,L|155:121,1,59.4999981842042,6|0,1:2|0:0,0:0:0:0:
178,53,72110,2,0,L|174:113,1,59.4999981842042,6|0,1:2|3:0,0:0:0:0:
197,45,72344,2,0,L|193:105,1,59.4999981842042,6|0,1:2|0:0,0:0:0:0:
186,244,72500,1,0,3:0:0:0:
421,80,72657,38,0,B|438:114|438:114|403:182|403:182|421:216,1,152.999995330811,6|0,3:1|0:0,0:0:0:0:
437,230,72969,1,0,1:0:0:0:
319,263,73125,5,0,3:0:0:0:
319,263,73203,2,0,L|268:259,1,50.9999984436036,0|0,3:0|0:0,0:0:0:0:
237,242,73438,2,0,L|186:245,1,50.9999984436036,0|0,3:0|0:0,0:0:0:0:
135,363,73594,5,0,1:0:0:0:
31,263,73750,2,0,B|34:207|34:207|31:199|31:199|34:145,1,118.999996368408,2|0,0:2|0:0,0:0:0:0:
291,179,74063,6,0,B|294:159|294:159|290:150|290:150|293:129,1,50.9999984436036,0|0,3:0|0:0,0:0:0:0:
192,95,74219,2,0,B|182:157|182:157|194:184|194:184|185:244,1,152.999995330811,0|0,1:0|0:0,0:0:0:0:
180,257,74532,38,0,L|230:254,1,50.9999984436036,0|0,3:0|0:0,0:0:0:0:
228,350,74688,2,0,L|278:347,1,50.9999984436036,2|0,3:2|0:0,0:0:0:0:
381,247,74844,5,2,1:2:0:0:
429,340,75000,1,2,0:2:0:0:
488,189,75157,5,2,3:3:0:0:
292,188,75313,1,2,0:2:0:0:
486,89,75469,1,2,1:2:0:0:
380,246,75625,2,0,B|382:220|382:220|378:195,1,50.9999984436036,2|0,3:2|3:0,0:0:0:0:
313,110,75782,5,2,0:2:0:0:
223,249,75938,1,2,3:2:0:0:
130,113,76094,2,0,P|170:84|219:93,1,101.999996887207,2|2,1:2|0:2,1:2:0:0:
87,192,76407,5,2,0:2:0:0:
87,192,76563,1,2,3:2:0:0:
234,103,76719,1,2,1:2:0:0:
196,263,76875,1,2,0:2:0:0:
111,109,77032,53,2,3:2:0:0:
263,175,77188,1,2,3:2:0:0:
90,104,77344,1,2,1:2:0:0:
310,85,77500,1,2,0:2:0:0:
87,192,77657,70,0,L|83:294,1,101.999996887207,6|0,1:1|3:0,0:0:0:0:
82,371,77891,1,0,3:0:0:0:
82,371,77969,1,0,3:0:0:0:
173,200,78125,70,0,L|169:297,1,97.7500018644333,4|0,1:2|3:0,0:0:0:0:
168,374,78360,1,0,3:0:0:0:
168,374,78438,1,0,3:0:0:0:
259,206,78594,38,0,L|255:299,1,93.5000028533936,4|0,1:2|3:0,0:0:0:0:
254,376,78828,1,0,3:0:0:0:
254,376,78906,1,0,3:0:0:0:
346,213,79063,70,0,L|342:302,1,89.2499972763062,4|0,1:2|3:0,0:0:0:0:
341,379,79297,1,0,3:0:0:0:
341,379,79375,1,0,3:0:0:0:
432,221,79532,38,0,L|428:305,1,85,4|0,1:2|3:0,0:0:0:0:
427,382,79766,1,0,3:0:0:0:
427,382,79844,1,0,3:0:0:0:
330,205,80000,38,0,B|326:227|326:227|345:212,1,46.7500014266968,4|0,1:2|0:0,0:0:0:0:
430,94,80157,37,6,1:3:0:0:
328,104,80313,1,0,1:0:0:0:
226,114,80469,2,0,L|228:12,1,101.999996887207,0|0,1:0|3:0,0:0:0:0:
126,185,80782,5,2,1:2:0:0:
228,195,80938,1,0,1:0:0:0:
330,205,81094,2,0,L|327:103,1,101.999996887207,0|0,3:0|1:0,0:0:0:0:
177,331,81407,38,0,L|117:332,1,59.4999981842042,6|0,1:2|0:0,0:0:0:0:
183,311,81641,2,0,L|123:312,1,59.4999981842042,6|0,1:2|0:0,0:0:0:0:
189,291,81875,2,0,L|129:292,1,59.4999981842042,6|0,1:2|0:0,0:0:0:0:
195,271,82110,2,0,L|135:272,1,59.4999981842042,6|0,1:2|3:0,0:0:0:0:
201,251,82344,2,0,L|141:252,1,59.4999981842042,4|0,1:2|0:0,0:0:0:0:
330,205,82500,1,0,3:0:0:0:
330,205,82578,1,0,3:0:0:0:
330,205,82657,54,0,P|255:201|201:252,1,152.999995330811,6|0,3:1|0:0,0:0:0:0:
208,271,82969,1,0,1:0:0:0:
40,324,83125,5,0,3:0:0:0:
40,324,83203,2,0,L|36:273,1,50.9999984436036,0|0,3:0|0:0,0:0:0:0:
63,249,83438,2,0,L|66:198,1,50.9999984436036,0|0,3:0|0:0,0:0:0:0:
113,80,83594,6,0,B|101:92|101:92|17:97|17:97|4:83,2,118.999996368408,2|2|0,1:1|0:1|0:0,0:0:0:0:
249,22,84063,38,0,L|246:72,1,50.9999984436036,0|0,3:0|0:0,0:0:0:0:
317,193,84219,2,0,B|359:150|359:150|333:60,1,152.999995330811,0|0,1:0|0:0,0:0:0:0:
329,46,84532,6,0,L|379:43,1,50.9999984436036,0|0,3:0|0:0,0:0:0:0:
469,177,84688,5,2,3:1:0:0:
317,193,84844,1,2,1:1:0:0:
165,209,85000,1,2,0:1:0:0:
427,311,85157,6,0,B|340:297|365:355|281:339,1,152.999995330811,2|0,3:3|0:0,0:0:0:0:
273,321,85469,1,0,1:0:0:0:
146,373,85625,5,0,3:0:0:0:
146,373,85703,2,0,L|95:369,1,50.9999984436036,0|0,3:0|0:0,0:0:0:0:
69,345,85938,2,0,L|65:294,1,50.9999984436036,0|0,3:0|0:0,0:0:0:0:
142,168,86094,54,0,L|149:286,2,118.999996368408,2|2|0,1:1|0:1|0:0,0:0:0:0:
86,70,86563,70,0,P|58:63|38:46,1,50.9999984436036,0|0,3:0|0:0,0:0:0:0:
189,65,86719,2,0,P|232:37|282:32,1,101.999996887207,0|0,1:0|0:0,0:0:0:0:
244,178,87032,37,2,3:1:0:0:
142,168,87188,1,2,3:1:0:0:
244,178,87344,1,2,1:1:0:0:
142,168,87500,1,0,0:0:0:0:
425,192,87657,6,0,L|429:294,1,101.999996887207,6|0,1:1|3:0,0:0:0:0:
430,371,87891,1,0,3:0:0:0:
430,371,87969,1,0,3:0:0:0:
339,200,88125,54,0,L|343:297,1,97.7500018644333,6|0,1:2|3:0,0:0:0:0:
344,374,88360,1,0,3:0:0:0:
344,374,88438,1,0,3:0:0:0:
253,206,88594,70,0,L|257:299,1,93.5000028533936,6|0,1:2|3:0,0:0:0:0:
258,376,88828,1,0,3:0:0:0:
258,376,88906,1,0,3:0:0:0:
166,213,89063,38,0,L|170:302,1,89.2499972763062,6|0,1:2|3:0,0:0:0:0:
171,379,89297,1,0,3:0:0:0:
171,379,89375,1,0,3:0:0:0:
80,221,89532,70,0,L|84:305,1,85,6|0,1:2|3:0,0:0:0:0:
85,382,89766,1,0,3:0:0:0:
85,382,89844,1,0,3:0:0:0:
166,213,90000,38,0,B|170:188|170:188|156:171,1,46.7500014266968,6|0,1:2|0:0,0:0:0:0:
44,100,90157,37,6,1:3:0:0:
145,91,90313,1,2,1:1:0:0:
246,82,90469,2,0,L|247:31,1,50.9999984436036,2|0,1:1|0:0,0:0:0:0:
347,73,90625,2,0,L|348:22,1,50.9999984436036,0|0,3:0|0:0,0:0:0:0:
449,168,90782,53,2,1:1:0:0:
348,159,90938,1,2,1:1:0:0:
247,150,91094,2,0,L|245:99,1,50.9999984436036,2|0,3:1|0:0,0:0:0:0:
146,141,91250,2,0,L|144:90,1,50.9999984436036,0|0,1:0|0:0,0:0:0:0:
86,235,91407,38,0,B|80:264|80:264|106:249,1,59.4999981842042,6|0,1:2|0:0,0:0:0:0:
153,117,91641,2,0,B|123:120|123:120|145:140,1,59.4999981842042,6|0,1:2|0:0,0:0:0:0:
285,144,91875,2,0,B|272:117|272:117|260:144,1,59.4999981842042,6|0,1:2|0:0,0:0:0:0:
300,278,92110,2,0,B|321:258|321:258|292:254,1,59.4999981842042,6|0,1:2|3:0,0:0:0:0:
177,334,92344,2,0,B|202:348|202:348|197:319,1,59.4999981842042,6|0,1:2|0:0,0:0:0:0:
106,249,92500,1,0,3:0:0:0:
300,278,92657,86,0,P|375:281|436:238,1,152.999995330811,6|0,3:1|0:0,0:0:0:0:
427,221,92969,1,0,1:0:0:0:
489,68,93125,37,0,3:0:0:0:
489,68,93203,2,0,L|438:71,1,50.9999984436036,0|0,3:0|0:0,0:0:0:0:
407,90,93438,2,0,L|356:86,1,50.9999984436036,0|0,3:0|0:0,0:0:0:0:
245,66,93594,5,0,1:0:0:0:
184,200,93750,2,0,B|174:266|204:251|195:316,1,118.999996368408,2|0,0:1|0:0,0:0:0:0:
33,314,94063,6,0,B|19:292|19:292|44:294,1,50.9999984436036,0|0,3:0|0:0,0:0:0:0:
93,216,94219,2,0,P|89:139|87:63,1,152.999995330811,0|0,1:0|0:0,0:0:0:0:
89,48,94532,2,0,L|38:54,1,50.9999984436036,0|0,3:0|0:0,0:0:0:0:
211,52,94688,5,2,3:1:0:0:
203,184,94844,1,2,1:1:0:0:
195,316,95000,1,2,0:1:0:0:
320,133,95157,6,0,P|389:138|391:208,1,152.999995330811,2|0,3:3|0:0,0:0:0:0:
384,222,95469,1,0,1:0:0:0:
195,316,95625,5,0,3:0:0:0:
195,316,95703,2,0,L|144:312,1,50.9999984436036,0|2,3:0|0:1,0:0:0:0:
113,295,95938,2,0,L|62:298,1,50.9999984436036,0|0,3:0|0:0,0:0:0:0:
92,175,96094,38,0,B|122:185|122:185|170:168|170:168|202:185,2,118.999996368408,0|0|2,1:0|0:0|0:1,0:0:0:0:
349,108,96563,6,0,P|361:130|364:155,1,50.9999984436036,0|0,3:0|0:0,0:0:0:0:
278,210,96719,2,0,P|253:165|248:115,1,101.999996887207,0|0,1:0|0:0,0:0:0:0:
356,302,97032,5,2,3:1:0:0:
256,325,97188,1,0,3:0:0:0:
356,302,97344,1,0,1:0:0:0:
256,325,97500,1,0,0:0:0:0:
425,192,97657,38,0,L|429:90,1,101.999996887207,6|0,1:1|3:0,0:0:0:0:
430,13,97891,1,0,3:0:0:0:
430,13,97969,1,0,3:0:0:0:
339,184,98125,70,0,L|343:87,1,97.7500018644333,6|2,1:2|3:1,0:0:0:0:
344,10,98360,1,0,3:0:0:0:
344,10,98438,1,0,3:0:0:0:
253,178,98594,38,0,L|257:85,1,93.5000028533936,4|2,1:2|3:1,0:0:0:0:
258,8,98828,1,0,3:0:0:0:
258,8,98906,1,2,3:1:0:0:
166,171,99063,70,0,L|170:82,1,89.2499972763062,4|0,1:2|3:0,0:0:0:0:
171,5,99297,1,0,3:0:0:0:
171,5,99375,1,2,3:1:0:0:
80,163,99532,38,0,L|84:79,1,85,6|0,1:2|3:0,0:0:0:0:
85,2,99766,1,0,3:0:0:0:
85,2,99844,1,0,3:0:0:0:
166,171,100000,38,0,B|175:189|175:189|166:213,1,46.7500014266968,6|0,1:2|0:0,0:0:0:0:
48,295,100157,5,6,1:3:0:0:
149,304,100313,1,0,1:0:0:0:
250,313,100469,2,0,L|251:364,1,50.9999984436036,0|0,1:0|0:0,0:0:0:0:
351,322,100625,2,0,L|352:373,1,50.9999984436036,0|0,3:0|0:0,0:0:0:0:
453,226,100782,5,0,1:0:0:0:
352,235,100938,1,0,1:0:0:0:
251,244,101094,2,0,L|249:295,1,50.9999984436036,0|0,3:0|0:0,0:0:0:0:
150,253,101250,2,0,L|148:304,1,50.9999984436036,0|0,1:0|0:0,0:0:0:0:
184,43,101407,70,0,B|208:59|208:59|209:89,1,59.4999981842042,6|0,1:2|0:0,0:0:0:0:
68,160,101641,2,0,B|90:142|90:142|120:149,1,59.4999981842042,4|0,1:2|0:0,0:0:0:0:
143,305,101875,2,0,B|132:277|132:277|149:252,1,59.4999981842042,4|0,1:2|0:0,0:0:0:0:
305,280,102110,2,0,B|276:281|276:281|256:257,1,59.4999981842042,4|0,1:2|3:0,0:0:0:0:
330,117,102344,2,0,B|322:144|322:144|293:155,1,59.4999981842042,4|0,1:2|0:0,0:0:0:0:
68,160,102500,1,0,3:0:0:0:
68,160,102578,1,0,3:0:0:0:
68,160,102657,6,0,B|144:153|115:188|191:182,1,127.500004863739,6|0,3:1|0:0,0:0:0:0:
190,182,102969,1,0,1:0:0:0:
152,339,103125,2,0,L|67:342,1,85
236,335,103438,2,0,L|151:338,1,85,0|0,3:0|1:0,0:0:0:0:
190,182,103750,5,0,0:0:0:0:
190,182,103828,1,0,0:0:0:0:
190,182,103907,1,0,3:0:0:0:
152,339,104063,6,0,L|67:342,1,85,0|0,3:0|1:0,0:0:0:0:
236,335,104376,2,0,L|151:338,1,85
320,331,104688,1,0,3:0:0:0:
320,331,104844,2,0,L|235:334,1,85,0|0,1:0|3:0,0:0:0:0:
368,192,105157,102,0,B|415:186|415:186|442:194|442:194|493:188,1,127.500004863739,0|0,3:0|0:0,0:0:0:0:
493,188,105469,1,0,1:0:0:0:
406,35,105625,6,0,L|490:31,1,85
322,39,105938,2,0,L|406:35,1,85,0|0,3:0|1:0,0:0:0:0:
368,192,106250,5,0,0:0:0:0:
368,192,106328,1,0,0:0:0:0:
368,192,106407,1,0,3:0:0:0:
406,35,106563,86,0,L|490:31,1,85,0|0,3:0|1:0,0:0:0:0:
322,39,106876,2,0,L|406:35,1,85
238,43,107188,1,0,3:0:0:0:
238,43,107344,2,0,L|322:39,1,85,0|0,1:0|3:0,0:0:0:0:
87,292,107657,5,6,1:3:0:0:
79,102,107813,1,0,3:0:0:0:
87,292,107969,1,0,3:0:0:0:
79,102,108125,6,0,L|74:6,1,95.2000011621094,4|0,1:2|0:0,0:0:0:0:
83,197,108438,2,0,L|78:101,1,95.2000011621094,4|0,1:2|0:0,0:0:0:0:
87,292,108750,5,0,3:0:0:0:
87,292,108828,1,0,3:0:0:0:
87,292,108907,1,0,3:0:0:0:
79,102,109063,6,0,L|74:6,1,95.2000011621094,4|0,1:2|3:0,0:0:0:0:
83,197,109376,2,0,L|78:101,1,95.2000011621094,0|0,1:0|0:0,0:0:0:0:
87,292,109688,1,0,1:0:0:0:
87,292,109844,2,0,L|82:196,1,95.2000011621094,0|0,3:0|3:0,0:0:0:0:
310,324,110157,53,6,1:3:0:0:
318,134,110313,1,0,3:0:0:0:
310,324,110469,1,0,3:0:0:0:
318,134,110625,6,0,L|322:38,1,95.2000011621094,4|0,1:2|0:0,0:0:0:0:
314,229,110938,2,0,L|318:133,1,95.2000011621094,4|0,1:2|0:0,0:0:0:0:
310,324,111250,21,0,3:0:0:0:
310,324,111328,1,0,3:0:0:0:
310,324,111407,1,0,3:0:0:0:
318,134,111563,6,0,L|322:38,1,95.2000011621094,4|0,1:2|0:0,0:0:0:0:
314,229,111876,2,0,L|318:133,1,95.2000011621094,0|0,1:0|0:0,0:0:0:0:
310,324,112188,1,0,1:0:0:0:
310,324,112344,2,0,L|314:228,1,95.2000011621094,0|0,3:0|3:0,0:0:0:0:
195,105,112657,21,6,3:3:0:0:
