osu file format v14

[General]
AudioFilename: audio.mp3
AudioLeadIn: 0
PreviewTime: 62578
Countdown: 0
SampleSet: Soft
StackLeniency: 0.4
Mode: 0
LetterboxInBreaks: 0
EpilepsyWarning: 1
WidescreenStoryboard: 1

[Editor]
DistanceSpacing: 1.2
BeatDivisor: 4
GridSize: 16
TimelineZoom: 2.1

[Metadata]
Title:Aqua Stars
TitleUnicode:Aqua Stars
Artist:Sound Souler
ArtistUnicode:Sound Souler
Creator:Affirmation
Version:Hard
Source:OverRapid
Tags:artcore muse dash instrumental electronic
BeatmapID:2270071
BeatmapSetID:1085144

[Difficulty]
HPDrainRate:5
CircleSize:3.8
OverallDifficulty:6
ApproachRate:7.8
SliderMultiplier:1.4
SliderTickRate:1

[Events]
//Background and Video events
0,0,"BG.jpg",0,0
//Break Periods
2,12857,16878
2,60357,61878
//Storyboard Layer 0 (Background)
//Storyboard Layer 1 (Fail)
//Storyboard Layer 2 (Pass)
//Storyboard Layer 3 (Foreground)
//Storyboard Layer 4 (Overlay)
//Storyboard Sound Samples

[TimingPoints]
2657,312.5,4,2,1,60,1,0
10157,-125,4,2,1,40,0,0
12657,-125,4,2,2,40,0,0
17657,-90.9090909090909,4,2,1,70,0,0
27657,-111.111111111111,4,2,1,50,0,0
37657,-111.111111111111,4,2,2,50,0,0
41407,-111.111111111111,4,2,2,5,0,0
42657,-142.857142857143,4,2,3,45,0,0
43594,-142.857142857143,4,2,1,45,0,0
47657,-142.857142857143,4,2,2,45,0,0
50157,-142.857142857143,4,2,1,45,0,0
52657,-142.857142857143,4,2,2,45,0,0
53594,-142.857142857143,4,2,1,45,0,0
57657,-142.857142857143,4,2,2,45,0,0
57813,-142.857142857143,4,2,1,45,0,0
58125,-142.857142857143,4,2,2,45,0,0
58282,-142.857142857143,4,2,1,45,0,0
58594,-142.857142857143,4,2,2,45,0,0
58750,-142.857142857143,4,2,1,45,0,0
59063,-142.857142857143,4,2,2,45,0,0
59219,-142.857142857143,4,2,1,45,0,0
59532,-142.857142857143,4,2,2,45,0,0
59688,-142.857142857143,4,2,1,45,0,0
59844,-142.857142857143,4,2,2,45,0,0
60000,-142.857142857143,4,2,1,45,0,0
60157,-142.857142857143,4,2,2,35,0,0
62657,-83.3333333333333,4,2,4,70,0,0
62969,-83.3333333333333,4,2,1,70,0,0
65157,-83.3333333333333,4,2,2,70,0,0
66094,-83.3333333333333,4,2,1,70,0,0
67657,-83.3333333333333,4,2,5,70,0,0
68125,-83.3333333333333,4,2,2,70,0,0
70313,-83.3333333333333,4,2,1,70,0,0
72657,-83.3333333333333,4,2,5,70,0,0
73750,-83.3333333333333,4,2,1,70,0,0
75157,-83.3333333333333,4,2,2,70,0,0
75313,-83.3333333333333,4,2,1,70,0,0
77657,-83.3333333333333,4,2,5,70,0,0
78125,-83.3333333333333,4,2,2,70,0,0
80782,-83.3333333333333,4,2,1,70,0,0
82657,-83.3333333333333,4,2,4,80,0,0
82969,-83.3333333333333,4,2,6,80,0,0
85157,-83.3333333333333,4,2,1,80,0,0
86094,-83.3333333333333,4,2,6,80,0,0
87657,-83.3333333333333,4,2,7,80,0,0
88125,-83.3333333333333,4,2,2,80,0,0
90157,-83.3333333333333,4,2,1,80,0,0
90313,-83.3333333333333,4,2,6,80,0,0
91407,-83.3333333333333,4,2,2,80,0,0
92657,-83.3333333333333,4,2,7,80,0,0
93750,-83.3333333333333,4,2,6,80,0,0
95157,-83.3333333333333,4,2,1,80,0,0
95782,-83.3333333333333,4,2,6,80,0,0
97657,-83.3333333333333,4,2,7,80,0,0
98125,-83.3333333333333,4,2,2,80,0,0
98282,-83.3333333333333,4,2,6,80,0,0
98594,-83.3333333333333,4,2,1,80,0,0
98750,-83.3333333333333,4,2,6,80,0,0
99063,-83.3333333333333,4,2,1,80,0,0
99375,-83.3333333333333,4,2,6,80,0,0
99532,-83.3333333333333,4,2,2,80,0,0
100157,-83.3333333333333,4,2,1,80,0,0
101407,-83.3333333333333,4,2,2,80,0,0
102657,-100,4,2,1,60,0,0
107657,-100,4,2,3,65,0,0
108125,-100,4,2,1,65,0,0
110157,-100,4,2,3,65,0,0
110625,-100,4,2,1,65,0,0
112657,-100,4,2,3,65,0,0

[Colours]
Combo1 : 86,212,255
Combo2 : 96,124,255
Combo3 : 72,25,255
Combo4 : 247,255,147
Combo5 : 222,184,255
Combo6 : 255,124,157
Combo7 : 163,163,163
Combo8 : 91,91,91
SliderBorder : 192,255,216
SliderTrackOverride : 0,32,64

[HitObjects]
159,216,2657,118,0,L|154:146,1,70,4|0,1:2|3:0,0:0:0:0:
154,146,2969,1,0,3:0:0:0:
77,178,3125,5,0,1:0:0:0:
262,161,3438,1,0,1:0:0:0:
105,71,3750,21,0,3:0:0:0:
105,71,3828,1,0,3:0:0:0:
105,71,3907,1,0,3:0:0:0:
77,178,4063,5,0,1:0:0:0:
262,161,4376,1,0,1:0:0:0:
447,144,4688,1,0,1:0:0:0:
447,144,4844,2,0,L|442:213,1,70,0|0,3:0|3:0,0:0:0:0:
388,358,5157,54,0,L|392:288,1,70,0|0,1:0|3:0,0:0:0:0:
392,288,5469,1,0,3:0:0:0:
470,320,5625,21,0,1:0:0:0:
285,303,5938,1,0,1:0:0:0:
442,213,6250,5,0,3:0:0:0:
442,213,6328,1,0,3:0:0:0:
442,213,6407,1,0,3:0:0:0:
470,320,6563,5,0,1:0:0:0:
285,303,6876,1,0,1:0:0:0:
100,286,7188,1,0,1:0:0:0:
100,286,7344,1,0,3:0:0:0:
131,33,7657,54,0,L|126:102,1,70,4|0,1:2|3:0,0:0:0:0:
127,103,7969,1,0,3:0:0:0:
49,71,8125,21,0,1:0:0:0:
234,88,8438,1,0,1:0:0:0:
77,178,8750,5,0,3:0:0:0:
77,178,8828,1,0,3:0:0:0:
77,178,8907,1,0,3:0:0:0:
49,71,9063,5,0,1:0:0:0:
234,88,9376,1,0,1:0:0:0:
419,105,9688,1,0,1:0:0:0:
419,105,9844,2,0,L|414:174,1,70,0|0,3:0|3:0,0:0:0:0:
288,303,10157,21,6,3:3:0:0:
287,302,10782,6,0,P|322:315|347:343,2,74.6666666666667,2|2|2,0:2|0:2|0:2,0:0:0:0:
245,222,11407,2,0,P|273:198|309:190,2,74.6666666666667,2|2|2,0:2|0:2|0:2,0:0:0:0:
154,220,12032,2,0,P|147:183|159:148,2,74.6666666666667,2|2|2,0:2|0:2|0:2,0:0:0:0:
197,299,12657,101,2,0:3:0:0:
103,217,17657,22,0,B|192:201|159:256|251:235,1,154.000004699707,6|0,3:1|1:0,0:0:0:0:
322,177,18125,1,0,3:0:0:0:
322,177,18203,1,0,3:0:0:0:
443,243,18438,2,0,P|398:300|326:287,1,154.000004699707,0|0,1:0|3:0,0:0:0:0:
250,235,18907,5,0,3:0:0:0:
250,235,19219,2,0,P|243:292|239:349,2,115.50000352478,0|0|0,1:0|3:0|1:0,0:0:0:0:
322,177,19844,2,0,P|318:138|313:100,1,77.0000023498536,0|0,0:0|3:0,0:0:0:0:
249,33,20157,6,0,B|157:12|190:67|101:51,1,154.000004699707,2|0,3:3|1:0,0:0:0:0:
26,105,20625,1,0,3:0:0:0:
26,105,20703,1,0,3:0:0:0:
151,165,20938,2,0,P|165:237|110:287,1,154.000004699707,0|0,1:0|3:0,0:0:0:0:
25,250,21407,21,0,3:0:0:0:
25,250,21719,2,0,P|20:192|12:135,2,115.50000352478,0|0|0,1:0|3:0|3:0,0:0:0:0:
110,287,22344,2,0,P|105:325|101:363,1,77.0000023498536,0|0,1:0|3:0,0:0:0:0:
194,365,22657,54,0,P|269:352|345:338,1,154.000004699707,6|0,3:3|1:0,0:0:0:0:
415,278,23125,1,0,3:0:0:0:
415,278,23203,1,0,3:0:0:0:
283,231,23438,2,0,P|246:165|271:95,1,154.000004699707,0|0,1:0|3:0,0:0:0:0:
342,35,23907,5,0,3:0:0:0:
342,35,24219,2,0,P|399:45|457:49,2,115.50000352478,0|0|0,1:0|3:0|1:0,0:0:0:0:
271,95,24844,2,0,P|232:99|194:106,1,77.0000023498536,0|0,0:0|3:0,0:0:0:0:
158,191,25157,6,0,P|233:204|309:218,1,154.000004699707,2|0,3:3|1:0,0:0:0:0:
387,168,25625,1,0,3:0:0:0:
387,168,25703,1,0,3:0:0:0:
424,301,25938,2,0,P|348:314|272:328,1,154.000004699707,0|0,1:0|3:0,0:0:0:0:
185,294,26407,21,0,3:0:0:0:
185,294,26719,2,0,P|130:285|87:321,2,115.50000352478,0|0|0,1:0|3:0|3:0,0:0:0:0:
272,328,27344,2,0,P|279:290|283:251,1,77.0000023498536,0|0,1:0|3:0,0:0:0:0:
259,173,27657,102,0,L|447:183,1,188.999994232178,6|0,3:1|3:0,0:0:0:0:
466,103,28282,2,0,L|340:96,1,125.999996154785,0|0,1:0|3:0,0:0:0:0:
178,124,28907,5,0,3:0:0:0:
189,43,29063,2,0,L|63:49,1,125.999996154785,0|0,1:0|3:0,0:0:0:0:
52,130,29532,2,0,L|177:123,1,125.999996154785,0|0,1:0|3:0,0:0:0:0:
264,262,30157,102,0,L|75:251,1,188.999994232178,2|0,3:3|3:0,0:0:0:0:
57,332,30782,2,0,L|182:338,1,125.999996154785,0|0,1:0|3:0,0:0:0:0:
345,320,31407,6,0,L|341:382,2,62.9999980773926,0|0|0,3:0|1:0|0:0,0:0:0:0:
415,171,32032,2,0,L|409:76,2,94.499997116089,0|0|0,1:0|1:0|1:0,0:0:0:0:
333,161,32657,6,0,L|329:98,2,62.9999980773926,6|0|0,3:3|3:0|3:0,0:0:0:0:
200,257,33282,2,0,L|75:251,1,125.999996154785,0|0,1:0|3:0,0:0:0:0:
139,74,33907,101,0,3:0:0:0:
150,155,34063,2,0,L|24:148,1,125.999996154785,0|0,1:0|3:0,0:0:0:0:
14,68,34532,2,0,L|139:74,1,125.999996154785,0|0,1:0|3:0,0:0:0:0:
150,155,35000,1,0,1:0:0:0:
204,216,35157,102,0,L|266:212,2,62.9999980773926,2|0|0,3:3|3:0|3:0,0:0:0:0:
62,298,35782,2,0,L|0:294,2,62.9999980773926,0|0|0,3:0|3:0|3:0,0:0:0:0:
211,364,36407,6,0,L|273:360,1,62.9999980773926,0|0,1:0|3:0,0:0:0:0:
315,356,36641,1,0,3:0:0:0:
315,356,36719,2,0,P|318:324|315:293,1,62.9999980773926,0|0,3:0|1:0,0:0:0:0:
305,211,37032,2,0,L|399:216,2,94.499997116089,0|0|0,1:0|1:0|1:0,0:0:0:0:
240,160,37657,37,6,3:1:0:0:
256,192,37735,12,0,41407,0:0:0:0:
381,137,42657,102,0,P|478:198|365:222,1,293.999991027832,6|2,0:1|0:2,0:0:0:0:
290,173,43750,2,0,P|196:176|147:255,1,195.999994018555,2|0,0:2|0:0,0:0:0:0:
294,352,44688,2,0,L|245:356,2,48.9999985046387,2|2|2,0:2|0:2|0:2,0:0:0:0:
381,368,45157,6,0,B|364:286|364:286|462:205|462:205|446:123,1,293.999991027832,2|2,0:2|0:2,0:0:0:0:
363,92,46250,2,0,B|308:102|308:102|254:37|254:37|200:48,1,195.999994018555,2|2,0:2|0:2,0:0:0:0:
129,104,47032,2,0,L|80:98,2,48.9999985046387,2|2|2,0:2|0:2|0:2,0:0:0:0:
194,163,47500,1,0,0:0:0:0:
137,231,47657,102,0,B|76:268|74:379|214:431|285:313|230:246|230:246|183:189|219:82|369:81|395:217|321:262,1,685.999979064942,2|0,0:3|0:0,0:0:0:0:
321,261,50157,6,0,P|326:309|313:356,1,97.9999970092774,2|2,0:2|0:2,0:0:0:0:
401,353,50625,2,0,P|425:310|433:262,1,97.9999970092774,2|2,0:2|0:2,0:0:0:0:
362,100,51250,101,2,0:2:0:0:
361,100,51407,2,0,P|410:93|459:87,1,97.9999970092774,2|2,0:2|0:2,0:0:0:0:
432,262,52032,2,0,P|383:268|334:274,1,97.9999970092774,2|2,0:2|0:2,0:0:0:0:
180,360,52657,6,0,B|110:380|55:369|55:369|71:333|64:284|64:284|109:293|144:281,1,293.999991027832,2|2,0:3|0:2,0:0:0:0:
207,220,53750,2,0,B|242:155|248:25|123:60|150:144|192:144,1,244.999992523194,2|0,0:2|0:0,0:0:0:0:
348,227,54844,1,2,0:2:0:0:
473,101,55157,102,0,P|511:161|486:227,2,146.999995513916,2|2|2,0:2|0:2|0:2,0:0:0:0:
396,59,56250,1,2,0:2:0:0:
396,59,56407,2,0,L|298:66,1,97.9999970092774,2|2,0:2|0:2,0:0:0:0:
162,179,57032,2,0,L|259:186,1,97.9999970092774,2|2,0:2|0:2,0:0:0:0:
382,313,57657,6,0,L|430:322,2,48.9999985046387,2|2|2,0:3|0:2|0:2,0:0:0:0:
296,291,58125,2,0,L|344:281,2,48.9999985046387,2|2|2,0:3|0:2|0:2,0:0:0:0:
210,313,58594,2,0,L|258:322,2,48.9999985046387,2|2|2,0:3|0:2|0:2,0:0:0:0:
124,291,59063,2,0,L|172:281,2,48.9999985046387,2|2|2,0:3|0:2|0:2,0:0:0:0:
42,255,59532,102,0,L|32:206,1,48.9999985046387,2|2,0:3|0:2,0:0:0:0:
117,184,59844,2,0,L|126:135,1,48.9999985046387,2|2,0:3|0:2,0:0:0:0:
46,97,60157,5,2,0:3:0:0:
164,316,62657,6,0,P|211:252|289:266,1,167.999994873047,6|0,3:1|1:0,0:0:0:0:
372,323,63125,2,0,L|367:364,2,41.9999987182618,0|0|0,3:0|3:0|0:0,0:0:0:0:
457,269,63438,1,0,3:0:0:0:
370,214,63594,2,0,P|362:174|368:132,1,83.9999974365235,2|2,1:2|0:2,0:0:0:0:
432,54,63907,5,0,0:0:0:0:
432,54,64063,1,0,3:0:0:0:
320,10,64219,1,0,1:0:0:0:
100,93,64532,5,0,3:0:0:0:
100,93,64688,1,2,3:2:0:0:
189,139,64844,2,0,P|200:98|193:57,1,83.9999974365235,2|2,1:2|0:2,0:0:0:0:
38,163,65157,6,0,P|44:246|50:330,1,167.999994873047,2|0,3:3|1:0,0:0:0:0:
133,272,65625,2,0,P|134:251|136:230,2,41.9999987182618,0|0|0,3:0|3:0|0:0,0:0:0:0:
200,347,65938,1,0,3:0:0:0:
262,268,66094,2,0,P|303:276|334:304,1,83.9999974365235,2|2,1:2|0:2,0:0:0:0:
417,361,66407,5,0,0:0:0:0:
417,361,66563,1,0,3:0:0:0:
498,276,66719,1,0,1:0:0:0:
424,36,67032,53,2,3:2:0:0:
424,36,67188,1,2,3:2:0:0:
472,123,67344,2,0,L|388:125,1,83.9999974365235,2|2,1:2|0:2,0:0:0:0:
278,171,67657,21,6,1:1:0:0:
238,79,67813,2,0,L|240:37,2,41.9999987182618,0|0|0,3:0|3:0|3:0,0:0:0:0:
256,182,68126,37,4,1:2:0:0:
216,90,68282,2,0,L|218:48,2,41.9999987182618,0|0|0,3:0|3:0|3:0,0:0:0:0:
234,193,68594,69,4,1:2:0:0:
194,101,68750,2,0,L|196:59,2,41.9999987182618,0|0|0,3:0|3:0|3:0,0:0:0:0:
212,204,69064,37,4,1:2:0:0:
172,112,69220,2,0,L|174:70,2,41.9999987182618,0|0|0,3:0|3:0|3:0,0:0:0:0:
190,215,69532,69,4,1:2:0:0:
150,123,69688,2,0,L|152:81,2,41.9999987182618,0|0|0,3:0|3:0|3:0,0:0:0:0:
168,226,70000,38,0,L|165:267,1,41.9999987182618,4|0,1:2|0:0,0:0:0:0:
157,318,70157,86,0,L|240:312,1,83.9999974365235,6|2,1:3|1:2,0:0:0:0:
340,301,70469,1,2,1:2:0:0:
340,301,70625,1,2,3:2:0:0:
168,226,70782,6,0,L|251:220,1,83.9999974365235,2|2,1:2|1:2,0:0:0:0:
351,209,71094,1,2,3:2:0:0:
351,209,71250,1,2,1:2:0:0:
380,112,71407,38,0,P|342:64|281:65,1,125.999996154785,6|6,1:2|1:2,0:0:0:0:
155,149,71875,2,0,P|192:196|253:195,2,125.999996154785,6|6|6,1:2|1:2|1:2,0:0:0:0:
86,74,72500,1,0,3:0:0:0:
38,163,72657,38,0,P|44:246|50:330,1,167.999994873047,6|0,3:1|1:0,0:0:0:0:
150,314,73125,2,0,P|149:293|150:272,2,41.9999987182618,0|0|0,3:0|3:0|0:0,0:0:0:0:
227,379,73438,1,0,3:0:0:0:
293,303,73594,2,0,P|302:262|291:221,1,83.9999974365235,0|2,1:0|0:2,0:0:0:0:
229,142,73907,5,0,0:0:0:0:
229,142,74063,1,0,3:0:0:0:
343,114,74219,1,0,1:0:0:0:
159,9,74532,5,0,3:0:0:0:
159,9,74688,1,2,3:2:0:0:
101,91,74844,2,0,L|17:86,1,83.9999974365235,2|2,1:2|0:2,0:0:0:0:
151,187,75157,6,0,L|67:182,1,83.9999974365235,2|2,3:3|0:2,0:0:0:0:
24,274,75469,1,2,1:2:0:0:
24,274,75625,1,2,3:2:0:0:
106,332,75782,38,0,L|189:327,1,83.9999974365235,2|2,0:2|3:2,0:0:0:0:
249,246,76094,1,2,1:2:0:0:
249,246,76250,1,2,0:2:0:0:
438,344,76407,6,0,P|444:303|438:262,1,83.9999974365235,2|2,0:2|3:2,0:0:0:0:
342,230,76719,2,0,P|334:272|341:313,1,83.9999974365235,2|2,1:2|0:2,0:0:0:0:
422,167,77032,5,2,3:2:0:0:
331,127,77188,1,2,3:2:0:0:
422,85,77344,2,0,P|430:125|422:166,1,83.9999974365235,2|2,1:2|0:2,0:0:0:0:
309,138,77657,37,6,1:1:0:0:
269,46,77813,2,0,L|271:4,2,41.9999987182618,0|0|0,3:0|3:0|3:0,0:0:0:0:
287,149,78126,69,4,1:2:0:0:
247,57,78282,2,0,L|249:15,2,41.9999987182618,0|0|0,3:0|3:0|3:0,0:0:0:0:
265,160,78594,37,4,1:2:0:0:
225,68,78750,2,0,L|227:26,2,41.9999987182618,0|0|0,3:0|3:0|3:0,0:0:0:0:
243,171,79064,69,4,1:2:0:0:
203,79,79220,2,0,L|205:37,2,41.9999987182618,0|0|0,3:0|3:0|3:0,0:0:0:0:
221,182,79532,37,4,1:2:0:0:
181,90,79688,2,0,L|183:48,2,41.9999987182618,0|0|0,3:0|3:0|3:0,0:0:0:0:
199,193,80000,70,0,L|196:234,1,41.9999987182618,4|0,1:2|0:0,0:0:0:0:
191,285,80157,6,0,L|274:279,1,83.9999974365235,6|0,1:3|1:0,0:0:0:0:
363,231,80469,1,0,1:0:0:0:
363,231,80625,1,0,3:0:0:0:
240,373,80782,6,0,L|323:367,1,83.9999974365235,2|0,1:2|1:0,0:0:0:0:
412,319,81094,1,0,3:0:0:0:
412,319,81250,1,0,1:0:0:0:
363,231,81407,38,0,P|345:171|366:112,1,125.999996154785,6|6,1:2|1:2,0:0:0:0:
242,26,81875,2,0,P|262:84|245:144,2,125.999996154785,6|6|4,1:2|1:2|1:2,0:0:0:0:
140,18,82500,1,0,3:0:0:0:
140,18,82578,1,0,3:0:0:0:
140,18,82657,38,0,P|112:96|135:175,1,167.999994873047,6|0,3:1|1:0,0:0:0:0:
208,259,83125,1,0,3:0:0:0:
208,259,83203,1,0,3:0:0:0:
208,259,83282,1,0,0:0:0:0:
281,191,83438,1,0,3:0:0:0:
367,243,83594,2,0,L|364:326,1,83.9999974365235,2|2,1:1|0:1,0:0:0:0:
451,378,83907,5,0,0:0:0:0:
451,378,84063,1,0,3:0:0:0:
512,278,84219,1,0,1:0:0:0:
396,111,84532,5,0,3:0:0:0:
484,63,84688,2,0,P|495:102|490:144,2,83.9999974365235,2|2|2,3:1|1:1|0:1,0:0:0:0:
394,15,85157,54,0,L|226:20,1,167.999994873047,2|0,3:3|1:0,0:0:0:0:
138,70,85625,1,0,3:0:0:0:
138,70,85703,1,0,3:0:0:0:
138,70,85782,1,0,0:0:0:0:
208,142,85938,1,0,3:0:0:0:
144,219,86094,2,0,L|60:216,1,83.9999974365235,2|2,1:1|0:1,0:0:0:0:
2,299,86407,5,0,0:0:0:0:
2,299,86563,1,0,3:0:0:0:
93,373,86719,1,0,1:0:0:0:
250,235,87032,22,0,L|252:318,1,83.9999974365235,2|2,3:1|3:1,0:0:0:0:
353,309,87344,2,0,L|350:225,1,83.9999974365235,2|0,1:1|0:0,0:0:0:0:
302,135,87657,101,6,1:1:0:0:
394,95,87813,2,0,L|435:97,2,41.9999987182618,0|0|0,3:0|3:0|3:0,0:0:0:0:
291,113,88125,37,6,1:2:0:0:
383,73,88282,2,0,L|424:75,2,41.9999987182618,0|0|0,3:0|3:0|3:0,0:0:0:0:
280,91,88594,69,6,1:2:0:0:
372,51,88750,2,0,L|413:53,2,41.9999987182618,0|0|0,3:0|3:0|3:0,0:0:0:0:
269,69,89064,37,6,1:2:0:0:
361,29,89220,2,0,L|402:31,2,41.9999987182618,0|0|0,3:0|3:0|3:0,0:0:0:0:
258,47,89532,69,6,1:2:0:0:
350,8,89688,2,0,L|391:10,2,41.9999987182618,0|0|0,3:0|3:0|3:0,0:0:0:0:
247,25,90000,38,0,L|205:22,1,41.9999987182618,6|0,1:2|0:0,0:0:0:0:
154,20,90157,38,0,L|159:103,1,83.9999974365235,6|2,1:3|1:1,0:0:0:0:
169,203,90469,1,2,1:1:0:0:
169,203,90625,1,0,3:0:0:0:
57,48,90781,6,0,L|63:132,1,83.9999974365235,2|2,1:1|1:1,0:0:0:0:
72,231,91093,1,2,3:1:0:0:
72,231,91250,1,0,1:0:0:0:
159,103,91407,86,0,L|157:145,1,41.9999987182618,6|0,1:2|0:0,0:0:0:0:
242,109,91641,2,0,L|239:150,1,41.9999987182618,6|0,1:2|0:0,0:0:0:0:
324,114,91875,2,0,L|321:155,1,41.9999987182618,6|0,1:2|0:0,0:0:0:0:
406,119,92110,2,0,L|403:160,1,41.9999987182618,6|0,1:2|3:0,0:0:0:0:
488,124,92344,2,0,L|485:165,1,41.9999987182618,6|0,1:2|0:0,0:0:0:0:
482,187,92500,1,0,3:0:0:0:
494,350,92657,6,0,P|436:294|355:306,1,167.999994873047,6|0,3:1|1:0,0:0:0:0:
273,364,93125,1,0,3:0:0:0:
273,364,93203,1,0,3:0:0:0:
273,364,93282,1,0,0:0:0:0:
192,304,93438,1,0,3:0:0:0:
101,349,93594,2,0,P|91:308|97:267,1,83.9999974365235,0|2,1:0|0:1,0:0:0:0:
153,182,93907,37,0,0:0:0:0:
153,182,94063,1,0,3:0:0:0:
40,151,94219,1,0,1:0:0:0:
223,50,94532,5,0,3:0:0:0:
314,92,94688,2,0,P|323:51|314:10,2,83.9999974365235,2|2|2,3:1|1:1|0:1,0:0:0:0:
257,176,95157,6,0,B|355:166|321:219|416:213,1,167.999994873047,2|0,3:3|1:0,0:0:0:0:
498,271,95625,1,0,3:0:0:0:
498,271,95703,1,0,3:0:0:0:
498,271,95782,1,2,0:1:0:0:
439,353,95938,1,0,3:0:0:0:
357,294,96094,2,0,L|273:295,1,83.9999974365235,0|0,1:0|0:0,0:0:0:0:
189,237,96407,85,2,0:1:0:0:
189,237,96563,1,0,3:0:0:0:
76,270,96719,1,0,1:0:0:0:
112,18,97032,5,2,3:1:0:0:
112,18,97188,1,0,3:0:0:0:
85,115,97344,2,0,L|169:113,1,83.9999974365235,0|0,1:0|0:0,0:0:0:0:
298,75,97657,85,6,1:1:0:0:
390,115,97813,2,0,L|431:112,2,41.9999987182618,0|0|0,3:0|3:0|3:0,0:0:0:0:
287,97,98126,37,6,1:2:0:0:
379,137,98282,2,0,L|420:134,2,41.9999987182618,2|0|0,3:1|3:0|3:0,0:0:0:0:
276,119,98594,69,4,1:2:0:0:
368,159,98750,2,0,L|409:156,2,41.9999987182618,2|0|2,3:1|3:0|3:1,0:0:0:0:
265,141,99063,37,4,1:2:0:0:
357,181,99220,2,0,L|398:178,2,41.9999987182618,0|0|2,3:0|3:0|3:1,0:0:0:0:
254,163,99531,69,6,1:2:0:0:
346,202,99688,2,0,L|387:199,2,41.9999987182618,0|0|0,3:0|3:0|3:0,0:0:0:0:
243,185,100000,38,0,L|201:182,1,41.9999987182618,6|0,1:2|0:0,0:0:0:0:
150,174,100157,86,0,L|155:257,1,83.9999974365235,6|0,1:3|1:0,0:0:0:0:
175,356,100469,1,0,1:0:0:0:
175,356,100625,1,0,3:0:0:0:
49,163,100782,6,0,L|55:247,1,83.9999974365235,0|0,1:0|1:0,0:0:0:0:
74,345,101094,1,0,3:0:0:0:
74,345,101250,1,0,1:0:0:0:
147,215,101407,38,0,L|150:173,1,41.9999987182618,6|0,1:2|0:0,0:0:0:0:
230,220,101641,2,0,L|232:178,1,41.9999987182618,4|0,1:2|0:0,0:0:0:0:
311,227,101875,2,0,L|313:185,1,41.9999987182618,4|0,1:2|0:0,0:0:0:0:
393,233,102110,2,0,L|395:191,1,41.9999987182618,4|0,1:2|3:0,0:0:0:0:
475,239,102344,1,4,1:2:0:0:
506,143,102500,2,0,L|508:101,1,41.9999987182618,0|0,3:2|3:0,0:0:0:0:
473,106,102657,6,0,L|468:36,1,70,6|0,3:1|0:0,0:0:0:0:
468,36,102969,1,0,1:0:0:0:
391,70,103125,1,0,0:0:0:0:
227,30,103438,2,0,L|157:25,1,70,0|0,3:0|1:0,0:0:0:0:
39,145,103907,5,0,3:0:0:0:
39,145,104063,1,0,3:0:0:0:
116,178,104219,1,0,1:0:0:0:
194,147,104375,2,0,B|267:144|240:180|328:175,1,140,0|0,0:0|3:0,0:0:0:0:
389,117,104844,1,0,1:0:0:0:
403,285,105157,6,0,L|398:354,1,70,0|0,3:0|0:0,0:0:0:0:
398,355,105469,1,0,1:0:0:0:
479,335,105625,1,0,0:0:0:0:
281,288,105938,2,0,L|211:292,1,70,0|0,3:0|1:0,0:0:0:0:
37,367,106407,101,0,3:0:0:0:
37,367,106563,1,0,3:0:0:0:
10,287,106719,1,0,1:0:0:0:
70,226,106875,2,0,B|81:142|46:172|57:88,1,140,0|0,0:0|3:0,0:0:0:0:
120,32,107344,2,0,L|189:35,1,70,0|0,1:0|3:0,0:0:0:0:
252,91,107657,22,0,L|248:160,1,70,6|0,1:3|3:0,0:0:0:0:
248,161,107969,1,0,3:0:0:0:
169,189,108125,1,4,1:2:0:0:
374,130,108438,1,4,1:2:0:0:
233,264,108750,5,0,3:0:0:0:
233,264,108828,1,0,3:0:0:0:
233,264,108907,1,0,3:0:0:0:
169,189,109063,53,4,1:2:0:0:
336,204,109375,1,0,1:0:0:0:
503,219,109688,1,0,1:0:0:0:
503,219,109844,2,0,L|499:149,1,70,0|0,3:0|3:0,0:0:0:0:
421,53,110157,6,0,L|418:123,1,70,6|0,1:3|3:0,0:0:0:0:
418,123,110469,1,0,3:0:0:0:
338,96,110625,1,4,1:2:0:0:
362,328,110938,1,4,1:2:0:0:
274,158,111250,21,0,3:0:0:0:
274,158,111328,1,0,3:0:0:0:
274,158,111407,1,0,3:0:0:0:
342,220,111563,5,4,1:2:0:0:
175,241,111875,1,0,1:0:0:0:
8,262,112188,1,0,1:0:0:0:
8,262,112344,2,0,L|11:192,1,70,0|0,3:0|3:0,0:0:0:0:
79,118,112657,37,6,3:3:0:0:
