osu file format v14

[General]
AudioFilename: audio.mp3
AudioLeadIn: 0
PreviewTime: 62578
Countdown: 0
SampleSet: Soft
StackLeniency: 0.2
Mode: 0
LetterboxInBreaks: 0
EpilepsyWarning: 1
WidescreenStoryboard: 1

[Editor]
DistanceSpacing: 0.7
BeatDivisor: 4
GridSize: 16
TimelineZoom: 3.499999

[Metadata]
Title:Aqua Stars
TitleUnicode:Aqua Stars
Artist:Sound Souler
ArtistUnicode:Sound Souler
Creator:Affirmation
Version:Expert
Source:OverRapid
Tags:artcore muse dash instrumental electronic
BeatmapID:2269224
BeatmapSetID:1085144

[Difficulty]
HPDrainRate:5.8
CircleSize:4.5
OverallDifficulty:8.9
ApproachRate:9.4
SliderMultiplier:2
SliderTickRate:1

[Events]
//Background and Video events
0,0,"BG.jpg",0,0
//Break Periods
2,12857,17117
2,60357,62117
//Storyboard Layer 0 (Background)
//Storyboard Layer 1 (Fail)
//Storyboard Layer 2 (Pass)
//Storyboard Layer 3 (Foreground)
//Storyboard Layer 4 (Overlay)
//Storyboard Sound Samples

[TimingPoints]
2657,312.5,4,2,1,60,1,0
2657,-66.6666666666667,4,2,1,60,0,0
3125,-250,4,2,1,60,0,0
5157,-66.6666666666667,4,2,1,60,0,0
5625,-250,4,2,1,60,0,0
7657,-66.6666666666667,4,2,1,60,0,0
8125,-250,4,2,1,60,0,0
10157,-250,4,2,1,40,0,0
12657,-250,4,2,2,40,0,0
17657,-83.3333333333333,4,2,1,70,0,0
19844,-133.333333333333,4,2,1,70,0,0
20157,-83.3333333333333,4,2,1,70,0,0
22344,-133.333333333333,4,2,1,70,0,0
22657,-83.3333333333333,4,2,1,70,0,0
24844,-133.333333333333,4,2,1,70,0,0
25157,-83.3333333333333,4,2,1,70,0,0
27657,-166.666666666667,4,2,1,50,0,0
37032,-125,4,2,1,50,0,0
37657,-125,4,2,2,50,0,0
41407,-125,4,2,2,5,0,0
42657,-333.333333333333,4,2,3,45,0,0
43594,-333.333333333333,4,2,1,45,0,0
47657,-333.333333333333,4,2,2,45,0,0
50157,-333.333333333333,4,2,1,45,0,0
52657,-333.333333333333,4,2,2,45,0,0
53594,-333.333333333333,4,2,1,45,0,0
57657,-333.333333333333,4,2,2,45,0,0
57813,-333.333333333333,4,2,1,45,0,0
58125,-333.333333333333,4,2,2,45,0,0
58282,-333.333333333333,4,2,1,45,0,0
58594,-333.333333333333,4,2,2,45,0,0
58750,-333.333333333333,4,2,1,45,0,0
59063,-333.333333333333,4,2,2,45,0,0
59219,-333.333333333333,4,2,1,45,0,0
59532,-333.333333333333,4,2,2,45,0,0
59688,-333.333333333333,4,2,1,45,0,0
59844,-333.333333333333,4,2,2,45,0,0
60000,-333.333333333333,4,2,1,45,0,0
60157,-333.333333333333,4,2,2,35,0,0
62657,-71.4285714285714,4,2,4,70,0,0
62969,-71.4285714285714,4,2,1,70,0,0
63594,-62.5,4,2,1,70,0,0
64063,-71.4285714285714,4,2,1,70,0,0
65157,-71.4285714285714,4,2,2,70,0,0
66094,-62.5,4,2,1,70,0,0
66563,-71.4285714285714,4,2,1,70,0,0
67657,-71.4285714285714,4,2,5,70,0,0
68125,-76.9230769230769,4,2,2,70,0,0
68594,-83.3333333333333,4,2,2,70,0,0
69063,-90.9090909090909,4,2,2,70,0,0
69532,-100,4,2,2,70,0,0
70000,-66.6666666666667,4,2,2,70,0,0
70157,-71.4285714285714,4,2,2,70,0,0
70313,-71.4285714285714,4,2,1,70,0,0
71407,-62.5,4,2,1,70,0,0
72657,-71.4285714285714,4,2,5,70,0,0
73594,-62.5,4,2,5,70,0,0
73750,-62.5,4,2,1,70,0,0
74063,-71.4285714285714,4,2,1,70,0,0
75157,-71.4285714285714,4,2,2,70,0,0
75313,-71.4285714285714,4,2,1,70,0,0
77657,-71.4285714285714,4,2,5,70,0,0
78125,-76.9230769230769,4,2,2,70,0,0
78594,-83.3333333333333,4,2,2,70,0,0
79063,-90.9090909090909,4,2,2,70,0,0
79532,-100,4,2,2,70,0,0
80000,-66.6666666666667,4,2,2,70,0,0
80157,-71.4285714285714,4,2,2,70,0,0
80782,-71.4285714285714,4,2,1,70,0,0
81407,-62.5,4,2,1,70,0,0
82657,-71.4285714285714,4,2,4,80,0,0
82969,-71.4285714285714,4,2,6,80,0,0
83594,-62.5,4,2,6,80,0,0
84063,-71.4285714285714,4,2,6,80,0,0
85157,-71.4285714285714,4,2,1,80,0,0
86094,-62.5,4,2,6,80,0,0
86563,-71.4285714285714,4,2,6,80,0,0
87657,-71.4285714285714,4,2,7,80,0,0
88125,-76.9230769230769,4,2,2,80,0,0
88594,-83.3333333333333,4,2,2,80,0,0
89063,-90.9090909090909,4,2,2,80,0,0
89532,-100,4,2,2,80,0,0
90000,-66.6666666666667,4,2,2,80,0,0
90157,-71.4285714285714,4,2,1,80,0,0
90313,-71.4285714285714,4,2,6,80,0,0
91407,-62.5,4,2,2,80,0,0
92657,-71.4285714285714,4,2,7,80,0,0
93750,-62.5,4,2,6,80,0,0
94063,-71.4285714285714,4,2,6,80,0,0
95157,-71.4285714285714,4,2,1,80,0,0
95782,-71.4285714285714,4,2,6,80,0,0
96094,-62.5,4,2,6,80,0,0
96563,-71.4285714285714,4,2,6,80,0,0
97657,-71.4285714285714,4,2,7,80,0,0
98125,-71.4285714285714,4,2,2,80,0,0
98282,-71.4285714285714,4,2,6,80,0,0
98594,-71.4285714285714,4,2,1,80,0,0
98750,-71.4285714285714,4,2,6,80,0,0
99063,-71.4285714285714,4,2,1,80,0,0
99375,-71.4285714285714,4,2,6,80,0,0
99532,-71.4285714285714,4,2,2,80,0,0
100000,-66.6666666666667,4,2,2,80,0,0
100157,-71.4285714285714,4,2,1,80,0,0
101407,-62.5,4,2,2,80,0,0
102657,-66.6666666666667,4,2,1,60,0,0
103125,-133.333333333333,4,2,1,60,0,0
105157,-66.6666666666667,4,2,1,60,0,0
105625,-133.333333333333,4,2,1,60,0,0
107657,-100,4,2,3,65,0,0
108125,-100,4,2,1,65,0,0
110157,-100,4,2,3,65,0,0
110625,-100,4,2,1,65,0,0
112657,-100,4,2,3,65,0,0

[Colours]
Combo1 : 86,212,255
Combo2 : 96,124,255
Combo3 : 72,25,255
Combo4 : 247,255,147
Combo5 : 222,184,255
Combo6 : 255,124,157
Combo7 : 163,163,163
Combo8 : 91,91,91
SliderBorder : 192,255,216
SliderTrackOverride : 0,32,64

[HitObjects]
238,344,2657,118,0,B|259:307|259:307|246:200,1,150.000005722046,4|0,1:2|3:0,0:0:0:0:
246,200,2969,1,0,3:0:0:0:
115,285,3125,6,0,L|154:288,1,40,0|0,1:0|0:0,0:0:0:0:
66,135,3438,2,0,L|105:138,1,40,0|0,1:0|0:0,0:0:0:0:
344,157,3750,21,0,3:0:0:0:
344,157,3828,1,0,3:0:0:0:
344,157,3907,1,0,3:0:0:0:
191,92,4063,6,0,L|194:131,1,40,0|0,1:0|3:0,0:0:0:0:
342,255,4376,2,0,L|345:294,1,40,0|0,1:0|0:0,0:0:0:0:
437,112,4688,1,0,1:0:0:0:
246,200,4844,1,0,3:0:0:0:
246,200,5000,1,0,3:0:0:0:
493,295,5157,54,0,B|439:288|439:288|395:300|395:300|345:294,1,150.000005722046,0|0,1:0|3:0,0:0:0:0:
345,294,5469,1,0,3:0:0:0:
502,170,5625,6,0,L|499:209,1,40,0|0,1:0|0:0,0:0:0:0:
347,117,5938,2,0,L|344:156,1,40,0|0,1:0|0:0,0:0:0:0:
446,372,6250,21,0,3:0:0:0:
446,372,6328,1,0,3:0:0:0:
446,372,6407,1,0,3:0:0:0:
249,233,6563,6,0,L|288:230,1,40,0|0,1:0|0:0,0:0:0:0:
91,156,6875,2,0,L|130:153,1,40,0|0,1:0|0:0,0:0:0:0:
71,318,7188,1,0,1:0:0:0:
71,318,7344,2,0,L|110:315,1,40,0|0,3:0|0:0,0:0:0:0:
233,86,7657,54,0,B|221:175|262:141|248:232,1,150.000005722046,4|0,1:2|3:0,0:0:0:0:
248,232,7969,1,0,3:0:0:0:
374,110,8125,6,0,L|335:113,1,40,0|0,1:0|0:0,0:0:0:0:
434,241,8438,2,0,L|395:244,1,40,0|0,1:0|0:0,0:0:0:0:
207,316,8750,21,0,3:0:0:0:
207,316,8828,1,0,3:0:0:0:
207,316,8907,1,0,3:0:0:0:
393,379,9063,6,0,L|396:340,1,40,0|0,1:0|3:0,0:0:0:0:
248,232,9375,2,0,L|251:193,1,40,0|0,1:0|0:0,0:0:0:0:
465,135,9688,1,0,1:0:0:0:
465,135,9844,2,0,L|468:96,1,40,0|0,3:0|3:0,0:0:0:0:
394,244,10157,21,6,3:3:0:0:
394,244,10573,5,2,0:2:0:0:
171,193,10782,101,2,0:2:0:0:
265,99,10990,1,2,0:2:0:0:
299,227,11198,1,2,0:2:0:0:
163,195,11407,5,2,0:2:0:0:
267,91,11615,1,2,0:2:0:0:
304,232,11823,1,2,0:2:0:0:
155,197,12032,101,2,0:2:0:0:
269,83,12240,1,2,0:2:0:0:
310,238,12448,1,2,0:2:0:0:
244,172,12657,5,2,0:3:0:0:
186,204,17657,6,0,P|266:190|283:270,1,179.999994506836,6|0,3:1|0:0,0:0:0:0:
273,285,17969,1,0,1:0:0:0:
369,100,18125,1,0,3:0:0:0:
369,100,18203,2,0,B|378:128|378:128|373:157,1,59.9999981689454,0|0,3:0|0:0,0:0:0:0:
369,169,18438,2,0,L|488:160,1,119.999996337891,0|0,1:0|0:0,0:0:0:0:
273,285,18750,6,0,L|214:290,1,59.9999981689454,0|0,3:0|0:0,0:0:0:0:
387,350,18907,2,0,L|446:345,1,59.9999981689454,0|0,3:0|0:0,0:0:0:0:
477,342,19219,6,0,B|434:338|434:338|401:352|401:352|360:348,1,119.999996337891,0|0,1:0|0:0,0:0:0:0:
182,291,19453,2,0,B|225:295|225:295|258:281|258:281|298:284,1,119.999996337891,0|0,3:0|0:0,0:0:0:0:
428,164,19688,2,0,L|369:169,1,59.9999981689454,0|0,1:0|0:0,0:0:0:0:
197,184,19844,22,0,L|203:109,1,75.0000028610231,2|0,0:0|3:0,0:0:0:0:
15,175,20157,54,0,P|31:254|112:240,1,179.999994506836,2|0,3:3|0:0,0:0:0:0:
113,222,20469,1,0,1:0:0:0:
196,36,20625,1,0,3:0:0:0:
196,36,20703,2,0,B|168:27|168:27|139:32,1,59.9999981689454,0|0,3:0|0:0,0:0:0:0:
130,42,20938,2,0,L|11:33,1,119.999996337891,0|0,1:0|0:0,0:0:0:0:
294,27,21250,6,0,P|301:57|296:86,1,59.9999981689454,0|0,3:0|0:0,0:0:0:0:
197,184,21407,2,0,P|192:213|198:242,1,59.9999981689454,0|0,3:0|0:0,0:0:0:0:
208,269,21719,6,0,B|290:256|290:256|318:279,1,119.999996337891,0|0,1:0|0:0,0:0:0:0:
461,177,21953,2,0,B|379:164|379:164|350:187,1,119.999996337891,0|0,3:0|0:0,0:0:0:0:
397,312,22188,2,0,B|407:253,1,59.9999981689454,0|0,3:0|0:0,0:0:0:0:
466,66,22344,22,0,B|391:77,1,75.0000028610231,2|0,1:2|3:0,0:0:0:0:
125,32,22657,54,0,B|175:32|219:57|189:74|234:99|284:100,1,179.999994506836,6|0,3:3|0:0,0:0:0:0:
296,86,22969,1,0,1:0:0:0:
117,167,23125,1,0,3:0:0:0:
117,167,23203,2,0,L|57:163,1,59.9999981689454,0|0,3:0|0:0,0:0:0:0:
47,156,23438,2,0,L|54:275,1,119.999996337891,0|0,1:0|0:0,0:0:0:0:
180,364,23750,6,0,B|209:372|209:372|238:364,1,59.9999981689454,0|0,3:0|0:0,0:0:0:0:
354,277,23907,2,0,B|325:269|325:269|295:276,1,59.9999981689454,0|0,3:0|0:0,0:0:0:0:
279,283,24219,6,0,P|256:228|268:170,1,119.999996337891,0|0,1:0|0:0,0:0:0:0:
379,64,24453,2,0,P|401:118|389:176,1,119.999996337891,0|0,3:0|0:0,0:0:0:0:
448,278,24688,2,0,B|507:273,1,59.9999981689454,0|0,1:0|0:0,0:0:0:0:
348,351,24844,22,0,B|353:276,1,75.0000028610231,2|0,0:0|3:0,0:0:0:0:
281,90,25157,54,0,B|226:71|226:71|174:107|174:107|115:103,1,179.999994506836,2|0,3:3|0:0,0:0:0:0:
101,93,25469,1,0,1:0:0:0:
162,281,25625,1,0,3:0:0:0:
162,281,25703,2,0,P|169:252|162:223,1,59.9999981689454,0|0,3:0|0:0,0:0:0:0:
159,212,25938,2,0,L|40:221,1,119.999996337891,0|0,1:0|0:0,0:0:0:0:
160,374,26250,6,0,L|219:369,1,59.9999981689454,0|0,3:0|0:0,0:0:0:0:
357,299,26407,2,0,L|416:294,1,59.9999981689454,0|0,3:0|0:0,0:0:0:0:
259,248,26563,1,0,0:0:0:0:
473,158,26719,6,0,B|402:152|425:181|356:176,1,119.999996337891,0|0,1:0|0:0,0:0:0:0:
164,71,26953,2,0,B|232:66|209:95|280:89,1,119.999996337891,0|0,3:0|0:0,0:0:0:0:
427,34,27188,2,0,P|398:25|368:26,1,59.9999981689454,0|0,3:0|0:0,0:0:0:0:
268,172,27344,21,0,1:0:0:0:
466,138,27500,1,0,3:0:0:0:
346,342,27657,102,0,B|319:300|343:264|343:264|344:286|356:299,1,119.999996337891,6|0,3:1|0:0,0:0:0:0:
417,259,28125,1,0,3:0:0:0:
267,376,28282,2,0,P|252:318|257:259,1,119.999996337891,0|0,1:0|3:0,0:0:0:0:
107,142,28907,5,0,3:0:0:0:
178,225,29063,2,0,B|204:183|180:147|180:147|179:169|167:182,1,119.999996337891,0|0,1:0|3:0,0:0:0:0:
257,259,29532,2,0,P|271:201|266:141,1,119.999996337891,0|0,1:0|3:0,0:0:0:0:
70,25,30157,102,0,L|189:19,1,119.999996337891,2|0,3:3|0:0,0:0:0:0:
263,58,30625,1,0,3:0:0:0:
386,147,30782,2,0,L|266:141,1,119.999996337891,0|0,1:0|3:0,0:0:0:0:
9,270,31407,5,0,3:0:0:0:
98,338,31563,2,0,P|100:308|102:278,1,59.9999981689454,0|0,1:0|0:0,0:0:0:0:
103,262,32032,6,0,L|132:258,1,29.9999990844727,0|0,1:0|0:0,0:0:0:0:
266,141,32266,2,0,L|254:168,1,29.9999990844727,0|0,1:0|0:0,0:0:0:0:
270,318,32500,2,0,L|289:342,1,29.9999990844727,0|0,1:0|0:0,0:0:0:0:
218,248,32657,101,6,3:3:0:0:
218,248,32813,1,0,3:0:0:0:
218,248,32969,1,0,3:0:0:0:
407,331,33282,2,0,B|338:323|353:345|288:340,1,119.999996337891,0|0,1:0|3:0,0:0:0:0:
253,168,33907,101,0,3:0:0:0:
155,97,34063,2,0,B|224:105|209:83|273:87,1,119.999996337891,0|0,1:0|3:0,0:0:0:0:
371,158,34532,2,0,B|306:153|321:175|252:167,1,119.999996337891,0|0,1:0|3:0,0:0:0:0:
273,87,35000,1,0,1:0:0:0:
350,238,35157,6,0,L|346:297,1,59.9999981689454,2|0,3:3|3:0,0:0:0:0:
219,336,35469,2,0,L|215:276,1,59.9999981689454,0|0,3:0|3:0,0:0:0:0:
363,228,35782,102,0,L|359:288,1,59.9999981689454,0|0,3:0|3:0,0:0:0:0:
205,345,36094,2,0,L|202:285,1,59.9999981689454,0|0,3:0|3:0,0:0:0:0:
146,128,36407,5,0,1:0:0:0:
267,217,36563,1,0,3:0:0:0:
267,217,36641,1,0,3:0:0:0:
267,217,36719,1,0,3:0:0:0:
284,68,36875,1,0,1:0:0:0:
106,122,37032,6,0,L|145:127,1,40,0|0,1:0|0:0,0:0:0:0:
283,253,37266,2,0,L|266:216,1,40,0|0,1:0|0:0,0:0:0:0:
309,36,37500,2,0,L|284:67,1,40,0|0,1:0|0:0,0:0:0:0:
232,137,37657,21,6,3:1:0:0:
256,192,37735,12,0,41407,0:0:0:0:
300,333,42657,102,0,P|285:275|303:219,1,119.999996337891,6|0,0:1|0:0,0:0:0:0:
402,46,43594,1,2,0:2:0:0:
387,56,43750,2,0,L|267:52,1,119.999996337891,2|0,0:2|0:0,0:0:0:0:
262,63,44688,2,0,L|232:63,2,29.9999990844727,2|2|2,0:2|0:2|0:2,0:0:0:0:
320,144,45157,6,0,L|200:147,1,119.999996337891,2|0,0:2|0:0,0:0:0:0:
33,251,46094,1,2,0:2:0:0:
43,266,46250,2,0,P|56:208|40:150,1,119.999996337891,2|2,0:2|0:2,0:0:0:0:
13,71,47032,102,0,L|42:69,1,29.9999990844727,2|2,0:2|0:2,0:0:0:0:
104,43,47344,2,0,L|75:42,1,29.9999990844727,2|2,0:2|0:2,0:0:0:0:
149,133,47657,6,0,B|198:157|322:195|357:77|238:19|191:79|208:169|226:206|226:206|240:244|230:286,1,419.999987182618,2|0,0:3|0:0,0:0:0:0:
10,294,50157,102,0,P|36:280|66:275,1,59.9999981689454,2|2,0:2|0:2,0:0:0:0:
79,285,50625,2,0,L|75:344,2,59.9999981689454,2|2|2,0:2|0:2|0:2,0:0:0:0:
135,215,51407,5,2,0:2:0:0:
217,232,51719,1,2,0:2:0:0:
234,150,52032,1,2,0:2:0:0:
152,133,52344,1,2,0:2:0:0:
226,324,52657,102,0,P|283:328|322:285,1,119.999996337891,2|0,0:3|0:0,0:0:0:0:
372,149,53594,1,2,0:2:0:0:
383,161,53750,2,0,P|308:155|233:149,1,149.999995422363,2|0,0:2|0:0,0:0:0:0:
56,80,54844,5,2,0:2:0:0:
157,42,55157,2,0,P|151:86|146:131,2,89.9999972534181,2|2|2,0:2|0:2|0:2,0:0:0:0:
173,35,56250,1,2,0:2:0:0:
146,131,56407,102,0,P|149:160|152:190,1,59.9999981689454,2|2,0:2|0:2,0:0:0:0:
67,251,57032,2,0,P|63:280|60:310,1,59.9999981689454,2|2,0:2|0:2,0:0:0:0:
232,367,57657,6,0,L|229:337,1,29.9999990844727,2|2,0:3|0:2,0:0:0:0:
229,337,57969,1,2,0:2:0:0:
327,310,58125,2,0,L|329:280,1,29.9999990844727,2|2,0:3|0:2,0:0:0:0:
328,280,58438,1,0,0:0:0:0:
241,242,58594,102,0,L|238:212,1,29.9999990844727,2|2,0:3|0:2,0:0:0:0:
238,212,58907,1,2,0:2:0:0:
336,185,59062,2,0,L|338:155,1,29.9999990844727,2|2,0:3|0:2,0:0:0:0:
337,155,59375,1,2,0:2:0:0:
250,117,59532,6,0,L|247:87,1,29.9999990844727,2|2,0:3|0:2,0:0:0:0:
345,60,59844,2,0,L|347:30,1,29.9999990844727,2|2,0:3|0:2,0:0:0:0:
338,155,60157,101,2,0:3:0:0:
131,138,62657,22,0,B|194:134|247:169|203:178|255:212|319:209,1,209.999993591309,6|0,3:1|0:0,0:0:0:0:
368,149,62969,2,0,B|367:114|367:114|341:138,1,69.9999978637696,0|0,1:0|0:0,0:0:0:0:
267,319,63125,5,0,3:0:0:0:
267,319,63203,2,0,P|301:312|335:306,1,69.9999978637696,0|0,3:0|0:0,0:0:0:0:
350,305,63438,2,0,P|315:298|281:292,1,69.9999978637696,0|0,3:0|0:0,0:0:0:0:
109,219,63594,6,0,B|115:292|115:292|112:306|112:306|119:378,2,160,2|2|0,1:2|0:2|0:0,0:0:0:0:
31,90,64063,6,0,P|5:97|31:103,1,69.9999978637696,0|0,3:0|0:0,0:0:0:0:
123,65,64219,2,0,B|172:48|172:48|238:130|238:130|287:114,1,209.999993591309,0|0,1:0|0:0,0:0:0:0:
401,62,64532,6,0,P|384:92|388:126,1,69.9999978637696,0|0,3:0|0:0,0:0:0:0:
471,140,64688,2,0,P|487:109|483:75,1,69.9999978637696,2|0,3:2|0:0,0:0:0:0:
414,220,64844,5,2,1:2:0:0:
455,309,65000,1,2,0:2:0:0:
269,239,65157,38,0,P|169:241|115:326,1,209.999993591309,2|0,3:3|0:0,0:0:0:0:
188,351,65469,2,0,B|223:344|223:344|191:336,1,69.9999978637696,0|0,1:0|0:0,0:0:0:0:
17,266,65625,5,0,3:0:0:0:
17,266,65703,2,0,L|22:335,1,69.9999978637696,0|0,3:0|0:0,0:0:0:0:
30,348,65938,2,0,L|35:278,1,69.9999978637696,0|0,3:0|0:0,0:0:0:0:
130,135,66094,6,0,P|55:151|1:96,2,160,2|2|0,1:2|0:2|0:0,0:0:0:0:
392,130,66563,6,0,B|360:128|360:128|354:124|354:124|323:122,1,69.9999978637696,0|0,3:0|0:0,0:0:0:0:
216,48,66719,2,0,B|279:44|279:44|291:37|291:37|353:33,1,139.999995727539,0|2,1:0|0:2,0:0:0:0:
458,202,67032,5,2,3:2:0:0:
363,223,67188,1,2,3:2:0:0:
384,318,67344,1,2,1:2:0:0:
479,297,67500,1,2,0:2:0:0:
289,345,67657,6,0,L|149:339,1,139.999995727539,6|0,1:1|3:0,0:0:0:0:
84,290,67891,1,0,3:0:0:0:
84,290,67969,2,0,L|14:292,1,69.9999978637696,0|0,3:0|0:0,0:0:0:0:
287,325,68125,70,0,L|157:319,1,129.999994049073,4|0,1:2|3:0,0:0:0:0:
82,270,68360,1,0,3:0:0:0:
82,270,68438,2,0,L|17:272,1,64.9999970245363,0|0,3:0|0:0,0:0:0:0:
285,305,68594,38,0,L|165:300,1,119.999996337891,4|0,1:2|3:0,0:0:0:0:
80,250,68829,1,0,3:0:0:0:
80,250,68907,2,0,L|20:252,1,59.9999981689454,0|0,3:0|0:0,0:0:0:0:
283,285,69063,70,0,L|173:280,1,110.000003356934,4|0,1:2|3:0,0:0:0:0:
78,230,69297,1,0,3:0:0:0:
78,230,69375,2,0,L|23:232,1,55.0000016784668,0|0,3:0|0:0,0:0:0:0:
281,265,69532,38,0,L|181:261,1,100,4|0,1:2|3:0,0:0:0:0:
76,210,69766,1,0,3:0:0:0:
76,210,69844,2,0,L|26:211,1,50,0|0,3:0|0:0,0:0:0:0:
143,46,70000,38,0,B|133:87|133:87|144:117,1,75.0000028610231,4|0,1:2|0:0,0:0:0:0:
259,185,70157,5,6,1:3:0:0:
432,135,70313,1,2,1:2:0:0:
307,37,70469,2,0,P|318:70|323:104,1,69.9999978637696,2|0,1:2|0:0,0:0:0:0:
327,45,70625,2,0,P|329:79|325:114,1,69.9999978637696,2|0,3:2|0:0,0:0:0:0:
170,141,70782,37,2,1:2:0:0:
415,217,70938,1,2,1:2:0:0:
196,297,71094,2,0,P|207:263|212:229,1,69.9999978637696,2|0,3:2|0:0,0:0:0:0:
281,265,71250,2,0,P|283:230|279:195,1,69.9999978637696,2|0,1:2|0:0,0:0:0:0:
112,31,71407,38,0,B|96:11|69:7|69:7|85:19|89:29,1,80,6|0,1:2|0:0,0:0:0:0:
150,261,71641,2,0,B|151:286|170:305|170:305|164:285|167:275,1,80,6|0,1:2|0:0,0:0:0:0:
255,53,71875,2,0,B|268:31|264:5|264:5|257:24|249:31,1,80,6|0,1:2|0:0,0:0:0:0:
47,160,72110,2,0,B|23:168|11:192|11:192|27:181|38:180,1,80,6|0,1:2|3:0,0:0:0:0:
279,195,72344,2,0,B|303:201|327:189|327:189|307:188|297:183,1,80,6|0,1:2|0:0,0:0:0:0:
170,141,72500,1,0,3:0:0:0:
296,317,72657,38,0,P|386:269|483:302,1,209.999993591309,6|0,3:1|0:0,0:0:0:0:
500,377,72969,2,0,B|465:380|465:380|435:363,1,69.9999978637696,0|0,1:0|0:0,0:0:0:0:
426,197,73125,5,0,3:0:0:0:
426,196,73203,2,0,P|459:185|493:178,1,69.9999978637696,0|0,3:0|0:0,0:0:0:0:
505,189,73438,2,0,P|470:182|437:171,1,69.9999978637696,0|0,3:0|0:0,0:0:0:0:
388,17,73594,5,0,1:0:0:0:
473,90,73750,2,0,B|399:94|399:94|386:99|386:99|314:102,1,160,2|0,0:2|0:0,0:0:0:0:
104,98,74063,6,0,B|70:88|70:88|102:75,1,69.9999978637696,0|0,3:0|0:0,0:0:0:0:
202,88,74219,2,0,B|222:147|202:208|181:167|162:226|182:289,1,209.999993591309,0|0,1:0|0:0,0:0:0:0:
280,353,74532,38,0,P|314:348|349:343,1,69.9999978637696,0|0,3:0|0:0,0:0:0:0:
357,260,74688,2,0,P|322:264|287:269,1,69.9999978637696,2|0,3:2|0:0,0:0:0:0:
183,374,74844,5,2,1:2:0:0:
89,344,75000,1,2,0:2:0:0:
234,129,75157,5,2,3:3:0:0:
181,288,75313,1,2,0:2:0:0:
124,123,75469,1,2,1:2:0:0:
322,129,75625,1,2,3:2:0:0:
322,129,75703,1,0,3:0:0:0:
322,129,75782,1,2,0:2:0:0:
176,192,75938,5,2,3:2:0:0:
262,37,76094,1,2,1:2:0:0:
311,208,76250,1,2,0:2:0:0:
151,76,76407,5,2,0:2:0:0:
372,27,76563,1,2,3:2:0:0:
151,76,76719,1,2,1:2:0:0:
322,129,76875,1,2,0:2:0:0:
92,188,77032,53,2,3:2:0:0:
241,39,77188,1,2,3:2:0:0:
189,227,77344,1,2,1:2:0:0:
53,88,77500,1,2,0:2:0:0:
290,226,77657,70,0,L|430:219,1,139.999995727539,6|0,1:1|3:0,0:0:0:0:
506,194,77891,1,0,3:0:0:0:
506,194,77969,2,0,L|436:190,1,69.9999978637696,0|0,3:0|0:0,0:0:0:0:
294,215,78125,70,0,L|423:208,1,129.999994049073,4|0,1:2|3:0,0:0:0:0:
504,182,78360,1,0,3:0:0:0:
504,182,78437,2,0,L|440:179,1,64.9999970245363,0|0,3:0|0:0,0:0:0:0:
298,203,78594,38,0,L|417:197,1,119.999996337891,4|0,1:2|3:0,0:0:0:0:
503,169,78828,1,0,3:0:0:0:
503,169,78906,2,0,L|444:167,1,59.9999981689454,0|0,3:0|0:0,0:0:0:0:
302,191,79063,70,0,L|421:185,1,110.000003356934,4|0,1:2|3:0,0:0:0:0:
502,157,79297,1,0,3:0:0:0:
502,157,79375,2,0,L|448:155,1,55.0000016784668,0|0,3:0|0:0,0:0:0:0:
306,179,79532,38,0,L|405:174,1,100,4|0,1:2|3:0,0:0:0:0:
501,145,79766,1,0,3:0:0:0:
501,145,79844,2,0,L|452:143,1,50,0|0,3:0|0:0,0:0:0:0:
324,20,80000,38,0,B|343:52|343:52|334:89,1,75.0000028610231,4|0,1:2|0:0,0:0:0:0:
212,167,80157,37,6,1:3:0:0:
445,247,80313,1,0,1:0:0:0:
297,337,80469,2,0,L|294:267,1,69.9999978637696,0|0,1:0|0:0,0:0:0:0:
306,329,80625,2,0,L|304:259,1,69.9999978637696,0|0,3:0|0:0,0:0:0:0:
137,250,80782,5,2,1:2:0:0:
405,174,80938,1,0,1:0:0:0:
213,86,81094,2,0,L|210:155,1,69.9999978637696,0|0,3:0|0:0,0:0:0:0:
299,111,81250,2,0,L|296:180,1,69.9999978637696,0|0,1:0|0:0,0:0:0:0:
215,333,81407,38,0,B|209:352|219:372|219:372|233:355|232:335,1,80,6|0,1:2|0:0,0:0:0:0:
213,86,81641,2,0,B|208:69|188:59|188:59|187:81|201:97,1,80,6|0,1:2|0:0,0:0:0:0:
359,287,81875,2,0,B|376:299|397:294|397:294|386:276|366:272,1,80,6|0,1:2|0:0,0:0:0:0:
126,211,82110,2,0,B|106:211|91:227|91:227|111:235|130:227,1,80,6|0,1:2|3:0,0:0:0:0:
357,134,82344,2,0,B|374:122|377:101|377:101|356:106|346:124,1,80,4|0,1:2|0:0,0:0:0:0:
252,208,82500,1,0,3:0:0:0:
252,208,82578,1,0,3:0:0:0:
252,208,82657,54,0,B|314:198|370:228|327:241|381:270|445:262,1,209.999993591309,6|0,3:1|0:0,0:0:0:0:
491,182,82969,2,0,B|484:145|484:145|469:173,1,69.9999978637696,0|0,1:0|0:0,0:0:0:0:
382,366,83125,5,0,3:0:0:0:
382,366,83203,1,0,3:0:0:0:
382,366,83282,2,0,P|370:333|377:299,1,69.9999978637696,0|0,0:0|0:0,0:0:0:0:
460,288,83438,2,0,P|471:320|464:354,1,69.9999978637696,0|0,3:0|0:0,0:0:0:0:
238,332,83594,6,0,P|162:318|113:376,2,160,2|2|0,1:1|0:1|0:0,0:0:0:0:
355,119,84063,38,0,P|381:124|357:134,1,69.9999978637696,0|0,3:0|0:0,0:0:0:0:
263,93,84219,2,0,B|214:76|214:76|148:158|148:158|98:142,1,209.999993591309,0|0,1:0|0:0,0:0:0:0:
122,68,84532,1,0,3:0:0:0:
118,281,84688,6,0,P|151:270|180:252,1,69.9999978637696,2|0,3:1|0:0,0:0:0:0:
263,93,84844,2,0,P|255:126|256:161,1,69.9999978637696,2|0,1:1|0:0,0:0:0:0:
353,312,85000,2,0,P|327:288|296:271,1,69.9999978637696,2|0,0:1|0:0,0:0:0:0:
98,142,85157,6,0,B|148:158|148:158|214:76|214:76|263:93,1,209.999993591309,2|0,3:3|0:0,0:0:0:0:
345,133,85469,2,0,L|414:124,1,69.9999978637696,0|0,1:0|0:0,0:0:0:0:
353,312,85625,5,0,3:0:0:0:
353,312,85703,1,0,3:0:0:0:
353,312,85781,2,0,P|342:278|347:244,1,69.9999978637696,0|0,0:0|0:0,0:0:0:0:
432,238,85938,2,0,P|442:271|437:305,1,69.9999978637696,0|0,3:0|0:0,0:0:0:0:
264,371,86094,6,0,B|192:364|192:364|178:367|178:367|105:361,2,160,2|2|0,1:1|0:1|0:0,0:0:0:0:
98,142,86563,6,0,B|80:172|80:172|88:205,1,69.9999978637696,0|0,3:0|0:0,0:0:0:0:
170,186,86719,2,0,L|174:46,1,139.999995727539,0|0,1:0|0:0,0:0:0:0:
315,165,87032,38,0,P|349:159|383:152,1,69.9999978637696,2|0,3:1|0:0,0:0:0:0:
432,238,87188,2,0,P|397:243|363:250,1,69.9999978637696,2|0,3:1|0:0,0:0:0:0:
269,293,87344,5,2,1:1:0:0:
482,154,87500,1,0,0:0:0:0:
305,20,87657,54,0,L|165:26,1,139.999995727539,6|0,1:1|3:0,0:0:0:0:
100,75,87892,1,0,3:0:0:0:
100,75,87970,2,0,L|30:73,1,69.9999978637696,0|0,3:0|0:0,0:0:0:0:
303,40,88126,70,0,L|173:46,1,129.999994049073,6|0,1:2|3:0,0:0:0:0:
98,95,88361,1,0,3:0:0:0:
98,95,88439,2,0,L|33:93,1,64.9999970245363,0|0,3:0|0:0,0:0:0:0:
301,60,88594,38,0,L|181:65,1,119.999996337891,6|0,1:2|3:0,0:0:0:0:
96,115,88828,1,0,3:0:0:0:
96,115,88907,2,0,L|36:113,1,59.9999981689454,0|0,3:0|0:0,0:0:0:0:
299,80,89063,70,0,L|189:85,1,110.000003356934,6|0,1:2|3:0,0:0:0:0:
94,135,89297,1,0,3:0:0:0:
94,135,89375,2,0,L|39:133,1,55.0000016784668,0|0,3:0|0:0,0:0:0:0:
297,100,89532,38,0,L|197:104,1,100,6|0,1:2|3:0,0:0:0:0:
92,155,89767,1,0,3:0:0:0:
92,155,89845,2,0,L|42:154,1,50,0|0,3:0|0:0,0:0:0:0:
288,304,90000,38,0,B|279:270|279:270|289:231,1,75.0000028610231,6|0,1:2|0:0,0:0:0:0:
463,147,90157,5,6,1:3:0:0:
189,199,90313,1,2,1:1:0:0:
348,34,90469,2,0,L|342:103,1,69.9999978637696,2|0,1:1|0:0,0:0:0:0:
377,209,90625,2,0,L|371:278,1,69.9999978637696,0|0,3:0|0:0,0:0:0:0:
68,155,90782,37,2,1:1:0:0:
342,103,90938,1,2,1:1:0:0:
183,268,91094,2,0,L|188:198,1,69.9999978637696,2|0,3:1|0:0,0:0:0:0:
154,93,91250,2,0,L|159:23,1,69.9999978637696,0|0,1:0|0:0,0:0:0:0:
327,63,91407,38,0,B|356:55|356:55|341:102,1,80,6|0,1:2|0:0,0:0:0:0:
129,266,91641,2,0,B|100:255|100:255|140:225,1,80,6|0,1:2|0:0,0:0:0:0:
408,218,91875,2,0,B|424:243|424:243|374:244,1,80,6|0,1:2|0:0,0:0:0:0:
154,93,92110,2,0,B|155:62|155:62|196:91,1,80,6|0,1:2|3:0,0:0:0:0:
286,343,92344,2,0,B|267:366|267:366|250:319,1,80,6|0,1:2|0:0,0:0:0:0:
261,197,92500,1,0,3:0:0:0:
408,318,92657,86,0,P|494:320|449:246,1,209.999993591309,6|0,3:1|0:0,0:0:0:0:
373,244,92969,2,0,P|362:211|371:178,1,69.9999978637696,0|0,1:0|0:0,0:0:0:0:
402,82,93125,37,0,3:0:0:0:
402,82,93203,1,0,3:0:0:0:
402,82,93282,2,0,P|436:86|470:93,1,69.9999978637696,0|0,0:0|0:0,0:0:0:0:
507,18,93438,2,0,P|472:13|438:6,1,69.9999978637696,0|0,3:0|0:0,0:0:0:0:
371,178,93594,5,0,1:0:0:0:
260,15,93750,2,0,B|234:34|234:34|230:126|230:126|257:149,1,160,2|0,0:1|0:0,0:0:0:0:
408,318,94063,6,0,B|440:305|440:305|407:291,1,69.9999978637696,0|0,3:0|0:0,0:0:0:0:
321,313,94219,2,0,B|259:323|203:293|246:280|192:251|128:259,1,209.999993591309,0|0,1:0|0:0,0:0:0:0:
77,319,94532,1,0,3:0:0:0:
35,156,94688,6,0,L|105:163,1,69.9999978637696,2|0,3:1|0:0,0:0:0:0:
187,142,94844,2,0,L|257:149,1,69.9999978637696,2|0,1:1|0:0,0:0:0:0:
339,128,95000,2,0,L|409:135,1,69.9999978637696,2|0,0:1|0:0,0:0:0:0:
321,313,95157,6,0,B|259:323|203:293|246:280|192:251|128:259,1,209.999993591309,2|0,3:3|0:0,0:0:0:0:
60,310,95469,2,0,P|56:337|76:318,1,69.9999978637696,0|0,1:0|0:0,0:0:0:0:
104,162,95625,5,0,3:0:0:0:
104,162,95703,1,0,3:0:0:0:
104,162,95782,2,0,L|97:92,1,69.9999978637696,2|0,0:1|0:0,0:0:0:0:
180,72,95938,2,0,L|187:142,1,69.9999978637696,0|0,3:0|0:0,0:0:0:0:
273,266,96094,38,0,B|225:278|225:278|174:246|174:246|126:259,2,160,0|0|2,1:0|0:0|0:1,0:0:0:0:
424,134,96563,6,0,B|438:102|438:102|450:134,1,69.9999978637696,0|0,3:0|0:0,0:0:0:0:
504,223,96719,2,0,B|439:249|439:249|373:225,1,139.999995727539,0|0,1:0|0:0,0:0:0:0:
250,33,97032,6,0,P|257:67|259:102,1,69.9999978637696,2|0,3:1|0:0,0:0:0:0:
344,59,97188,2,0,P|342:93|334:128,1,69.9999978637696,0|0,3:0|0:0,0:0:0:0:
273,266,97344,5,0,1:0:0:0:
450,134,97500,1,0,0:0:0:0:
160,240,97657,21,6,1:1:0:0:
437,314,97813,1,0,3:0:0:0:
437,314,97891,1,0,3:0:0:0:
437,314,97969,1,0,3:0:0:0:
177,233,98125,69,6,1:2:0:0:
426,299,98281,1,2,3:1:0:0:
426,299,98359,1,0,3:0:0:0:
426,299,98437,1,0,3:0:0:0:
192,225,98594,37,4,1:2:0:0:
415,284,98750,1,2,3:1:0:0:
415,284,98828,1,0,3:0:0:0:
415,284,98906,1,2,3:1:0:0:
204,216,99063,69,4,1:2:0:0:
404,269,99219,1,0,3:0:0:0:
404,269,99297,1,0,3:0:0:0:
404,269,99375,1,2,3:1:0:0:
214,207,99532,37,6,1:2:0:0:
393,254,99688,1,0,3:0:0:0:
393,254,99766,1,0,3:0:0:0:
393,254,99844,1,0,3:0:0:0:
288,369,100000,38,0,P|283:331|285:294,1,75.0000028610231,6|0,1:2|0:0,0:0:0:0:
368,89,100157,5,6,1:3:0:0:
158,197,100313,1,0,1:0:0:0:
393,254,100469,1,0,1:0:0:0:
218,107,100625,1,0,3:0:0:0:
345,327,100782,5,0,1:0:0:0:
368,89,100938,1,0,1:0:0:0:
176,208,101094,1,0,3:0:0:0:
443,187,101250,1,0,1:0:0:0:
209,31,101407,70,0,P|205:70|219:108,1,80,6|0,1:2|0:0,0:0:0:0:
345,327,101641,2,0,P|325:293|293:270,1,80,4|0,1:2|0:0,0:0:0:0:
62,168,101875,2,0,P|98:184|138:183,1,80,4|0,1:2|0:0,0:0:0:0:
385,130,102110,2,0,P|346:138|315:163,1,80,4|0,1:2|3:0,0:0:0:0:
144,350,102344,2,0,P|171:321|182:283,1,80,4|0,1:2|0:0,0:0:0:0:
225,39,102500,1,0,3:0:0:0:
225,39,102578,1,0,3:0:0:0:
225,39,102657,6,0,B|219:97|219:97|228:124|228:124|222:187,1,150.000005722046,6|0,3:1|0:0,0:0:0:0:
222,187,102969,1,0,1:0:0:0:
56,65,103125,6,0,L|130:60,1,75.0000028610231,0|0,0:0|0:0,0:0:0:0:
314,163,103438,2,0,L|388:158,1,75.0000028610231,0|0,3:0|1:0,0:0:0:0:
388,158,103907,5,0,3:0:0:0:
227,262,104063,2,0,L|222:187,1,75.0000028610231,0|0,3:0|1:0,0:0:0:0:
343,80,104375,2,0,L|338:5,1,75.0000028610231,0|0,0:0|0:0,0:0:0:0:
487,238,104688,1,0,3:0:0:0:
487,238,104844,2,0,L|482:163,1,75.0000028610231,0|0,1:0|3:0,0:0:0:0:
200,49,105157,86,0,B|232:87|232:87|221:186,1,150.000005722046,0|0,3:0|0:0,0:0:0:0:
221,186,105469,1,0,1:0:0:0:
50,91,105625,6,0,L|124:86,1,75.0000028610231,0|0,0:0|0:0,0:0:0:0:
16,231,105938,2,0,L|90:226,1,75.0000028610231,0|0,3:0|1:0,0:0:0:0:
90,226,106407,5,0,3:0:0:0:
222,336,106563,2,0,L|226:261,1,75.0000028610231,0|0,3:0|1:0,0:0:0:0:
338,154,106875,2,0,L|342:79,1,75.0000028610231,0|0,0:0|0:0,0:0:0:0:
430,335,107188,1,0,3:0:0:0:
430,335,107344,2,0,L|434:260,1,75.0000028610231,0|0,1:0|3:0,0:0:0:0:
220,66,107657,85,6,1:3:0:0:
437,147,107813,1,0,3:0:0:0:
226,261,107969,1,0,3:0:0:0:
344,54,108125,6,0,L|338:154,1,100,4|0,1:2|0:0,0:0:0:0:
112,285,108438,2,0,L|118:185,1,100,4|0,1:2|0:0,0:0:0:0:
325,254,108750,21,0,3:0:0:0:
325,254,108828,1,0,3:0:0:0:
325,254,108907,1,0,3:0:0:0:
220,67,109063,6,0,L|120:73,1,100,4|0,1:2|3:0,0:0:0:0:
325,254,109375,2,0,L|225:260,1,100,0|0,1:0|0:0,0:0:0:0:
437,147,109688,1,0,1:0:0:0:
437,147,109844,2,0,L|337:153,1,100,0|0,3:0|3:0,0:0:0:0:
118,185,110157,53,6,1:3:0:0:
331,47,110313,1,0,3:0:0:0:
322,265,110469,1,0,3:0:0:0:
199,117,110625,6,0,L|205:17,1,100,4|0,1:2|0:0,0:0:0:0:
437,147,110938,2,0,L|430:246,1,100,4|0,1:2|0:0,0:0:0:0:
331,47,111250,21,0,3:0:0:0:
331,47,111328,1,0,3:0:0:0:
331,47,111407,1,0,3:0:0:0:
222,258,111563,6,0,L|321:264,1,100,4|0,1:2|0:0,0:0:0:0:
99,110,111875,2,0,L|198:116,1,100,0|0,1:0|0:0,0:0:0:0:
12,278,112188,1,0,1:0:0:0:
12,278,112344,2,0,L|111:284,1,100,0|0,3:0|3:0,0:0:0:0:
337,152,112657,37,6,3:3:0:0:
