osu file format v14

[General]
AudioFilename: audio.mp3
AudioLeadIn: 0
PreviewTime: 62578
Countdown: 0
SampleSet: Soft
StackLeniency: 0.8
Mode: 0
LetterboxInBreaks: 0
EpilepsyWarning: 1
WidescreenStoryboard: 1

[Editor]
DistanceSpacing: 1
BeatDivisor: 2
GridSize: 16
TimelineZoom: 1.2

[Metadata]
Title:Aqua Stars
TitleUnicode:Aqua Stars
Artist:Sound Souler
ArtistUnicode:Sound Souler
Creator:Affirmation
Version:Easy
Source:OverRapid
Tags:artcore muse dash instrumental electronic
BeatmapID:2271189
BeatmapSetID:1085144

[Difficulty]
HPDrainRate:2.7
CircleSize:2.8
OverallDifficulty:2.3
ApproachRate:3.3
SliderMultiplier:0.899999999999999
SliderTickRate:1

[Events]
//Background and Video events
0,0,"BG.jpg",0,0
//Break Periods
2,12857,16253
2,60357,61253
//Storyboard Layer 0 (Background)
//Storyboard Layer 1 (Fail)
//Storyboard Layer 2 (Pass)
//Storyboard Layer 3 (Foreground)
//Storyboard Layer 4 (Overlay)
//Storyboard Sound Samples

[TimingPoints]
2657,312.5,4,2,1,60,1,0
10157,-100,4,2,1,40,0,0
12657,-100,4,2,2,40,0,0
17657,-100,4,2,1,70,0,0
27657,-100,4,2,1,50,0,0
37657,-100,4,2,2,50,0,0
42657,-100,4,2,3,45,0,0
43594,-100,4,2,1,45,0,0
47657,-100,4,2,2,45,0,0
50157,-100,4,2,1,45,0,0
52657,-100,4,2,2,45,0,0
53594,-100,4,2,1,45,0,0
57657,-100,4,2,2,45,0,0
57813,-100,4,2,1,45,0,0
58125,-100,4,2,2,45,0,0
58282,-100,4,2,1,45,0,0
58594,-100,4,2,2,45,0,0
58750,-100,4,2,1,45,0,0
59063,-100,4,2,2,45,0,0
59219,-100,4,2,1,45,0,0
59532,-100,4,2,2,45,0,0
59688,-100,4,2,1,45,0,0
59844,-100,4,2,2,45,0,0
60000,-100,4,2,1,45,0,0
60157,-100,4,2,2,35,0,0
62657,-100,4,2,4,70,0,0
62969,-100,4,2,1,70,0,0
65157,-100,4,2,2,70,0,0
66094,-100,4,2,1,70,0,0
67657,-100,4,2,5,70,0,0
68125,-100,4,2,2,70,0,0
70313,-100,4,2,1,70,0,0
72657,-100,4,2,5,70,0,0
73750,-100,4,2,1,70,0,0
75157,-100,4,2,2,70,0,0
75313,-100,4,2,1,70,0,0
77657,-100,4,2,5,70,0,0
78125,-100,4,2,2,70,0,0
80782,-100,4,2,1,70,0,0
82657,-100,4,2,4,80,0,0
82969,-100,4,2,6,80,0,0
85157,-100,4,2,1,80,0,0
86094,-100,4,2,6,80,0,0
87657,-100,4,2,7,80,0,0
88125,-100,4,2,2,80,0,0
90157,-100,4,2,1,80,0,0
90313,-100,4,2,6,80,0,0
91407,-100,4,2,2,80,0,0
92657,-100,4,2,7,80,0,0
93750,-100,4,2,6,80,0,0
95157,-100,4,2,1,80,0,0
95782,-100,4,2,6,80,0,0
97657,-100,4,2,7,80,0,0
98125,-100,4,2,2,80,0,0
98282,-100,4,2,6,80,0,0
98594,-100,4,2,1,80,0,0
98750,-100,4,2,6,80,0,0
99063,-100,4,2,1,80,0,0
99375,-100,4,2,6,80,0,0
99532,-100,4,2,2,80,0,0
100157,-100,4,2,1,80,0,0
101407,-100,4,2,2,80,0,0
102657,-100,4,2,1,60,0,0
107657,-100,4,2,3,65,0,0
108125,-100,4,2,1,65,0,0
110157,-100,4,2,3,65,0,0
110625,-100,4,2,1,65,0,0
112657,-100,4,2,3,65,0,0

[Colours]
Combo1 : 86,212,255
Combo2 : 96,124,255
Combo3 : 72,25,255
Combo4 : 247,255,147
Combo5 : 222,184,255
Combo6 : 255,124,157
Combo7 : 163,163,163
Combo8 : 91,91,91
SliderBorder : 192,255,216
SliderTrackOverride : 0,32,64

[HitObjects]
445,313,2657,118,0,P|414:254|431:191,1,135,4|0,1:2|1:0,0:0:0:0:
503,245,3438,1,0,1:0:0:0:
351,341,4063,1,0,1:0:0:0:
286,278,4375,2,0,L|151:291,1,135,0|0,1:0|3:0,0:0:0:0:
81,234,5157,6,0,P|99:170|68:112,1,135,0|0,1:0|1:0,0:0:0:0:
10,180,5938,1,0,1:0:0:0:
189,198,6563,1,0,1:0:0:0:
252,134,6875,2,0,L|387:147,1,135,0|0,1:0|3:0,0:0:0:0:
443,76,7657,22,0,P|476:134|460:198,1,135,4|0,1:2|1:0,0:0:0:0:
410,273,8438,1,0,1:0:0:0:
257,176,9063,1,0,1:0:0:0:
196,242,9375,2,0,L|61:229,1,135,0|0,1:0|3:0,0:0:0:0:
23,146,10157,37,6,3:3:0:0:
256,192,10313,12,2,12657,0:0:0:0:
356,34,17657,22,0,P|421:28|470:73,2,135,6|0|0,3:1|3:0|1:0,0:0:0:0:
323,165,19063,2,0,L|326:300,1,135,0|0,3:0|3:0,0:0:0:0:
240,272,19844,1,0,1:0:0:0:
175,334,20157,6,0,P|113:358|51:336,1,135,2|0,3:3|3:0,0:0:0:0:
25,250,20938,1,0,1:0:0:0:
123,157,21407,2,0,L|120:67,1,89.9999999999999,0|0,3:0|1:0,0:0:0:0:
198,21,22032,1,0,3:0:0:0:
281,53,22344,1,0,1:0:0:0:
366,25,22657,6,0,P|432:23|487:61,2,135,6|0|0,3:3|3:0|1:0,0:0:0:0:
294,139,24063,1,0,3:0:0:0:
364,194,24375,2,0,L|359:283,1,89.9999999999999,0|0,3:0|1:0,0:0:0:0:
236,340,25157,22,0,L|228:205,2,135,2|0|0,3:3|3:0|1:0,0:0:0:0:
145,336,26407,1,0,3:0:0:0:
68,383,26719,2,0,P|55:340|64:296,1,89.9999999999999,0|0,1:0|3:0,0:0:0:0:
111,220,27344,1,0,1:0:0:0:
157,143,27657,102,0,L|336:152,1,180,6|0,3:1|1:0,0:0:0:0:
416,110,28594,1,0,3:0:0:0:
473,177,28907,2,0,P|509:258|479:340,1,180,0|0,3:0|1:0,0:0:0:0:
303,377,30157,6,0,L|123:367,1,180,2|0,3:3|1:0,0:0:0:0:
66,298,31094,1,0,3:0:0:0:
139,246,31407,2,0,B|188:207|188:207|178:90,1,180,0|0,3:0|1:0,0:0:0:0:
355,56,32657,102,0,B|362:145,2,89.9999999999999,6|0|0,3:3|3:0|1:0,0:0:0:0:
433,11,33594,1,0,3:0:0:0:
512,56,33907,2,0,B|496:235,1,180,0|0,3:0|1:0,0:0:0:0:
433,299,34844,1,0,3:0:0:0:
361,242,35157,6,0,P|318:233|275:245,1,89.9999999999999,2|0,3:3|3:0,0:0:0:0:
211,309,35782,2,0,P|168:321|124:311,1,89.9999999999999,0|0,3:0|3:0,0:0:0:0:
56,252,36407,1,0,1:0:0:0:
115,184,36719,1,0,3:0:0:0:
46,125,37032,2,0,L|45:35,1,89.9999999999999,0|0,1:0|0:0,0:0:0:0:
133,15,37657,37,6,3:1:0:0:
256,192,37813,12,0,41407,0:0:0:0:
272,24,42657,102,0,P|422:41|494:174,1,315,6|2,0:1|0:2,0:0:0:0:
240,360,45157,2,0,P|89:342|17:209,1,315,2|2,0:2|0:2,0:0:0:0:
214,100,47032,1,2,0:2:0:0:
383,163,47657,6,0,P|501:84|364:50,1,360,2|0,0:3|0:0,0:0:0:0:
362,52,50157,2,0,L|227:43,1,135,2|2,0:2|0:2,0:0:0:0:
164,107,50938,1,2,0:2:0:0:
198,238,51407,2,0,L|287:232,2,89.9999999999999,2|2|2,0:2|0:2|0:2,0:0:0:0:
17,209,52657,102,0,P|89:342|240:360,1,315,2|2,0:3|0:2,0:0:0:0:
489,167,54844,1,2,0:2:0:0:
414,114,55157,2,0,P|399:179|430:237,2,135,2|2|2,0:2|0:2|0:2,0:0:0:0:
350,51,56407,2,0,L|260:57,1,89.9999999999999,2|2,0:2|0:2,0:0:0:0:
246,146,57032,2,0,L|156:152,1,89.9999999999999,2|2,0:2|0:2,0:0:0:0:
256,192,57657,12,2,60157,0:3:0:0:
369,290,62657,22,0,P|434:283|488:321,2,135,6|0|2,3:1|3:0|1:2,0:0:0:0:
303,351,63907,1,0,3:0:0:0:
229,298,64219,2,0,L|233:118,1,180,0|2,1:0|1:2,0:0:0:0:
190,38,65157,6,0,P|255:31|309:69,2,135,2|0|2,3:3|3:0|1:2,0:0:0:0:
122,97,66407,1,0,3:0:0:0:
34,77,66719,2,0,L|38:256,1,180,0|2,1:0|1:2,0:0:0:0:
63,342,67657,6,0,P|130:337|178:291,1,135,6|4,1:1|1:2,0:0:0:0:
287,212,68594,2,0,P|353:217|401:263,2,135,4|4|4,1:2|1:2|1:2,0:0:0:0:
139,316,70157,85,6,1:3:0:0:
79,249,70469,1,2,1:2:0:0:
129,174,70782,2,0,L|124:84,1,89.9999999999999,2|2,1:2|3:2,0:0:0:0:
179,12,71407,2,0,P|115:-5|56:23,2,135,6|6|6,1:2|1:2|1:2,0:0:0:0:
259,52,72657,6,0,P|322:69|381:40,2,135,6|0|0,3:1|3:0|1:0,0:0:0:0:
179,12,73907,1,0,3:0:0:0:
124,84,74219,2,0,L|133:263,1,180,0|2,1:0|1:2,0:0:0:0:
195,327,75157,22,0,P|158:350|113:349,2,89.9999999999999,2|2|2,3:3|1:2|3:2,0:0:0:0:
261,264,76094,1,2,1:2:0:0:
333,316,76407,2,0,L|422:311,1,89.9999999999999,2|2,3:2|1:2,0:0:0:0:
495,258,77032,2,0,P|501:213|484:172,1,89.9999999999999,2|2,3:2|1:2,0:0:0:0:
420,109,77657,6,0,L|285:116,1,135,6|4,1:1|1:2,0:0:0:0:
174,193,78594,2,0,L|39:185,2,135,4|4|4,1:2|1:2|1:2,0:0:0:0:
266,347,80157,5,6,1:3:0:0:
354,331,80469,1,0,1:0:0:0:
442,315,80782,2,0,L|437:225,1,89.9999999999999,2|0,1:2|3:0,0:0:0:0:
365,170,81407,2,0,L|372:35,2,135,6|6|4,1:2|1:2|1:2,0:0:0:0:
304,236,82657,38,0,P|260:248|216:240,1,89.9999999999999,6|0,3:1|1:0,0:0:0:0:
150,179,83282,2,0,P|88:199|66:261,2,135,0|2|0,3:0|3:1|1:0,0:0:0:0:
231,140,84532,1,0,3:0:0:0:
188,60,84844,1,2,1:1:0:0:
267,16,85157,6,0,P|311:20|348:44,1,89.9999999999999,2|0,3:3|1:0,0:0:0:0:
389,124,85782,2,0,P|455:119|511:82,2,135,0|2|0,3:0|3:1|1:0,0:0:0:0:
332,193,87032,1,2,3:1:0:0:
363,277,87344,1,2,1:1:0:0:
327,359,87657,54,0,P|262:375|197:357,1,135,6|6,1:1|1:2,0:0:0:0:
146,232,88594,2,0,P|81:214|16:230,2,135,6|6|6,1:2|1:2|1:2,0:0:0:0:
256,89,90157,37,6,1:3:0:0:
345,81,90469,1,2,1:1:0:0:
434,73,90782,2,0,L|431:162,1,89.9999999999999,2|2,1:1|3:1,0:0:0:0:
365,224,91407,2,0,P|429:214|479:257,2,135,6|6|6,1:2|1:2|1:2,0:0:0:0:
303,290,92657,70,0,P|261:303|217:296,1,89.9999999999999,6|0,3:1|1:0,0:0:0:0:
153,232,93282,2,0,L|19:250,2,135,0|2|0,3:0|3:1|1:0,0:0:0:0:
216,167,94532,1,0,3:0:0:0:
157,98,94844,1,2,1:1:0:0:
227,41,95157,38,0,P|271:34|314:46,1,89.9999999999999,2|0,3:3|1:0,0:0:0:0:
379,109,95782,2,0,L|375:198,1,89.9999999999999,2|0,3:1|1:0,0:0:0:0:
417,280,96407,1,2,3:1:0:0:
335,321,96719,1,0,1:0:0:0:
293,239,97032,2,0,P|248:231|205:243,1,89.9999999999999,2|0,3:1|1:0,0:0:0:0:
149,314,97657,70,0,P|115:257|130:193,1,135,6|6,1:1|1:2,0:0:0:0:
247,124,98594,2,0,P|262:59|228:3,2,135,4|4|6,1:2|1:2|1:2,0:0:0:0:
295,297,100157,37,6,1:3:0:0:
381,273,100469,1,0,1:0:0:0:
467,248,100782,2,0,P|474:203|462:160,1,89.9999999999999,0|0,1:0|3:0,0:0:0:0:
391,104,101407,2,0,P|447:70|511:85,2,135,6|4|4,1:2|1:2|1:2,0:0:0:0:
325,166,102657,6,0,P|260:181|204:147,1,135,6|0,3:1|3:0,0:0:0:0:
153,73,103438,1,0,1:0:0:0:
59,226,104063,1,0,3:0:0:0:
100,306,104375,2,0,L|234:296,1,135,0|0,3:0|1:0,0:0:0:0:
308,347,105157,102,0,P|323:282|289:226,1,135,0|0,3:0|3:0,0:0:0:0:
207,189,105938,1,0,1:0:0:0:
343,71,106563,1,0,3:0:0:0:
259,32,106875,2,0,L|124:41,1,135,0|0,3:0|1:0,0:0:0:0:
38,68,107657,6,0,P|19:132|40:196,1,135,6|4,1:3|1:2,0:0:0:0:
117,243,108438,1,4,1:2:0:0:
274,155,109063,1,4,1:2:0:0:
350,201,109375,2,0,L|344:335,1,135,0|0,1:0|3:0,0:0:0:0:
432,353,110157,22,0,L|438:219,1,135,6|4,1:3|1:2,0:0:0:0:
506,159,110938,1,4,1:2:0:0:
388,23,111563,1,4,1:2:0:0:
320,82,111875,2,0,P|258:105|197:81,1,135,0|0,1:0|3:0,0:0:0:0:
259,15,112657,53,6,1:3:0:0:
