osu file format v14

[General]
AudioFilename: audio.mp3
AudioLeadIn: 0
PreviewTime: 83611
Countdown: 0
SampleSet: Normal
StackLeniency: 0.7
Mode: 1
LetterboxInBreaks: 0
WidescreenStoryboard: 0

[Editor]
Bookmarks: 1424,11424,21424,31424,41424,51424,61424,71424,83924,102674,103924,123924,128924
DistanceSpacing: 1
BeatDivisor: 4
GridSize: 32
TimelineZoom: 1.9

[Metadata]
Title:Absent Color
TitleUnicode:Absent Color
Artist:Sound Souler
ArtistUnicode:Sound Souler
Creator:eiri-
Version:Oni
Source:OverRapid
Tags:Ayyri Trynna Video Game Instrumental Electronic Featured Artist FA Colour
BeatmapID:2436581
BeatmapSetID:1167827

[Difficulty]
HPDrainRate:5
CircleSize:2
OverallDifficulty:5.5
ApproachRate:10
SliderMultiplier:1.4
SliderTickRate:1

[Events]
//Background and Video events
0,0,"Absent Color.jpg",0,50
//Break Periods
//Storyboard Layer 0 (Background)
//Storyboard Layer 1 (Fail)
//Storyboard Layer 2 (Pass)
//Storyboard Layer 3 (Foreground)
//Storyboard Layer 4 (Overlay)
//Storyboard Sound Samples

[TimingPoints]
1424,312.5,4,1,0,50,1,0
1424,-125,4,1,0,50,0,0
5759,-123.456790123457,4,1,0,50,0,0
5915,-121.951219512195,4,1,0,50,0,0
6071,-120.481927710843,4,1,0,50,0,0
6227,-119.047619047619,4,1,0,50,0,0
6384,-117.647058823529,4,1,0,50,0,0
11071,-116.279069767442,4,1,0,50,0,0
11227,-114.942528735632,4,1,0,50,0,0
11384,-111.111111111111,4,1,0,75,0,0
21071,-105.263157894737,4,1,0,75,0,0
21227,-103.092783505155,4,1,0,75,0,0
21384,-100,4,1,0,100,0,0
41384,-95.2380952380952,4,1,0,100,0,0
60134,-100,4,1,0,100,0,0
60368,-103.092783505155,4,1,0,100,0,0
60602,-105.263157894737,4,1,0,100,0,0
60837,-107.52688172043,4,1,0,100,0,0
61071,-111.111111111111,4,1,0,100,0,0
61384,-125,4,1,0,100,0,0
62634,-125,4,1,0,50,0,0
71384,-111.111111111111,4,1,0,75,0,0
80134,-114.942528735632,4,1,0,75,0,0
80446,-117.647058823529,4,1,0,65,0,0
80759,-120.481927710843,4,1,0,55,0,0
81071,-125,4,1,0,45,0,0
81384,-133.333333333333,4,1,0,30,0,0
83571,-80,4,1,0,100,0,0
83924,-95.2380952380952,4,1,0,100,0,1
102674,-95.2380952380952,4,1,0,100,0,0
103415,-97.0873786407767,4,1,0,100,0,0
103571,-95.2380952380952,4,1,0,100,0,0
103767,-93.4579439252336,4,1,0,100,0,0
103924,-90.9090909090909,4,1,0,100,0,1
122634,-88.4955752212389,4,1,0,100,0,1
122868,-86.9565217391304,4,1,0,100,0,1
123102,-85.4700854700855,4,1,0,100,0,1
123259,-83.3333333333333,4,1,0,100,0,1
123493,-81.3008130081301,4,1,0,100,0,1
123727,-80,4,1,0,100,0,1
123924,-76.9230769230769,4,1,0,100,0,0
124197,-76.9230769230769,4,1,0,95,0,0
124509,-76.9230769230769,4,1,0,90,0,0
124822,-76.9230769230769,4,1,0,85,0,0
125134,-76.9230769230769,4,1,0,80,0,0
125447,-76.9230769230769,4,1,0,75,0,0
125759,-76.9230769230769,4,1,0,70,0,0
126072,-76.9230769230769,4,1,0,65,0,0
126384,-76.9230769230769,4,1,0,60,0,0
126697,-76.9230769230769,4,1,0,55,0,0
127009,-76.9230769230769,4,1,0,50,0,0
127322,-76.9230769230769,4,1,0,45,0,0
127634,-76.9230769230769,4,1,0,40,0,0
127947,-76.9230769230769,4,1,0,30,0,0
128259,-76.9230769230769,4,1,0,20,0,0
128572,-76.9230769230769,4,1,0,10,0,0
128884,-76.9230769230769,4,1,0,5,0,0

[HitObjects]
256,192,1424,5,0,0:0:0:0:
256,192,1580,1,8,0:0:0:0:
256,192,1736,1,8,0:0:0:0:
256,192,1892,1,0,0:0:0:0:
256,192,2205,1,0,0:0:0:0:
256,192,2361,1,8,0:0:0:0:
256,192,2517,1,0,0:0:0:0:
256,192,2674,1,8,0:0:0:0:
256,192,2986,1,0,0:0:0:0:
256,192,3142,1,0,0:0:0:0:
256,192,3299,1,8,0:0:0:0:
256,192,3455,1,8,0:0:0:0:
256,192,3611,1,0,0:0:0:0:
256,192,3767,1,8,0:0:0:0:
256,192,3924,1,0,0:0:0:0:
256,192,4080,1,8,0:0:0:0:
256,192,4236,1,8,0:0:0:0:
256,192,4392,1,0,0:0:0:0:
256,192,4705,1,0,0:0:0:0:
256,192,4861,1,8,0:0:0:0:
256,192,5017,1,0,0:0:0:0:
256,192,5174,1,8,0:0:0:0:
256,192,5330,1,8,0:0:0:0:
256,192,5486,1,0,0:0:0:0:
256,192,5642,1,8,0:0:0:0:
256,192,5799,1,0,0:0:0:0:
256,192,5955,1,8,0:0:0:0:
256,192,6111,1,0,0:0:0:0:
256,192,6267,1,0,0:0:0:0:
256,192,6424,1,8,0:0:0:0:
256,192,6580,1,0,0:0:0:0:
256,192,6736,1,0,0:0:0:0:
256,192,6892,1,8,0:0:0:0:
256,192,7205,1,0,0:0:0:0:
256,192,7361,1,8,0:0:0:0:
256,192,7517,1,0,0:0:0:0:
256,192,7674,1,8,0:0:0:0:
256,192,7830,1,8,0:0:0:0:
256,192,7986,1,8,0:0:0:0:
256,192,8142,1,0,0:0:0:0:
256,192,8299,1,8,0:0:0:0:
256,192,8455,1,0,0:0:0:0:
256,192,8611,1,8,0:0:0:0:
256,192,8767,1,8,0:0:0:0:
256,192,8924,1,0,0:0:0:0:
256,192,9080,1,8,0:0:0:0:
256,192,9392,1,8,0:0:0:0:
256,192,9705,1,0,0:0:0:0:
256,192,10017,1,8,0:0:0:0:
256,192,10642,1,8,0:0:0:0:
256,192,11111,1,8,0:0:0:0:
256,192,11267,1,0,0:0:0:0:
256,192,11424,1,12,0:0:0:0:
256,192,11580,1,0,0:0:0:0:
256,192,11736,1,0,0:0:0:0:
256,192,11892,1,8,0:0:0:0:
256,192,12205,1,8,0:0:0:0:
256,192,12361,1,8,0:0:0:0:
256,192,12517,1,0,0:0:0:0:
256,192,12674,1,8,0:0:0:0:
256,192,12986,1,0,0:0:0:0:
256,192,13142,1,0,0:0:0:0:
256,192,13220,1,0,0:0:0:0:
256,192,13299,1,8,0:0:0:0:
256,192,13455,1,0,0:0:0:0:
256,192,13611,1,8,0:0:0:0:
256,192,13767,1,0,0:0:0:0:
256,192,13845,1,0,0:0:0:0:
256,192,13924,1,0,0:0:0:0:
256,192,14080,1,8,0:0:0:0:
256,192,14236,1,8,0:0:0:0:
256,192,14392,1,0,0:0:0:0:
256,192,14705,1,8,0:0:0:0:
256,192,14861,1,0,0:0:0:0:
256,192,14939,1,0,0:0:0:0:
256,192,15017,1,0,0:0:0:0:
256,192,15174,1,8,0:0:0:0:
256,192,15330,1,0,0:0:0:0:
256,192,15486,1,8,0:0:0:0:
256,192,15642,1,8,0:0:0:0:
256,192,15799,1,0,0:0:0:0:
256,192,15955,1,0,0:0:0:0:
256,192,16111,1,8,0:0:0:0:
256,192,16267,1,0,0:0:0:0:
256,192,16424,1,0,0:0:0:0:
256,192,16580,1,8,0:0:0:0:
256,192,16736,1,8,0:0:0:0:
256,192,16892,1,0,0:0:0:0:
256,192,17205,1,8,0:0:0:0:
256,192,17361,1,0,0:0:0:0:
256,192,17517,1,0,0:0:0:0:
256,192,17674,1,8,0:0:0:0:
256,192,17830,1,8,0:0:0:0:
256,192,17986,1,0,0:0:0:0:
256,192,18142,1,0,0:0:0:0:
256,192,18220,1,0,0:0:0:0:
256,192,18299,1,8,0:0:0:0:
256,192,18455,1,0,0:0:0:0:
256,192,18611,1,8,0:0:0:0:
256,192,18767,1,8,0:0:0:0:
256,192,18845,1,8,0:0:0:0:
256,192,18924,1,0,0:0:0:0:
256,192,19080,1,8,0:0:0:0:
256,192,19392,1,0,0:0:0:0:
256,192,19705,1,8,0:0:0:0:
256,192,20017,1,8,0:0:0:0:
256,192,20174,1,0,0:0:0:0:
256,192,20642,1,8,0:0:0:0:
256,192,20799,1,0,0:0:0:0:
256,192,21111,1,0,0:0:0:0:
256,192,21267,1,8,0:0:0:0:
256,192,21424,1,4,0:0:0:0:
256,192,21736,1,8,0:0:0:0:
256,192,21892,1,0,0:0:0:0:
256,192,22205,1,8,0:0:0:0:
256,192,22361,1,8,0:0:0:0:
256,192,22517,1,0,0:0:0:0:
256,192,22674,1,0,0:0:0:0:
256,192,22752,1,0,0:0:0:0:
256,192,22830,1,0,0:0:0:0:
256,192,22986,1,8,0:0:0:0:
256,192,23142,1,0,0:0:0:0:
256,192,23455,1,8,0:0:0:0:
256,192,23611,1,8,0:0:0:0:
256,192,23767,1,0,0:0:0:0:
256,192,23924,1,0,0:0:0:0:
256,192,24236,1,8,0:0:0:0:
256,192,24392,1,0,0:0:0:0:
256,192,24705,1,8,0:0:0:0:
256,192,24861,1,8,0:0:0:0:
256,192,25017,1,0,0:0:0:0:
256,192,25174,1,0,0:0:0:0:
256,192,25330,1,8,0:0:0:0:
256,192,25486,1,8,0:0:0:0:
256,192,25642,1,0,0:0:0:0:
256,192,25955,1,8,0:0:0:0:
256,192,26111,1,8,0:0:0:0:
256,192,26267,1,0,0:0:0:0:
256,192,26424,1,0,0:0:0:0:
256,192,26736,1,8,0:0:0:0:
256,192,26892,1,0,0:0:0:0:
256,192,27205,1,8,0:0:0:0:
256,192,27361,1,8,0:0:0:0:
256,192,27517,1,0,0:0:0:0:
256,192,27674,1,0,0:0:0:0:
256,192,27752,1,0,0:0:0:0:
256,192,27830,1,0,0:0:0:0:
256,192,27986,1,8,0:0:0:0:
256,192,28142,1,0,0:0:0:0:
256,192,28455,1,8,0:0:0:0:
256,192,28611,1,8,0:0:0:0:
256,192,28767,1,0,0:0:0:0:
256,192,28924,1,0,0:0:0:0:
256,192,29236,1,8,0:0:0:0:
256,192,29392,1,0,0:0:0:0:
256,192,29705,1,8,0:0:0:0:
256,192,29861,1,8,0:0:0:0:
256,192,30017,1,0,0:0:0:0:
256,192,30174,1,0,0:0:0:0:
256,192,30330,1,0,0:0:0:0:
256,192,30486,1,8,0:0:0:0:
256,192,30642,1,0,0:0:0:0:
256,192,30955,1,8,0:0:0:0:
256,192,31111,1,8,0:0:0:0:
256,192,31267,1,0,0:0:0:0:
256,192,31424,1,12,0:0:0:0:
256,192,31736,1,8,0:0:0:0:
256,192,31892,1,0,0:0:0:0:
256,192,32205,1,8,0:0:0:0:
256,192,32361,1,8,0:0:0:0:
256,192,32517,1,0,0:0:0:0:
256,192,32674,1,0,0:0:0:0:
256,192,32752,1,0,0:0:0:0:
256,192,32830,1,0,0:0:0:0:
256,192,32986,1,8,0:0:0:0:
256,192,33142,1,0,0:0:0:0:
256,192,33455,1,8,0:0:0:0:
256,192,33611,1,8,0:0:0:0:
256,192,33767,1,0,0:0:0:0:
256,192,33924,1,0,0:0:0:0:
256,192,34236,1,8,0:0:0:0:
256,192,34392,1,0,0:0:0:0:
256,192,34705,1,8,0:0:0:0:
256,192,34861,1,8,0:0:0:0:
256,192,35017,1,0,0:0:0:0:
256,192,35174,1,0,0:0:0:0:
256,192,35330,1,8,0:0:0:0:
256,192,35486,1,8,0:0:0:0:
256,192,35642,1,0,0:0:0:0:
256,192,35955,1,8,0:0:0:0:
256,192,36111,1,8,0:0:0:0:
256,192,36267,1,0,0:0:0:0:
256,192,36424,1,0,0:0:0:0:
256,192,36736,1,8,0:0:0:0:
256,192,36892,1,0,0:0:0:0:
256,192,37205,1,8,0:0:0:0:
256,192,37361,1,8,0:0:0:0:
256,192,37517,1,0,0:0:0:0:
256,192,37674,1,0,0:0:0:0:
256,192,37752,1,0,0:0:0:0:
256,192,37830,1,0,0:0:0:0:
256,192,37986,1,8,0:0:0:0:
256,192,38142,1,0,0:0:0:0:
256,192,38455,1,0,0:0:0:0:
256,192,38611,1,8,0:0:0:0:
256,192,38767,1,0,0:0:0:0:
256,192,38924,1,0,0:0:0:0:
256,192,39080,8,0,40017,0:0:0:0:
256,192,40174,5,8,0:0:0:0:
256,192,40799,1,0,0:0:0:0:
256,192,41111,1,12,0:0:0:0:
256,192,41424,1,4,0:0:0:0:
256,192,41580,1,0,0:0:0:0:
256,192,41736,1,8,0:0:0:0:
256,192,41892,1,0,0:0:0:0:
256,192,42205,1,8,0:0:0:0:
256,192,42283,1,8,0:0:0:0:
256,192,42361,1,0,0:0:0:0:
256,192,42517,1,0,0:0:0:0:
256,192,42674,1,8,0:0:0:0:
256,192,42830,1,0,0:0:0:0:
256,192,42986,1,0,0:0:0:0:
256,192,43142,1,8,0:0:0:0:
256,192,43455,1,8,0:0:0:0:
256,192,43533,1,8,0:0:0:0:
256,192,43611,1,8,0:0:0:0:
256,192,43767,1,0,0:0:0:0:
256,192,43924,1,8,0:0:0:0:
256,192,44080,1,0,0:0:0:0:
256,192,44236,1,8,0:0:0:0:
256,192,44392,1,0,0:0:0:0:
256,192,44705,1,8,0:0:0:0:
256,192,44783,1,8,0:0:0:0:
256,192,44861,1,0,0:0:0:0:
256,192,45017,1,0,0:0:0:0:
256,192,45174,1,8,0:0:0:0:
256,192,45330,1,0,0:0:0:0:
256,192,45486,1,0,0:0:0:0:
256,192,45642,1,8,0:0:0:0:
256,192,45955,1,8,0:0:0:0:
256,192,46033,1,8,0:0:0:0:
256,192,46111,1,8,0:0:0:0:
256,192,46267,1,0,0:0:0:0:
256,192,46424,1,8,0:0:0:0:
256,192,46580,1,0,0:0:0:0:
256,192,46736,1,8,0:0:0:0:
256,192,46892,1,0,0:0:0:0:
256,192,47205,1,8,0:0:0:0:
256,192,47283,1,8,0:0:0:0:
256,192,47361,1,0,0:0:0:0:
256,192,47517,1,0,0:0:0:0:
256,192,47674,1,8,0:0:0:0:
256,192,47830,1,0,0:0:0:0:
256,192,47986,1,0,0:0:0:0:
256,192,48142,1,8,0:0:0:0:
256,192,48455,1,8,0:0:0:0:
256,192,48533,1,8,0:0:0:0:
256,192,48611,1,8,0:0:0:0:
256,192,48767,1,0,0:0:0:0:
256,192,48924,1,8,0:0:0:0:
256,192,49080,1,0,0:0:0:0:
256,192,49236,1,8,0:0:0:0:
256,192,49392,1,0,0:0:0:0:
256,192,49705,1,8,0:0:0:0:
256,192,49783,1,8,0:0:0:0:
256,192,49861,1,0,0:0:0:0:
256,192,50017,1,0,0:0:0:0:
256,192,50174,1,8,0:0:0:0:
256,192,50330,1,0,0:0:0:0:
256,192,50486,1,0,0:0:0:0:
256,192,50642,1,8,0:0:0:0:
256,192,50720,1,8,0:0:0:0:
256,192,50799,1,0,0:0:0:0:
256,192,50955,1,8,0:0:0:0:
256,192,51033,1,8,0:0:0:0:
256,192,51111,1,8,0:0:0:0:
256,192,51267,1,0,0:0:0:0:
256,192,51424,1,12,0:0:0:0:
256,192,51580,1,0,0:0:0:0:
256,192,51736,1,8,0:0:0:0:
256,192,51892,1,0,0:0:0:0:
256,192,52205,1,8,0:0:0:0:
256,192,52283,1,8,0:0:0:0:
256,192,52361,1,8,0:0:0:0:
256,192,52517,1,0,0:0:0:0:
256,192,52674,1,8,0:0:0:0:
256,192,52830,1,0,0:0:0:0:
256,192,52986,1,0,0:0:0:0:
256,192,53142,1,8,0:0:0:0:
256,192,53455,1,8,0:0:0:0:
256,192,53533,1,8,0:0:0:0:
256,192,53611,1,8,0:0:0:0:
256,192,53767,1,0,0:0:0:0:
256,192,53924,1,8,0:0:0:0:
256,192,54080,1,0,0:0:0:0:
256,192,54236,1,8,0:0:0:0:
256,192,54392,1,0,0:0:0:0:
256,192,54705,1,8,0:0:0:0:
256,192,54783,1,8,0:0:0:0:
256,192,54861,1,8,0:0:0:0:
256,192,55017,1,0,0:0:0:0:
256,192,55174,1,8,0:0:0:0:
256,192,55330,1,0,0:0:0:0:
256,192,55486,1,0,0:0:0:0:
256,192,55642,1,8,0:0:0:0:
256,192,55955,1,8,0:0:0:0:
256,192,56033,1,8,0:0:0:0:
256,192,56111,1,8,0:0:0:0:
256,192,56267,1,0,0:0:0:0:
256,192,56424,1,8,0:0:0:0:
256,192,56580,1,0,0:0:0:0:
256,192,56736,1,8,0:0:0:0:
256,192,56892,1,0,0:0:0:0:
256,192,57205,1,8,0:0:0:0:
256,192,57283,1,8,0:0:0:0:
256,192,57361,1,8,0:0:0:0:
256,192,57517,1,0,0:0:0:0:
256,192,57674,1,8,0:0:0:0:
256,192,57830,1,0,0:0:0:0:
256,192,57986,1,0,0:0:0:0:
256,192,58142,1,8,0:0:0:0:
256,192,58455,1,8,0:0:0:0:
256,192,58533,1,8,0:0:0:0:
256,192,58611,1,8,0:0:0:0:
256,192,58767,1,0,0:0:0:0:
256,192,58924,1,8,0:0:0:0:
256,192,59080,1,0,0:0:0:0:
256,192,59236,1,0,0:0:0:0:
256,192,59392,1,0,0:0:0:0:
256,192,59549,1,0,0:0:0:0:
256,192,59705,1,8,0:0:0:0:
256,192,59783,1,8,0:0:0:0:
256,192,59861,1,8,0:0:0:0:
256,192,60017,1,0,0:0:0:0:
256,192,60174,1,8,0:0:0:0:
256,192,60408,1,8,0:0:0:0:
256,192,60642,1,8,0:0:0:0:
256,192,60877,1,8,0:0:0:0:
256,192,61111,1,8,0:0:0:0:
256,192,61424,1,12,0:0:0:0:
256,192,62674,1,0,0:0:0:0:
256,192,63924,1,0,0:0:0:0:
256,192,65174,1,0,0:0:0:0:
256,192,66424,1,0,0:0:0:0:
256,192,67674,1,0,0:0:0:0:
256,192,68924,1,0,0:0:0:0:
256,192,70174,1,0,0:0:0:0:
256,192,71424,1,8,0:0:0:0:
256,192,71736,1,0,0:0:0:0:
256,192,72049,1,0,0:0:0:0:
256,192,72205,1,8,0:0:0:0:
256,192,72517,1,8,0:0:0:0:
256,192,72674,1,0,0:0:0:0:
256,192,72986,1,8,0:0:0:0:
256,192,73299,1,0,0:0:0:0:
256,192,73611,1,8,0:0:0:0:
256,192,73924,1,0,0:0:0:0:
256,192,74236,1,0,0:0:0:0:
256,192,74392,1,8,0:0:0:0:
256,192,74705,1,8,0:0:0:0:
256,192,75017,1,8,0:0:0:0:
256,192,75174,1,0,0:0:0:0:
256,192,75486,1,8,0:0:0:0:
256,192,75799,1,0,0:0:0:0:
256,192,76111,1,8,0:0:0:0:
256,192,76424,1,0,0:0:0:0:
256,192,76736,1,8,0:0:0:0:
256,192,77049,1,8,0:0:0:0:
256,192,77205,1,8,0:0:0:0:
256,192,77517,1,8,0:0:0:0:
256,192,77986,1,8,0:0:0:0:
256,192,78299,1,8,0:0:0:0:
256,192,78455,1,8,0:0:0:0:
256,192,78767,1,8,0:0:0:0:
256,192,79236,1,8,0:0:0:0:
256,192,79549,1,0,0:0:0:0:
256,192,79861,1,8,0:0:0:0:
256,192,80174,1,0,0:0:0:0:
256,192,80486,1,0,0:0:0:0:
256,192,80799,1,0,0:0:0:0:
256,192,81111,1,8,0:0:0:0:
256,192,81424,8,0,82986,0:0:0:0:
256,192,83611,5,12,0:0:0:0:
256,192,83924,1,4,0:0:0:0:
256,192,84080,1,8,0:0:0:0:
256,192,84236,1,8,0:0:0:0:
256,192,84392,1,0,0:0:0:0:
256,192,84705,1,0,0:0:0:0:
256,192,84861,1,8,0:0:0:0:
256,192,85017,1,0,0:0:0:0:
256,192,85174,1,0,0:0:0:0:
256,192,85252,1,0,0:0:0:0:
256,192,85330,1,0,0:0:0:0:
256,192,85486,1,8,0:0:0:0:
256,192,85642,1,0,0:0:0:0:
256,192,85799,1,8,0:0:0:0:
256,192,85877,1,0,0:0:0:0:
256,192,85955,1,8,0:0:0:0:
256,192,86111,1,8,0:0:0:0:
256,192,86267,1,8,0:0:0:0:
256,192,86424,1,0,0:0:0:0:
256,192,86736,1,8,0:0:0:0:
256,192,86892,1,0,0:0:0:0:
256,192,87205,1,0,0:0:0:0:
256,192,87361,1,8,0:0:0:0:
256,192,87517,1,8,0:0:0:0:
256,192,87674,1,0,0:0:0:0:
256,192,87830,1,0,0:0:0:0:
256,192,87986,1,8,0:0:0:0:
256,192,88142,1,8,0:0:0:0:
256,192,88299,1,0,0:0:0:0:
256,192,88455,1,0,0:0:0:0:
256,192,88533,1,0,0:0:0:0:
256,192,88611,1,8,0:0:0:0:
256,192,88767,1,8,0:0:0:0:
256,192,88924,1,0,0:0:0:0:
256,192,89080,1,8,0:0:0:0:
256,192,89236,1,8,0:0:0:0:
256,192,89392,1,0,0:0:0:0:
256,192,89705,1,0,0:0:0:0:
256,192,89861,1,8,0:0:0:0:
256,192,90017,1,0,0:0:0:0:
256,192,90174,1,8,0:0:0:0:
256,192,90252,1,8,0:0:0:0:
256,192,90330,1,8,0:0:0:0:
256,192,90486,1,8,0:0:0:0:
256,192,90642,1,0,0:0:0:0:
256,192,90799,1,8,0:0:0:0:
256,192,90955,1,0,0:0:0:0:
256,192,91111,1,8,0:0:0:0:
256,192,91267,1,8,0:0:0:0:
256,192,91424,1,0,0:0:0:0:
256,192,91580,1,8,0:0:0:0:
256,192,91892,1,0,0:0:0:0:
256,192,92205,1,8,0:0:0:0:
256,192,92361,1,0,0:0:0:0:
256,192,92674,1,8,0:0:0:0:
256,192,92830,1,0,0:0:0:0:
256,192,92986,1,0,0:0:0:0:
256,192,93142,1,8,0:0:0:0:
256,192,93299,1,0,0:0:0:0:
256,192,93455,1,8,0:0:0:0:
256,192,93611,1,0,0:0:0:0:
256,192,93767,1,8,0:0:0:0:
256,192,93924,1,4,0:0:0:0:
256,192,94080,1,8,0:0:0:0:
256,192,94236,1,8,0:0:0:0:
256,192,94392,1,8,0:0:0:0:
256,192,94470,1,8,0:0:0:0:
256,192,94549,1,0,0:0:0:0:
256,192,94705,1,0,0:0:0:0:
256,192,94861,1,8,0:0:0:0:
256,192,95017,1,0,0:0:0:0:
256,192,95174,1,0,0:0:0:0:
256,192,95486,1,8,0:0:0:0:
256,192,95642,1,8,0:0:0:0:
256,192,95720,1,0,0:0:0:0:
256,192,95799,1,8,0:0:0:0:
256,192,95955,1,0,0:0:0:0:
256,192,96111,1,8,0:0:0:0:
256,192,96267,1,8,0:0:0:0:
256,192,96424,1,0,0:0:0:0:
256,192,96736,1,8,0:0:0:0:
256,192,96892,1,0,0:0:0:0:
256,192,97205,1,0,0:0:0:0:
256,192,97361,1,8,0:0:0:0:
256,192,97439,1,0,0:0:0:0:
256,192,97517,1,8,0:0:0:0:
256,192,97674,1,0,0:0:0:0:
256,192,97830,1,0,0:0:0:0:
256,192,97986,1,8,0:0:0:0:
256,192,98142,1,8,0:0:0:0:
256,192,98299,1,0,0:0:0:0:
256,192,98455,1,8,0:0:0:0:
256,192,98533,1,8,0:0:0:0:
256,192,98611,1,0,0:0:0:0:
256,192,98767,1,8,0:0:0:0:
256,192,98924,1,0,0:0:0:0:
256,192,99236,1,0,0:0:0:0:
256,192,99392,1,0,0:0:0:0:
256,192,99470,1,8,0:0:0:0:
256,192,99549,1,0,0:0:0:0:
256,192,99705,1,0,0:0:0:0:
256,192,99861,1,8,0:0:0:0:
256,192,100017,1,0,0:0:0:0:
256,192,100174,1,0,0:0:0:0:
256,192,100486,1,0,0:0:0:0:
256,192,100642,1,0,0:0:0:0:
256,192,100720,1,8,0:0:0:0:
256,192,100799,1,0,0:0:0:0:
256,192,100955,1,0,0:0:0:0:
256,192,101111,1,8,0:0:0:0:
256,192,101267,1,0,0:0:0:0:
256,192,101424,1,8,0:0:0:0:
256,192,101580,1,8,0:0:0:0:
256,192,101736,1,0,0:0:0:0:
256,192,101892,1,8,0:0:0:0:
256,192,101970,1,8,0:0:0:0:
256,192,102049,1,0,0:0:0:0:
256,192,102205,1,0,0:0:0:0:
256,192,102361,1,8,0:0:0:0:
256,192,102517,1,8,0:0:0:0:
256,192,102674,1,0,0:0:0:0:
256,192,102986,1,8,0:0:0:0:
256,192,103142,1,0,0:0:0:0:
256,192,103455,1,8,0:0:0:0:
256,192,103611,1,0,0:0:0:0:
256,192,103767,1,8,0:0:0:0:
256,192,103924,1,4,0:0:0:0:
256,192,104236,1,8,0:0:0:0:
256,192,104549,1,0,0:0:0:0:
256,192,104705,1,8,0:0:0:0:
256,192,104861,1,0,0:0:0:0:
256,192,105017,1,0,0:0:0:0:
256,192,105174,1,8,0:0:0:0:
256,192,105252,1,8,0:0:0:0:
256,192,105330,1,8,0:0:0:0:
256,192,105486,1,0,0:0:0:0:
256,192,105799,1,8,0:0:0:0:
256,192,105955,1,0,0:0:0:0:
256,192,106111,1,8,0:0:0:0:
256,192,106189,1,8,0:0:0:0:
256,192,106267,1,0,0:0:0:0:
256,192,106424,1,0,0:0:0:0:
256,192,106580,1,0,0:0:0:0:
256,192,106736,1,8,0:0:0:0:
256,192,106892,1,0,0:0:0:0:
256,192,107205,1,0,0:0:0:0:
256,192,107361,1,8,0:0:0:0:
256,192,107517,1,0,0:0:0:0:
256,192,107674,1,0,0:0:0:0:
256,192,107752,1,0,0:0:0:0:
256,192,107830,1,0,0:0:0:0:
256,192,107986,1,8,0:0:0:0:
256,192,108142,1,0,0:0:0:0:
256,192,108299,1,8,0:0:0:0:
256,192,108455,1,0,0:0:0:0:
256,192,108611,1,8,0:0:0:0:
256,192,108689,1,8,0:0:0:0:
256,192,108767,1,8,0:0:0:0:
256,192,108924,1,0,0:0:0:0:
256,192,109236,1,8,0:0:0:0:
256,192,109549,1,8,0:0:0:0:
256,192,109705,1,0,0:0:0:0:
256,192,109783,1,0,0:0:0:0:
256,192,109861,1,0,0:0:0:0:
256,192,110017,1,8,0:0:0:0:
256,192,110174,1,0,0:0:0:0:
256,192,110486,1,8,0:0:0:0:
256,192,110642,1,0,0:0:0:0:
256,192,110799,1,8,0:0:0:0:
256,192,110955,1,0,0:0:0:0:
256,192,111033,1,0,0:0:0:0:
256,192,111111,1,0,0:0:0:0:
256,192,111267,1,8,0:0:0:0:
256,192,111424,1,0,0:0:0:0:
256,192,111580,1,0,0:0:0:0:
256,192,111736,1,8,0:0:0:0:
256,192,111814,1,8,0:0:0:0:
256,192,111892,1,8,0:0:0:0:
256,192,112049,1,0,0:0:0:0:
256,192,112205,1,8,0:0:0:0:
256,192,112361,1,0,0:0:0:0:
256,192,112517,1,0,0:0:0:0:
256,192,112595,1,0,0:0:0:0:
256,192,112674,1,8,0:0:0:0:
256,192,112830,1,0,0:0:0:0:
256,192,113142,1,8,0:0:0:0:
256,192,113299,1,0,0:0:0:0:
256,192,113455,1,8,0:0:0:0:
256,192,113611,1,0,0:0:0:0:
256,192,113767,1,8,0:0:0:0:
256,192,113924,1,4,0:0:0:0:
256,192,114236,1,8,0:0:0:0:
256,192,114392,1,8,0:0:0:0:
256,192,114470,1,8,0:0:0:0:
256,192,114549,1,0,0:0:0:0:
256,192,114705,1,8,0:0:0:0:
256,192,114861,1,0,0:0:0:0:
256,192,115017,1,0,0:0:0:0:
256,192,115174,1,8,0:0:0:0:
256,192,115252,1,8,0:0:0:0:
256,192,115330,1,8,0:0:0:0:
256,192,115486,1,0,0:0:0:0:
256,192,115642,1,0,0:0:0:0:
256,192,115720,1,0,0:0:0:0:
256,192,115799,1,8,0:0:0:0:
256,192,115955,1,0,0:0:0:0:
256,192,116111,1,8,0:0:0:0:
256,192,116267,1,0,0:0:0:0:
256,192,116424,1,0,0:0:0:0:
256,192,116736,1,8,0:0:0:0:
256,192,116892,1,8,0:0:0:0:
256,192,116970,1,8,0:0:0:0:
256,192,117049,1,0,0:0:0:0:
256,192,117205,1,0,0:0:0:0:
256,192,117361,1,8,0:0:0:0:
256,192,117517,1,0,0:0:0:0:
256,192,117674,1,0,0:0:0:0:
256,192,117752,1,0,0:0:0:0:
256,192,117830,1,0,0:0:0:0:
256,192,117986,1,8,0:0:0:0:
256,192,118142,1,0,0:0:0:0:
256,192,118299,1,8,0:0:0:0:
256,192,118455,1,8,0:0:0:0:
256,192,118611,1,0,0:0:0:0:
256,192,118767,1,0,0:0:0:0:
256,192,118924,1,12,0:0:0:0:
256,192,119080,1,8,0:0:0:0:
256,192,119392,1,8,0:0:0:0:
256,192,119549,1,0,0:0:0:0:
256,192,119705,1,8,0:0:0:0:
256,192,119861,1,0,0:0:0:0:
256,192,120017,1,0,0:0:0:0:
256,192,120174,1,8,0:0:0:0:
256,192,120330,1,8,0:0:0:0:
256,192,120486,1,0,0:0:0:0:
256,192,120642,1,8,0:0:0:0:
256,192,120799,1,0,0:0:0:0:
256,192,120955,1,8,0:0:0:0:
256,192,121111,1,0,0:0:0:0:
256,192,121267,1,0,0:0:0:0:
256,192,121424,1,8,0:0:0:0:
256,192,121580,1,8,0:0:0:0:
256,192,121736,1,0,0:0:0:0:
256,192,121892,1,8,0:0:0:0:
256,192,122049,1,0,0:0:0:0:
256,192,122205,1,8,0:0:0:0:
256,192,122283,1,8,0:0:0:0:
256,192,122361,1,8,0:0:0:0:
256,192,122517,1,0,0:0:0:0:
256,192,122674,1,12,0:0:0:0:
256,192,122908,1,12,0:0:0:0:
256,192,123142,1,12,0:0:0:0:
256,192,123299,1,12,0:0:0:0:
256,192,123533,1,12,0:0:0:0:
256,192,123767,1,12,0:0:0:0:
256,192,123924,1,4,0:0:0:0:
256,192,124080,8,0,128924,0:0:0:0:
