osu file format v14

[General]
AudioFilename: audio.mp3
AudioLeadIn: 0
PreviewTime: 83611
Countdown: 0
SampleSet: Normal
StackLeniency: 0.7
Mode: 1
LetterboxInBreaks: 0
WidescreenStoryboard: 1

[Editor]
Bookmarks: 1424,11424,21424,31424,41424,51424,61424,71424,83924,102674,103924,123924,128924
DistanceSpacing: 1
BeatDivisor: 4
GridSize: 32
TimelineZoom: 2.2

[Metadata]
Title:Absent Color
TitleUnicode:Absent Color
Artist:Sound Souler
ArtistUnicode:Sound Souler
Creator:eiri-
Version:Beginner
Source:OverRapid
Tags:Ayyri Trynna Video Game Instrumental Electronic Featured Artist FA Colour
BeatmapID:2437530
BeatmapSetID:1167827

[Difficulty]
HPDrainRate:9
CircleSize:2
OverallDifficulty:2
ApproachRate:10
SliderMultiplier:1.4
SliderTickRate:1

[Events]
//Background and Video events
0,0,"Absent Color.jpg",0,50
//Break Periods
//Storyboard Layer 0 (Background)
//Storyboard Layer 1 (Fail)
//Storyboard Layer 2 (Pass)
//Storyboard Layer 3 (Foreground)
//Storyboard Layer 4 (Overlay)
//Storyboard Sound Samples

[TimingPoints]
1424,312.5,4,1,0,50,1,0
1424,-125,4,1,0,50,0,0
5759,-120.481927710843,4,1,0,50,0,0
6384,-117.647058823529,4,1,0,50,0,0
11384,-111.111111111111,4,1,0,75,0,0
21384,-100,4,1,0,100,0,0
41384,-95.2380952380952,4,1,0,100,0,0
60134,-100,4,1,0,100,0,0
61384,-125,4,1,0,100,0,0
62634,-125,4,1,0,50,0,0
71384,-111.111111111111,4,1,0,75,0,0
80134,-114.942528735632,4,1,0,75,0,0
81071,-125,4,1,0,45,0,0
81384,-133.333333333333,4,1,0,30,0,0
83924,-100,4,1,0,100,0,1
102674,-100,4,1,0,100,0,0
103924,-100,4,1,0,100,0,1
123924,-100,4,1,0,100,0,0
124197,-100,4,1,0,95,0,0
124509,-100,4,1,0,90,0,0
124822,-100,4,1,0,85,0,0
125134,-100,4,1,0,80,0,0
125447,-100,4,1,0,75,0,0
125759,-100,4,1,0,70,0,0
126072,-100,4,1,0,65,0,0
126384,-100,4,1,0,60,0,0
126697,-100,4,1,0,55,0,0
127009,-100,4,1,0,50,0,0
127322,-100,4,1,0,45,0,0
127634,-100,4,1,0,40,0,0
127947,-100,4,1,0,30,0,0
128259,-100,4,1,0,20,0,0
128572,-100,4,1,0,10,0,0
128884,-100,4,1,0,5,0,0

[HitObjects]
256,192,1424,5,0,0:0:0:0:
256,192,2986,1,8,0:0:0:0:
256,192,3924,1,0,0:0:0:0:
256,192,5174,1,8,0:0:0:0:
256,192,5799,1,0,0:0:0:0:
256,192,6424,1,8,0:0:0:0:
256,192,7674,1,0,0:0:0:0:
256,192,8924,1,8,0:0:0:0:
256,192,10017,1,0,0:0:0:0:
256,192,10642,1,8,0:0:0:0:
256,192,11424,1,12,0:0:0:0:
256,192,11892,1,0,0:0:0:0:
256,192,13924,1,0,0:0:0:0:
256,192,14392,1,0,0:0:0:0:
256,192,15174,1,8,0:0:0:0:
256,192,16424,1,0,0:0:0:0:
256,192,16892,1,0,0:0:0:0:
256,192,17674,1,8,0:0:0:0:
256,192,18924,1,0,0:0:0:0:
256,192,19392,1,0,0:0:0:0:
256,192,20174,1,0,0:0:0:0:
256,192,20799,1,0,0:0:0:0:
256,192,21424,1,4,0:0:0:0:
256,192,22674,1,0,0:0:0:0:
256,192,23142,1,8,0:0:0:0:
256,192,23924,1,8,0:0:0:0:
256,192,25174,1,0,0:0:0:0:
256,192,25799,1,8,0:0:0:0:
256,192,26424,1,0,0:0:0:0:
256,192,27361,1,8,0:0:0:0:
256,192,28142,1,8,0:0:0:0:
256,192,28924,1,0,0:0:0:0:
256,192,30174,1,0,0:0:0:0:
256,192,30799,1,0,0:0:0:0:
256,192,31424,1,12,0:0:0:0:
256,192,32674,1,0,0:0:0:0:
256,192,33142,1,8,0:0:0:0:
256,192,33924,1,8,0:0:0:0:
256,192,35174,1,0,0:0:0:0:
256,192,35799,1,8,0:0:0:0:
256,192,36424,1,0,0:0:0:0:
256,192,37674,1,0,0:0:0:0:
256,192,38611,1,8,0:0:0:0:
256,192,38924,1,0,0:0:0:0:
256,192,40174,1,8,0:0:0:0:
256,192,41424,1,4,0:0:0:0:
256,192,42205,1,8,0:0:0:0:
256,192,43455,1,8,0:0:0:0:
256,192,44705,1,8,0:0:0:0:
256,192,45955,1,8,0:0:0:0:
256,192,47205,1,8,0:0:0:0:
256,192,48455,1,8,0:0:0:0:
256,192,49705,1,8,0:0:0:0:
256,192,50174,1,0,0:0:0:0:
256,192,51424,1,12,0:0:0:0:
256,192,52205,1,8,0:0:0:0:
256,192,53455,1,8,0:0:0:0:
256,192,53924,1,0,0:0:0:0:
256,192,54705,1,8,0:0:0:0:
256,192,55955,1,8,0:0:0:0:
256,192,56424,1,0,0:0:0:0:
256,192,57205,1,8,0:0:0:0:
256,192,58455,1,8,0:0:0:0:
256,192,58924,1,0,0:0:0:0:
256,192,59705,1,8,0:0:0:0:
256,192,60174,1,8,0:0:0:0:
256,192,61424,1,12,0:0:0:0:
256,192,62674,1,0,0:0:0:0:
256,192,63924,1,0,0:0:0:0:
256,192,65174,1,0,0:0:0:0:
256,192,66424,1,0,0:0:0:0:
256,192,67674,1,0,0:0:0:0:
256,192,68924,1,0,0:0:0:0:
256,192,70174,1,0,0:0:0:0:
256,192,71424,1,8,0:0:0:0:
256,192,72049,1,0,0:0:0:0:
256,192,72674,1,8,0:0:0:0:
256,192,73924,1,0,0:0:0:0:
256,192,75174,1,0,0:0:0:0:
256,192,75799,1,8,0:0:0:0:
256,192,76424,1,0,0:0:0:0:
256,192,77674,1,0,0:0:0:0:
256,192,79236,1,8,0:0:0:0:
256,192,80174,1,0,0:0:0:0:
256,192,81111,1,8,0:0:0:0:
256,192,81424,8,0,82986,0:0:0:0:
256,192,83924,5,4,0:0:0:0:
256,192,85174,1,0,0:0:0:0:
256,192,85799,1,8,0:0:0:0:
256,192,86424,1,0,0:0:0:0:
256,192,87674,1,8,0:0:0:0:
256,192,88299,1,8,0:0:0:0:
256,192,88924,1,0,0:0:0:0:
256,192,90174,1,0,0:0:0:0:
256,192,90799,1,8,0:0:0:0:
256,192,91424,1,0,0:0:0:0:
256,192,92674,1,8,0:0:0:0:
256,192,93142,1,8,0:0:0:0:
256,192,93924,1,4,0:0:0:0:
256,192,95174,1,0,0:0:0:0:
256,192,95799,1,8,0:0:0:0:
256,192,96424,1,0,0:0:0:0:
256,192,97674,1,8,0:0:0:0:
256,192,98299,1,8,0:0:0:0:
256,192,98924,1,0,0:0:0:0:
256,192,100174,1,0,0:0:0:0:
256,192,101424,1,0,0:0:0:0:
256,192,101892,1,8,0:0:0:0:
256,192,102674,1,0,0:0:0:0:
256,192,103924,1,4,0:0:0:0:
256,192,104549,1,8,0:0:0:0:
256,192,105174,1,0,0:0:0:0:
256,192,105799,1,8,0:0:0:0:
256,192,106424,1,0,0:0:0:0:
256,192,107674,1,8,0:0:0:0:
256,192,108299,1,8,0:0:0:0:
256,192,108924,1,0,0:0:0:0:
256,192,110174,1,0,0:0:0:0:
256,192,111424,1,0,0:0:0:0:
256,192,112049,1,0,0:0:0:0:
256,192,112674,1,8,0:0:0:0:
256,192,113924,1,4,0:0:0:0:
256,192,114549,1,8,0:0:0:0:
256,192,115174,1,0,0:0:0:0:
256,192,115799,1,8,0:0:0:0:
256,192,116424,1,0,0:0:0:0:
256,192,117674,1,0,0:0:0:0:
256,192,118299,1,0,0:0:0:0:
256,192,118924,1,12,0:0:0:0:
256,192,120174,1,8,0:0:0:0:
256,192,120799,1,0,0:0:0:0:
256,192,121424,1,8,0:0:0:0:
256,192,122674,1,12,0:0:0:0:
256,192,123299,1,12,0:0:0:0:
256,192,123924,1,4,0:0:0:0:
256,192,124080,8,0,128924,0:0:0:0:
