osu file format v14

[General]
AudioFilename: audio.mp3
AudioLeadIn: 0
PreviewTime: 103879
Countdown: 0
SampleSet: Soft
StackLeniency: 0.7
Mode: 0
LetterboxInBreaks: 0
WidescreenStoryboard: 1

[Editor]
Bookmarks: 1419,11419,21419,41419,61419,71419,83919,103919,123919
DistanceSpacing: 0.95
BeatDivisor: 4
GridSize: 16
TimelineZoom: 1

[Metadata]
Title:Absent Color
TitleUnicode:Absent Color
Artist:Sound Souler
ArtistUnicode:Sound Souler
Creator:Sonnyc
Version:HardPlus
Source:OverRapid
Tags:Instrumental Electronic Artcore
BeatmapID:2319795
BeatmapSetID:1093465

[Difficulty]
HPDrainRate:5
CircleSize:4
OverallDifficulty:7
ApproachRate:8
SliderMultiplier:1.6
SliderTickRate:0.5

[Events]
//Background and Video events
0,0,"bg.jpg",0,0
//Break Periods
2,61419,70669
//Storyboard Layer 0 (Background)
//Storyboard Layer 1 (Fail)
//Storyboard Layer 2 (Pass)
//Storyboard Layer 3 (Foreground)
//Storyboard Layer 4 (Overlay)
//Storyboard Sound Samples

[TimingPoints]
1419,312.5,4,2,1,50,1,0
1419,-125,4,2,1,50,0,0
11419,-83.3333333333333,4,2,1,60,0,0
20012,-100,4,2,1,60,0,0
21419,-83.3333333333333,4,2,1,70,0,0
71419,-100,4,2,1,30,0,0
72669,-83.3333333333333,4,2,1,40,0,0
72981,-83.3333333333333,4,2,1,30,0,0
73294,-100,4,2,1,30,0,0
73606,-100,4,2,1,20,0,0
73919,-100,4,2,1,30,0,0
75794,-71.4285714285714,4,2,1,40,0,0
76419,-100,4,2,1,30,0,0
79544,-100,4,2,1,20,0,0
79856,-100,4,2,1,15,0,0
80169,-100,4,2,1,20,0,0
80481,-100,4,2,1,10,0,0
80794,-100,4,2,1,15,0,0
81106,-100,4,2,1,10,0,0
83606,-100,4,2,1,60,0,0
83919,-83.3333333333333,4,2,1,70,0,0
103919,-76.9230769230769,4,2,1,70,0,1
105481,-76.9230769230769,4,2,1,60,0,1
105794,-100,4,2,1,50,0,1
106106,-100,4,2,1,40,0,1
106419,-76.9230769230769,4,2,1,50,0,1
107669,-76.9230769230769,4,2,1,50,0,1
107981,-76.9230769230769,4,2,1,40,0,1
108294,-50,4,2,1,70,0,1
108606,-50,4,2,1,60,0,1
108919,-76.9230769230769,4,2,1,60,0,1
112669,-100,4,2,1,60,0,1
113294,-83.3333333333333,4,2,1,60,0,1
113919,-76.9230769230769,4,2,1,70,0,1
115481,-76.9230769230769,4,2,1,60,0,1
115794,-100,4,2,1,50,0,1
116106,-100,4,2,1,40,0,1
116419,-76.9230769230769,4,2,1,50,0,1
117981,-84.7457627118644,4,2,1,40,0,1
118294,-55.5555555555556,4,2,1,50,0,1
118606,-55.5555555555556,4,2,1,70,0,1
118919,-76.9230769230769,4,2,1,70,0,1
121419,-76.9230769230769,4,2,1,70,0,1
122669,-66.6666666666667,4,2,1,80,0,1
123919,-66.6666666666667,4,2,1,70,0,0

[Colours]
Combo1 : 202,134,242
Combo2 : 254,224,214
Combo3 : 158,159,163
Combo4 : 148,217,254
Combo5 : 232,170,102
Combo6 : 234,66,129
Combo7 : 112,245,196

[HitObjects]
27,144,1419,6,0,L|34:81,3,64,0|0|2|0,0:0|0:0|0:0|0:0,0:0:0:0:
152,129,2200,6,0,L|145:192,3,64,0|0|2|0,0:0|0:0|0:0|0:0,0:0:0:0:
262,240,2981,86,0,L|269:177,1,64,0|2,0:0|0:0,0:0:0:0:
337,133,3294,38,0,P|364:162|370:199,1,64,2|0,0:0|0:0,0:0:0:0:
416,251,3606,1,2,0:0:0:0:
416,251,3762,2,0,P|443:222|449:185,1,64,0|2,0:0|0:0,0:0:0:0:
510,147,4075,70,0,L|503:84,2,64,0|2|0,0:0|0:0|0:0,0:0:0:0:
383,126,4700,86,0,L|390:189,2,64,2|0|2,0:0|0:0|0:0,0:0:0:0:
310,84,5169,38,0,P|283:113|277:150,1,64,2|0,0:0|0:0,0:0:0:0:
232,201,5481,1,2,0:0:0:0:
232,201,5637,1,0,0:0:0:0:
186,268,5794,6,0,P|159:239|153:202,1,64,2|0,0:0|0:0,0:0:0:0:
106,159,6106,1,2,0:0:0:0:
106,159,6262,1,0,0:0:0:0:
159,98,6419,54,0,L|222:105,3,64,2|0|2|0,0:0|0:0|0:0|0:0,0:0:0:0:
179,222,7200,86,0,L|116:215,2,64,2|0|2,0:0|0:0|0:0,0:0:0:0:
246,264,7669,54,0,P|285:260|317:234,1,64,2|2,0:0|0:0,0:0:0:0:
406,230,7981,2,0,P|390:204|362:188,1,64,2|2,0:0|0:0,0:0:0:0:
297,109,8294,2,0,P|283:143|289:184,1,64,2|2,0:0|0:0,0:0:0:0:
246,264,8606,2,0,P|279:261|307:246,1,64,2|2,0:0|0:0,0:0:0:0:
364,302,8919,53,2,0:0:0:0:
364,302,9075,1,2,0:0:0:0:
335,143,9387,1,2,0:0:0:0:
364,302,9700,1,2,0:0:0:0:
422,176,10012,86,0,P|334:162|309:247,1,192,2|0,0:0|0:0,0:0:0:0:
364,302,10637,2,0,P|262:288|182:340,1,192,2|2,0:0|0:0,0:0:0:0:
188,332,11262,1,0,0:0:0:0:
75,289,11419,22,0,P|74:236|99:203,1,95.9999970703126,4|0,1:0|0:0,0:0:0:0:
185,163,11731,1,2,0:0:0:0:
185,163,11887,1,0,1:0:0:0:
150,329,12200,38,0,P|195:301|236:306,1,95.9999970703126,2|0,0:0|0:0,0:0:0:0:
304,349,12512,1,2,0:0:0:0:
304,349,12669,1,0,0:0:0:0:
451,225,12981,86,0,L|443:130,1,95.9999970703126,0|2,0:0|0:0,0:0:0:0:
366,69,13294,1,2,0:1:0:0:
298,137,13450,1,2,0:1:0:0:
222,77,13606,2,0,P|175:73|136:100,1,95.9999970703126,2|0,0:1|1:0,0:0:0:0:
172,247,13919,70,0,P|225:248|258:223,1,95.9999970703126,0|0,1:0|0:0,0:0:0:0:
298,137,14231,1,2,0:0:0:0:
298,137,14387,1,0,1:0:0:0:
123,159,14700,38,0,P|151:114|146:73,1,95.9999970703126,2|0,0:0|0:0,0:0:0:0:
100,9,15012,1,2,0:0:0:0:
238,60,15169,69,2,0:1:0:0:
329,29,15325,1,2,0:0:0:0:
238,60,15481,2,0,L|248:157,1,95.9999970703126,2|2,0:1|0:0,0:0:0:0:
291,256,15794,5,2,0:1:0:0:
198,231,15950,1,2,0:1:0:0:
105,206,16106,2,0,P|77:251|82:292,1,95.9999970703126,2|0,0:1|1:0,0:0:0:0:
199,372,16419,70,0,P|252:373|285:348,1,95.9999970703126,0|0,1:0|0:0,0:0:0:0:
325,262,16731,1,2,0:0:0:0:
325,262,16887,1,0,1:0:0:0:
220,127,17200,38,0,P|253:168|293:177,1,95.9999970703126,2|0,0:0|0:0,0:0:0:0:
369,151,17512,1,2,0:0:0:0:
325,262,17669,69,2,0:1:0:0:
411,302,17825,1,2,0:0:0:0:
333,357,17981,2,0,L|230:343,1,95.9999970703126,2|2,0:1|0:0,0:0:0:0:
128,370,18294,5,2,0:1:0:0:
145,275,18450,1,2,0:1:0:0:
162,180,18606,2,0,P|209:188|250:165,1,95.9999970703126,2|2,0:1|0:1,0:0:0:0:
359,203,18919,69,2,1:2:0:0:
359,203,19075,2,0,L|351:107,1,95.9999970703126,2|0,0:0|0:0,0:0:0:0:
266,73,19387,2,0,L|274:169,1,95.9999970703126,2|0,1:2|0:0,0:0:0:0:
200,228,19700,2,0,L|192:132,1,95.9999970703126,2|0,0:0|0:0,0:0:0:0:
134,65,20012,38,0,P|66:39|63:162,1,240,2|0,0:0|0:0,0:0:0:0:
2,228,20637,2,0,P|69:214|212:297,1,240,2|2,0:1|0:0,0:0:0:0:
210,295,21262,1,0,0:0:0:0:
304,236,21419,69,4,0:0:0:0:
304,236,21575,2,0,L|297:331,1,95.9999970703126,0|8,0:0|0:1,0:0:0:0:
385,310,21887,2,0,P|464:337|508:250,2,191.999994140625,2|2|2,0:1|0:0|0:0,0:0:0:0:
393,218,22669,6,0,L|409:-6,1,191.999994140625,2|8,0:0|0:1,0:0:0:0:
318,48,23137,2,0,P|239:21|195:108,1,191.999994140625,2|2,0:1|0:0,0:0:0:0:
262,163,23606,2,0,L|255:258,1,95.9999970703126,8|0,0:1|0:0,0:0:0:0:
308,333,23919,2,0,P|197:365|138:221,1,287.999991210938,2|2,0:1|0:1,0:0:0:0:
199,167,24544,85,0,0:1:0:0:
281,205,24700,1,2,0:0:0:0:
348,143,24856,1,8,0:1:0:0:
432,178,25012,2,0,P|450:90|374:42,1,191.999994140625,0|2,0:0|0:0,0:0:0:0:
288,77,25481,6,0,L|193:70,1,95.9999970703126,8|2,0:1|0:0,0:0:0:0:
118,15,25794,2,0,L|23:22,2,95.9999970703126,2|2|8,0:0|0:0|0:1,0:0:0:0:
192,69,26262,1,2,0:0:0:0:
127,133,26419,2,0,L|142:341,1,191.999994140625,0|8,0:0|0:1,0:0:0:0:
224,287,26887,86,0,P|271:363|359:345,1,191.999994140625,2|2,0:1|0:0,0:0:0:0:
448,370,27356,2,0,P|490:290|431:222,1,191.999994140625,10|2,0:1|0:0,0:0:0:0:
408,135,27825,2,0,P|317:137|288:223,1,191.999994140625,2|2,0:1|0:1,0:0:0:0:
224,287,28294,1,2,0:1:0:0:
224,287,28606,1,10,0:1:0:0:
124,122,28919,2,0,P|292:88|317:262,1,383.99998828125,2|0,0:1|0:0,0:0:0:0:
224,287,29700,1,2,0:1:0:0:
164,203,29856,2,0,L|261:195,1,95.9999970703126,8|0,0:1|0:0,0:0:0:0:
329,134,30169,5,0,0:1:0:0:
367,216,30325,1,2,0:0:0:0:
305,283,30481,1,8,0:1:0:0:
338,368,30637,1,2,0:0:0:0:
400,300,30794,2,0,L|496:307,2,95.9999970703126,0|2|10,0:1|0:1|0:1,0:0:0:0:
367,216,31262,1,2,0:1:0:0:
276,229,31419,86,0,L|52:245,1,191.999994140625,4|8,0:0|0:1,0:0:0:0:
106,154,31887,2,0,P|79:75|166:31,2,191.999994140625,2|2|2,0:1|0:0|0:0,0:0:0:0:
197,150,32669,6,0,L|421:134,1,191.999994140625,2|8,0:0|0:1,0:0:0:0:
367,225,33137,2,0,P|394:304|307:348,1,191.999994140625,2|2,0:1|0:0,0:0:0:0:
241,291,33606,2,0,L|129:299,1,95.9999970703126,10|0,0:1|0:0,0:0:0:0:
63,257,33919,86,0,P|36:178|123:134,1,191.999994140625,2|8,0:1|0:1,0:0:0:0:
76,50,34387,2,0,P|203:45|197:173,1,287.999991210938,2|8,0:1|0:1,0:0:0:0:
315,313,35169,2,0,P|442:318|436:190,1,287.999991210938,2|2,0:1|0:1,0:0:0:0:
346,165,35794,6,0,L|234:173,1,95.9999970703126,2|0,0:1|0:0,0:0:0:0:
284,87,36106,2,0,L|172:95,1,95.9999970703126,10|0,0:1|0:0,0:0:0:0:
96,98,36419,2,0,P|175:137|150:222,1,191.999994140625,2|8,0:1|0:1,0:0:0:0:
73,271,36887,2,0,P|-6:231|18:146,2,191.999994140625,2|2|2,0:1|0:0|0:0,0:0:0:0:
161,294,37669,54,0,L|153:182,2,95.9999970703126,4|4|8,0:3|0:3|0:1,0:0:0:0:
244,259,38137,2,0,L|247:306,2,47.9999985351563,4|4|4,0:3|0:3|0:3,0:0:0:0:
333,276,38450,2,0,L|325:164,2,95.9999970703126,4|8|4,0:3|0:1|0:3,0:0:0:0:
256,192,38919,12,8,41106,0:1:0:0:
175,210,41419,101,4,0:3:0:0:
343,141,41731,2,0,B|349:194|349:194|331:224|331:224|336:280,2,143.999995605469,8|4|4,0:1|0:3|0:3,0:0:0:0:
328,50,42356,1,8,0:1:0:0:
150,91,42669,86,0,B|219:79|219:79|240:99,1,95.9999970703126,4|2,0:3|0:3,0:0:0:0:
193,176,42981,2,0,B|124:164|124:164|103:184,1,95.9999970703126,8|2,0:1|0:3,0:0:0:0:
148,262,43294,2,0,B|217:250|217:250|238:270,1,95.9999970703126,4|2,0:3|0:3,0:0:0:0:
190,339,43606,1,8,0:1:0:0:
286,184,43919,5,4,0:3:0:0:
118,115,44231,2,0,B|112:168|112:168|130:198|130:198|125:254,2,143.999995605469,8|4|4,0:1|0:3|0:3,0:0:0:0:
133,24,44856,1,8,0:1:0:0:
302,91,45169,86,0,B|284:109|284:109|296:178,1,95.9999970703126,4|2,0:3|0:3,0:0:0:0:
378,139,45481,2,0,B|390:208|390:208|372:226,1,95.9999970703126,8|2,0:1|0:3,0:0:0:0:
200,161,45950,2,0,B|182:179|182:179|194:248,2,95.9999970703126,2|8|8,0:3|0:1|0:1,0:0:0:0:
279,206,46419,5,4,0:3:0:0:
175,56,46731,2,0,B|122:50|122:50|92:68|92:68|36:63,2,143.999995605469,8|4|4,0:1|0:3|0:3,0:0:0:0:
266,71,47356,1,8,0:1:0:0:
178,231,47669,86,0,B|166:162|166:162|186:141,1,95.9999970703126,4|2,0:3|0:3,0:0:0:0:
263,188,47981,2,0,B|251:257|251:257|271:278,1,95.9999970703126,8|2,0:1|0:3,0:0:0:0:
349,233,48294,2,0,B|337:164|337:164|357:143,1,95.9999970703126,4|2,0:3|0:3,0:0:0:0:
426,191,48606,1,8,0:1:0:0:
315,45,48919,5,4,0:3:0:0:
163,146,49231,2,0,B|216:140|216:140|246:158|246:158|302:153,2,143.999995605469,8|4|4,0:1|0:3|0:3,0:0:0:0:
72,158,49856,1,8,0:1:0:0:
213,274,50169,86,0,B|282:262|282:262|300:280,1,95.9999970703126,4|2,0:3|0:3,0:0:0:0:
243,351,50481,2,0,B|261:369|261:369|330:357,1,95.9999970703126,8|2,0:1|0:3,0:0:0:0:
437,208,50950,2,0,B|419:190|419:190|350:202,2,95.9999970703126,2|8|8,0:3|0:1|0:1,0:0:0:0:
392,287,51419,5,4,0:3:0:0:
213,252,51731,2,0,B|262:200|262:200|291:266,2,143.999995605469,8|4|4,0:1|0:3|0:3,0:0:0:0:
242,338,52356,1,8,0:1:0:0:
66,287,52669,86,0,B|54:218|54:218|74:197,1,95.9999970703126,4|2,0:3|0:3,0:0:0:0:
74,108,52981,2,0,B|139:132|139:132|147:159,1,95.9999970703126,8|2,0:1|0:3,0:0:0:0:
224,206,53294,2,0,B|170:250|170:250|142:244,1,95.9999970703126,4|2,0:3|0:3,0:0:0:0:
66,287,53606,1,8,0:1:0:0:
229,368,53919,5,4,0:3:0:0:
324,212,54231,2,0,B|275:160|275:160|245:226,2,143.999995605469,8|4|4,0:1|0:3|0:3,0:0:0:0:
295,298,54856,1,8,0:1:0:0:
473,259,55169,86,0,B|485:190|485:190|465:169,1,95.9999970703126,4|2,0:3|0:3,0:0:0:0:
512,92,55481,2,0,B|524:23|524:23|504:2,1,95.9999970703126,8|2,0:1|0:3,0:0:0:0:
366,122,55950,2,0,B|348:104|348:104|360:35,2,95.9999970703126,2|8|8,0:3|0:1|0:1,0:0:0:0:
439,176,56419,5,4,0:3:0:0:
260,209,56731,2,0,B|326:238|326:238|274:287,2,143.999995605469,8|4|4,0:1|0:3|0:3,0:0:0:0:
189,259,57356,1,8,0:1:0:0:
270,101,57669,86,0,B|201:89|201:89|180:109,1,95.9999970703126,4|2,0:3|0:3,0:0:0:0:
91,109,57981,2,0,B|115:174|115:174|142:182,1,95.9999970703126,8|2,0:1|0:3,0:0:0:0:
189,259,58294,2,0,B|233:205|233:205|227:177,1,95.9999970703126,4|2,0:3|0:3,0:0:0:0:
270,101,58606,1,8,0:1:0:0:
401,227,58919,6,0,L|501:215,1,95.9999970703126,4|4,0:3|0:3,0:0:0:0:
486,306,59231,2,0,L|390:317,1,95.9999970703126,8|4,0:1|0:3,0:0:0:0:
316,264,59544,86,0,L|327:168,1,95.9999970703126,4|8,0:3|0:1,0:0:0:0:
237,183,59856,2,0,L|225:278,1,95.9999970703126,4|4,0:3|0:3,0:0:0:0:
144,235,60169,6,0,L|-6:253,1,143.999995605469,8|8,0:1|0:1,0:0:0:0:
43,122,60637,2,0,L|185:104,2,143.999995605469,8|8|8,0:1|0:1|0:1,0:0:0:0:
150,55,71419,6,0,P|80:30|29:86,2,160,2|2|2,0:1|0:0|0:0,0:0:0:0:
102,120,72200,2,0,B|144:145|144:145|123:274,1,160,0|2,0:0|0:0,0:0:0:0:
214,266,72669,54,0,B|197:280|190:305|202:333|225:347|225:347|248:350|273:341|289:317|285:290,1,191.999994140625,2|2,0:1|0:1,0:0:0:0:
401,192,73294,2,0,B|415:204|421:225|411:248|391:260|391:260|372:263|351:255|337:234|341:212,1,160,2|2,0:1|0:1,0:0:0:0:
421,83,73919,38,0,P|351:109|300:54,1,160,2|2,0:0|0:0,0:0:0:0:
227,86,74387,1,2,0:0:0:0:
337,201,74700,2,0,B|295:226|295:226|316:355,1,160,2|2,0:0|0:0,0:0:0:0:
233,321,75169,54,0,B|237:343|223:364|202:372|183:369|183:369|163:357|153:334|159:313|173:301,1,160,2|2,0:1|0:1,0:0:0:0:
3,207,75794,2,0,B|-1:238|16:266|46:276|72:273|72:273|99:257|113:224|105:195|85:179,1,223.999993164063,2|2,0:1|0:1,0:0:0:0:
240,82,76419,86,0,P|183:132|209:203,2,160,2|2|2,0:0|0:1|0:1,0:0:0:0:
310,120,77200,2,0,L|469:103,1,160,2|2,0:1|0:1,0:0:0:0:
387,328,77981,2,0,P|412:257|356:206,1,160,2|2,0:1|0:1,0:0:0:0:
286,245,78450,2,0,L|127:228,1,160,2|2,0:1|0:1,0:0:0:0:
291,53,79231,54,0,P|220:27|169:83,2,160,2|2|2,0:1|0:1|0:1,0:0:0:0:
419,22,80169,2,0,P|442:93|384:142,1,160,2|2,0:1|0:1,0:0:0:0:
346,268,80794,2,0,P|273:253|260:179,1,160,2|2,0:1|0:1,0:0:0:0:
256,192,81419,12,8,83606,0:1:0:0:
206,56,83919,101,4,1:1:0:0:
296,44,84075,1,2,0:0:0:0:
261,128,84231,1,8,0:1:0:0:
346,160,84387,38,0,P|420:136|464:231,1,191.999994140625,2|2,0:0|0:0,0:0:0:0:
391,274,84856,1,8,0:1:0:0:
391,274,85012,1,2,0:0:0:0:
429,370,85169,69,0,1:0:0:0:
505,318,85325,1,2,0:0:0:0:
429,370,85481,2,0,L|324:360,1,95.9999970703126,8|2,0:1|0:0,0:0:0:0:
378,267,85794,5,2,0:1:0:0:
287,278,85950,1,2,0:1:0:0:
196,289,86106,2,0,P|192:242|219:203,1,95.9999970703126,10|2,0:1|0:1,0:0:0:0:
293,131,86419,69,0,1:0:0:0:
203,119,86575,1,2,0:0:0:0:
258,47,86731,1,8,0:1:0:0:
167,37,86887,38,0,P|93:13|49:108,1,191.999994140625,2|2,0:0|0:0,0:0:0:0:
122,151,87356,1,8,0:1:0:0:
122,151,87512,1,2,0:0:0:0:
41,229,87669,85,2,0:1:0:0:
41,229,87825,1,2,0:0:0:0:
94,302,87981,2,0,P|132:275|179:279,1,95.9999970703126,10|2,0:1|0:0,0:0:0:0:
257,327,88294,85,2,0:1:0:0:
257,327,88450,1,2,0:0:0:0:
310,254,88606,2,0,P|348:280|395:276,1,95.9999970703126,10|2,0:1|0:0,0:0:0:0:
463,197,88919,85,0,1:0:0:0:
373,185,89075,1,2,0:0:0:0:
428,113,89231,1,8,0:1:0:0:
337,103,89387,38,0,P|263:127|219:32,1,191.999994140625,2|2,0:0|0:0,0:0:0:0:
129,72,89856,1,8,0:1:0:0:
129,72,90012,1,2,0:0:0:0:
169,173,90169,69,2,1:0:0:0:
86,211,90325,1,2,0:0:0:0:
157,267,90481,2,0,L|262:257,1,95.9999970703126,10|2,0:1|0:0,0:0:0:0:
326,311,90794,5,2,0:1:0:0:
337,220,90950,1,2,0:1:0:0:
348,129,91106,2,0,P|395:125|434:152,1,95.9999970703126,10|2,0:1|0:1,0:0:0:0:
470,254,91419,69,2,1:0:0:0:
470,254,91575,2,0,L|462:350,1,95.9999970703126,2|8,0:1|0:1,0:0:0:0:
378,312,91887,2,0,L|386:216,1,95.9999970703126,2|0,0:1|0:1,0:0:0:0:
297,238,92200,2,0,L|289:334,1,95.9999970703126,2|8,0:1|0:1,0:0:0:0:
123,256,92669,37,10,0:1:0:0:
123,256,92825,2,0,L|27:264,1,95.9999970703126,2|0,0:1|0:0,0:0:0:0:
56,177,93137,2,0,L|152:169,1,95.9999970703126,10|0,0:1|0:1,0:0:0:0:
242,160,93450,1,10,0:1:0:0:
242,160,93606,2,0,L|338:152,1,95.9999970703126,2|0,1:1|1:1,0:0:0:0:
437,217,93919,54,0,L|429:313,2,95.9999970703126,4|2|8,1:1|0:0|0:1,0:0:0:0:
350,244,94387,69,2,0:0:0:0:
437,217,94544,22,0,L|445:121,2,95.9999970703126,2|2|8,0:0|0:0|0:1,0:0:0:0:
350,244,95012,69,2,0:0:0:0:
242,206,95169,37,0,1:0:0:0:
294,130,95325,1,2,0:0:0:0:
242,206,95481,2,0,L|252:311,1,95.9999970703126,8|2,0:1|0:0,0:0:0:0:
141,251,95794,5,2,0:1:0:0:
152,160,95950,1,2,0:1:0:0:
163,69,96106,2,0,P|116:65|77:92,1,95.9999970703126,10|2,0:1|0:1,0:0:0:0:
37,199,96419,70,0,L|45:295,2,95.9999970703126,0|2|8,1:1|0:0|0:1,0:0:0:0:
124,226,96887,69,2,0:0:0:0:
37,199,97044,22,0,L|29:103,2,95.9999970703126,2|2|8,0:0|0:0|0:1,0:0:0:0:
124,226,97512,69,2,0:0:0:0:
201,145,97669,37,2,0:1:0:0:
201,145,97825,1,2,0:0:0:0:
272,200,97981,2,0,P|318:204|357:177,1,95.9999970703126,10|2,0:1|0:0,0:0:0:0:
390,91,98294,5,2,0:1:0:0:
390,91,98450,1,2,1:2:0:0:
319,36,98606,2,0,P|272:31|233:58,1,95.9999970703126,10|2,0:1|0:0,0:0:0:0:
271,151,98919,70,0,L|175:143,2,95.9999970703126,0|2|8,1:1|0:0|0:1,0:0:0:0:
236,235,99387,2,0,L|428:219,2,191.999994140625,2|2|2,0:1|0:0|0:0,0:0:0:0:
168,296,100169,38,0,L|72:288,2,95.9999970703126,0|2|8,1:1|0:0|0:1,0:0:0:0:
133,380,100637,2,0,L|325:364,2,191.999994140625,2|2|2,0:1|0:0|0:0,0:0:0:0:
168,296,101419,53,2,1:0:0:0:
168,296,101575,2,0,L|176:200,1,95.9999970703126,2|8,0:1|0:1,0:0:0:0:
260,238,101887,2,0,L|252:334,1,95.9999970703126,2|0,0:1|0:1,0:0:0:0:
341,312,102200,1,2,0:1:0:0:
341,312,102356,2,0,L|349:216,1,95.9999970703126,8|2,0:1|0:1,0:0:0:0:
427,168,102669,37,2,1:1:0:0:
427,168,102825,2,0,L|419:72,2,95.9999970703126,2|8|2,0:1|0:1|0:1,0:0:0:0:
470,254,103294,22,0,L|374:246,1,95.9999970703126,0|10,1:1|0:1,0:0:0:0:
431,332,103606,2,0,L|335:324,1,95.9999970703126,10|2,1:1|1:1,0:0:0:0:
239,271,103919,22,0,P|164:295|139:191,2,207.999990478516,6|10|2,1:0|0:1|0:1,0:0:0:0:
340,193,104700,2,0,P|265:169|240:273,1,207.999990478516,2|2,1:0|0:1,0:0:0:0:
340,313,105169,54,0,B|324:292|321:264|339:238|367:227|367:227|391:228|416:242|429:271|419:298,1,207.999990478516,2|10,1:1|0:1,0:0:0:0:
258,206,105794,2,0,B|269:190|271:168|258:148|237:140|237:140|218:141|199:151|189:174|197:195,1,160,2|10,1:1|0:1,0:0:0:0:
94,333,106419,38,0,P|1:322|16:230,1,207.999990478516,2|10,1:0|0:1,0:0:0:0:
108,241,106887,2,0,P|124:149|32:139,2,207.999990478516,2|2|2,0:1|1:1|0:1,0:0:0:0:
212,300,107669,54,0,B|202:273|215:244|240:230|264:229|264:229|292:240|310:266|307:294|291:315,1,207.999990478516,2|10,1:1|0:1,0:0:0:0:
487,178,108294,70,0,B|502:136|482:91|443:70|407:68|407:68|364:85|336:125|340:168|365:201,1,320,2|10,1:1|0:1,0:0:0:0:
189,58,108919,6,0,P|96:69|111:161,2,207.999990478516,2|10|2,1:0|0:1|0:1,0:0:0:0:
276,25,109700,2,0,B|294:47|294:47|284:123,1,103.999995239258,2|8,0:1|0:1,0:0:0:0:
203,169,110012,2,0,L|410:150,1,207.999990478516,2|0,0:1|0:0,0:0:0:0:
373,236,110481,2,0,P|387:328|294:338,1,207.999990478516,10|2,0:1|0:1,0:0:0:0:
204,365,110950,2,0,B|186:343|186:343|196:267,1,103.999995239258,2|8,0:1|0:1,0:0:0:0:
277,221,111262,2,0,L|69:239,1,207.999990478516,2|0,0:1|0:0,0:0:0:0:
110,154,111731,54,0,L|214:145,1,103.999995239258,10|0,0:1|0:0,0:0:0:0:
254,61,112044,2,0,L|150:70,1,103.999995239258,2|0,0:1|0:0,0:0:0:0:
214,145,112356,2,0,L|318:136,1,103.999995239258,10|0,0:1|0:0,0:0:0:0:
391,167,112669,38,0,L|384:246,1,80,10|0,0:1|1:2,0:0:0:0:
310,215,112981,2,0,L|316:135,1,80,2|8,0:1|0:1,0:0:0:0:
220,192,113294,22,0,L|228:288,1,95.9999970703126,0|10,1:1|0:1,0:0:0:0:
142,231,113606,2,0,L|150:327,1,95.9999970703126,10|2,1:1|1:1,0:0:0:0:
273,374,113919,22,0,P|259:283|351:272,1,207.999990478516,6|10,1:0|0:1,0:0:0:0:
439,362,114387,69,2,0:1:0:0:
464,249,114544,22,0,L|451:138,2,103.999995239258,2|2|8,0:1|0:1|0:1,0:0:0:0:
439,362,115012,69,2,0:1:0:0:
323,280,115169,86,0,B|339:301|342:329|324:355|296:366|296:366|272:365|247:351|234:322|244:295,1,207.999990478516,2|10,1:1|0:1,0:0:0:0:
59,217,115794,2,0,B|48:233|46:255|59:275|80:283|80:283|99:282|118:272|128:249|120:228,1,160,2|10,1:1|0:1,0:0:0:0:
218,77,116419,38,0,P|309:63|320:155,1,207.999990478516,2|10,1:0|0:1,0:0:0:0:
239,247,116887,69,2,0:1:0:0:
144,176,117044,22,0,L|33:189,2,103.999995239258,0|2|10,0:0|0:1|0:1,0:0:0:0:
239,247,117512,69,2,0:1:0:0:
342,152,117669,86,0,B|332:179|345:208|370:222|394:223|394:223|422:212|440:186|437:158|421:137,1,207.999990478516,2|10,1:1|0:1,0:0:0:0:
145,204,118294,70,0,B|123:232|119:271|144:307|183:322|183:322|215:321|251:302|269:261|255:223,1,287.999991210938,2|10,1:1|0:1,0:0:0:0:
123,70,118919,85,6,1:0:0:0:
123,70,119075,1,2,1:0:0:0:
254,88,119231,1,2,1:0:0:0:
254,88,119387,1,2,1:0:0:0:
181,147,119544,70,0,L|190:258,3,103.999995239258,4|4|4|4,0:3|0:3|0:3|0:3,0:0:0:0:
280,332,120169,21,2,1:0:0:0:
298,201,120325,1,2,1:0:0:0:
280,332,120481,1,2,1:0:0:0:
357,279,120637,70,0,L|468:288,4,103.999995239258,4|4|4|4|4,0:3|0:3|0:3|0:3|0:3,0:0:0:0:
298,201,121419,5,2,1:0:0:0:
298,201,121575,2,0,L|182:210,1,103.999995239258,2|8,1:1|1:1,0:0:0:0:
142,131,121887,2,0,L|245:122,1,103.999995239258,2|0,1:1|1:1,0:0:0:0:
279,34,122200,2,0,L|163:43,1,103.999995239258,2|8,1:1|1:1,0:0:0:0:
142,131,122512,1,2,1:0:0:0:
194,209,122669,22,0,B|182:269|182:269|201:297|201:297|181:407,2,180.000006866455,8|8|8,1:0|1:1|1:1,0:0:0:0:
293,251,123294,2,0,B|304:190|304:190|285:162|285:162|305:52,2,180.000006866455,8|8|8,1:0|1:1|1:1,0:0:0:0:
411,220,123919,53,4,0:1:0:0:
