osu file format v14

[General]
AudioFilename: audio.mp3
AudioLeadIn: 0
PreviewTime: 103879
Countdown: 0
SampleSet: Soft
StackLeniency: 0
Mode: 0
LetterboxInBreaks: 0
WidescreenStoryboard: 0

[Editor]
Bookmarks: 1419,11419,21419,41419,61419,71419,83919,103919,123919
DistanceSpacing: 0.9
BeatDivisor: 4
GridSize: 16
TimelineZoom: 1

[Metadata]
Title:Absent Color
TitleUnicode:Absent Color
Artist:Sound Souler
ArtistUnicode:Sound Souler
Creator:Sonnyc
Version:ExpertPlus
Source:OverRapid
Tags:Instrumental Electronic Artcore
BeatmapID:2285424
BeatmapSetID:1093465

[Difficulty]
HPDrainRate:6
CircleSize:4.7
OverallDifficulty:9
ApproachRate:9.4
SliderMultiplier:2
SliderTickRate:0.5

[Events]
//Background and Video events
0,0,"bg.jpg",0,0
//Break Periods
2,61419,70879
//Storyboard Layer 0 (Background)
//Storyboard Layer 1 (Fail)
//Storyboard Layer 2 (Pass)
//Storyboard Layer 3 (Foreground)
//Storyboard Layer 4 (Overlay)
//Storyboard Sound Samples

[TimingPoints]
1419,312.5,4,2,1,50,1,0
1419,-125,4,2,1,50,0,0
10637,-100,4,2,1,50,0,0
11419,-83.3333333333333,4,2,1,60,0,0
11497,-83.3333333333333,4,2,1,5,0,0
11575,-83.3333333333333,4,2,1,60,0,0
11653,-83.3333333333333,4,2,1,5,0,0
11731,-83.3333333333333,4,2,1,60,0,0
11809,-83.3333333333333,4,2,1,5,0,0
11887,-83.3333333333333,4,2,1,60,0,0
12200,-100,4,2,1,60,0,0
12278,-100,4,2,1,5,0,0
12356,-100,4,2,1,60,0,0
12434,-100,4,2,1,5,0,0
12512,-100,4,2,1,60,0,0
12590,-100,4,2,1,5,0,0
12669,-100,4,2,1,60,0,0
12981,-100,4,2,1,60,0,0
13059,-100,4,2,1,5,0,0
13137,-100,4,2,1,60,0,0
13215,-100,4,2,1,5,0,0
13294,-58.8235294117647,4,2,1,60,0,0
13372,-58.8235294117647,4,2,1,5,0,0
13450,-58.8235294117647,4,2,1,60,0,0
13528,-58.8235294117647,4,2,1,5,0,0
13606,-58.8235294117647,4,2,1,60,0,0
13684,-58.8235294117647,4,2,1,5,0,0
13762,-58.8235294117647,4,2,1,60,0,0
13919,-83.3333333333333,4,2,1,60,0,0
13997,-58.8235294117647,4,2,1,5,0,0
14075,-83.3333333333333,4,2,1,60,0,0
14153,-58.8235294117647,4,2,1,5,0,0
14231,-83.3333333333333,4,2,1,60,0,0
14309,-58.8235294117647,4,2,1,5,0,0
14387,-83.3333333333333,4,2,1,60,0,0
14700,-100,4,2,1,60,0,0
14778,-58.8235294117647,4,2,1,5,0,0
14856,-100,4,2,1,60,0,0
14934,-58.8235294117647,4,2,1,5,0,0
15012,-100,4,2,1,60,0,0
15090,-58.8235294117647,4,2,1,5,0,0
15169,-58.8235294117647,4,2,1,60,0,0
15247,-58.8235294117647,4,2,1,5,0,0
15325,-58.8235294117647,4,2,1,60,0,0
15403,-58.8235294117647,4,2,1,5,0,0
15481,-58.8235294117647,4,2,1,60,0,0
15559,-58.8235294117647,4,2,1,5,0,0
15637,-58.8235294117647,4,2,1,60,0,0
15715,-58.8235294117647,4,2,1,5,0,0
15794,-58.8235294117647,4,2,1,60,0,0
15872,-58.8235294117647,4,2,1,5,0,0
15950,-58.8235294117647,4,2,1,60,0,0
16028,-58.8235294117647,4,2,1,5,0,0
16106,-58.8235294117647,4,2,1,60,0,0
16184,-58.8235294117647,4,2,1,5,0,0
16262,-58.8235294117647,4,2,1,60,0,0
16419,-83.3333333333333,4,2,1,60,0,0
16497,-100,4,2,1,5,0,0
16575,-83.3333333333333,4,2,1,60,0,0
16653,-100,4,2,1,5,0,0
16731,-83.3333333333333,4,2,1,60,0,0
16809,-100,4,2,1,5,0,0
16887,-83.3333333333333,4,2,1,60,0,0
17200,-100,4,2,1,60,0,0
17278,-100,4,2,1,5,0,0
17356,-100,4,2,1,60,0,0
17434,-100,4,2,1,5,0,0
17512,-100,4,2,1,60,0,0
17590,-100,4,2,1,5,0,0
17669,-58.8235294117647,4,2,1,60,0,0
17747,-58.8235294117647,4,2,1,5,0,0
17825,-58.8235294117647,4,2,1,60,0,0
17903,-58.8235294117647,4,2,1,5,0,0
17981,-58.8235294117647,4,2,1,60,0,0
18059,-58.8235294117647,4,2,1,5,0,0
18137,-58.8235294117647,4,2,1,60,0,0
18215,-58.8235294117647,4,2,1,5,0,0
18294,-58.8235294117647,4,2,1,60,0,0
18372,-58.8235294117647,4,2,1,5,0,0
18450,-58.8235294117647,4,2,1,60,0,0
18528,-58.8235294117647,4,2,1,5,0,0
18606,-58.8235294117647,4,2,1,60,0,0
18684,-58.8235294117647,4,2,1,5,0,0
18762,-58.8235294117647,4,2,1,60,0,0
18840,-58.8235294117647,4,2,1,5,0,0
18919,-83.3333333333333,4,2,1,60,0,0
20012,-100,4,2,1,60,0,0
20637,-83.3333333333333,4,2,1,60,0,0
21419,-83.3333333333333,4,2,1,70,0,0
22122,-83.3333333333333,4,2,1,5,0,0
22200,-83.3333333333333,4,2,1,70,0,0
22434,-83.3333333333333,4,2,1,5,0,0
22512,-83.3333333333333,4,2,1,70,0,0
23372,-83.3333333333333,4,2,1,5,0,0
23450,-83.3333333333333,4,2,1,70,0,0
27122,-83.3333333333333,4,2,1,5,0,0
27200,-83.3333333333333,4,2,1,70,0,0
27590,-83.3333333333333,4,2,1,5,0,0
27669,-83.3333333333333,4,2,1,70,0,0
28059,-83.3333333333333,4,2,1,5,0,0
28137,-83.3333333333333,4,2,1,70,0,0
32122,-83.3333333333333,4,2,1,5,0,0
32200,-83.3333333333333,4,2,1,70,0,0
32434,-83.3333333333333,4,2,1,5,0,0
32512,-83.3333333333333,4,2,1,70,0,0
33372,-83.3333333333333,4,2,1,5,0,0
33450,-83.3333333333333,4,2,1,70,0,0
34622,-83.3333333333333,4,2,1,5,0,0
34700,-83.3333333333333,4,2,1,70,0,0
37122,-83.3333333333333,4,2,1,5,0,0
37200,-83.3333333333333,4,2,1,70,0,0
37434,-83.3333333333333,4,2,1,5,0,0
37512,-83.3333333333333,4,2,1,70,0,0
41419,-30.3030303030303,4,2,1,70,0,0
43450,-27.027027027027,4,2,1,70,0,0
44700,-30.3030303030303,4,2,1,70,0,0
45950,-27.027027027027,4,2,1,70,0,0
47200,-30.3030303030303,4,2,1,70,0,0
48606,-27.027027027027,4,2,1,70,0,0
49700,-30.3030303030303,4,2,1,70,0,0
52200,-30.3030303030303,4,2,1,70,0,0
53450,-27.027027027027,4,2,1,70,0,0
54700,-30.3030303030303,4,2,1,70,0,0
55950,-27.027027027027,4,2,1,70,0,0
57200,-30.3030303030303,4,2,1,70,0,0
58606,-27.027027027027,4,2,1,70,0,0
60169,-43.4782608695652,4,2,1,70,0,0
60325,-43.4782608695652,4,2,1,5,0,0
60403,-43.4782608695652,4,2,1,70,0,0
60559,-43.4782608695652,4,2,1,5,0,0
60637,-43.4782608695652,4,2,1,70,0,0
60794,-43.4782608695652,4,2,1,5,0,0
60872,-43.4782608695652,4,2,1,70,0,0
61028,-43.4782608695652,4,2,1,5,0,0
61106,-43.4782608695652,4,2,1,70,0,0
71419,-100,4,2,1,30,0,0
72669,-83.3333333333333,4,2,1,40,0,0
72981,-83.3333333333333,4,2,1,30,0,0
73294,-100,4,2,1,30,0,0
73606,-100,4,2,1,20,0,0
73919,-100,4,2,1,30,0,0
75794,-71.4285714285714,4,2,1,40,0,0
76419,-100,4,2,1,30,0,0
79544,-100,4,2,1,20,0,0
79856,-100,4,2,1,15,0,0
80169,-100,4,2,1,20,0,0
80481,-100,4,2,1,10,0,0
80794,-100,4,2,1,15,0,0
81106,-100,4,2,1,10,0,0
83606,-100,4,2,1,60,0,0
83919,-66.6666666666667,4,2,1,70,0,0
83997,-66.6666666666667,4,2,1,5,0,0
84075,-66.6666666666667,4,2,1,70,0,0
84153,-66.6666666666667,4,2,1,5,0,0
84231,-66.6666666666667,4,2,1,70,0,0
84309,-66.6666666666667,4,2,1,5,0,0
84387,-66.6666666666667,4,2,1,70,0,0
84622,-66.6666666666667,4,2,1,5,0,0
84700,-66.6666666666667,4,2,1,70,0,0
84934,-66.6666666666667,4,2,1,5,0,0
85012,-66.6666666666667,4,2,1,70,0,0
85247,-66.6666666666667,4,2,1,5,0,0
85325,-66.6666666666667,4,2,1,70,0,0
85403,-66.6666666666667,4,2,1,5,0,0
85481,-58.8235294117647,4,2,1,70,0,0
85559,-66.6666666666667,4,2,1,5,0,0
85637,-58.8235294117647,4,2,1,70,0,0
85715,-66.6666666666667,4,2,1,5,0,0
85794,-40,4,2,1,70,0,0
85872,-66.6666666666667,4,2,1,5,0,0
85950,-40,4,2,1,70,0,0
86028,-66.6666666666667,4,2,1,5,0,0
86106,-40,4,2,1,70,0,0
86184,-66.6666666666667,4,2,1,5,0,0
86262,-40,4,2,1,70,0,0
86340,-66.6666666666667,4,2,1,5,0,0
86419,-66.6666666666667,4,2,1,70,0,0
86497,-66.6666666666667,4,2,1,5,0,0
86575,-66.6666666666667,4,2,1,70,0,0
86653,-66.6666666666667,4,2,1,5,0,0
86731,-66.6666666666667,4,2,1,70,0,0
86809,-66.6666666666667,4,2,1,5,0,0
86887,-66.6666666666667,4,2,1,70,0,0
87122,-66.6666666666667,4,2,1,5,0,0
87200,-66.6666666666667,4,2,1,70,0,0
87434,-66.6666666666667,4,2,1,5,0,0
87512,-66.6666666666667,4,2,1,70,0,0
87669,-40,4,2,1,70,0,0
87747,-40,4,2,1,5,0,0
87825,-40,4,2,1,70,0,0
87903,-40,4,2,1,5,0,0
87981,-40,4,2,1,70,0,0
88059,-40,4,2,1,5,0,0
88137,-40,4,2,1,70,0,0
88215,-40,4,2,1,5,0,0
88294,-50,4,2,1,70,0,0
88372,-50,4,2,1,5,0,0
88450,-50,4,2,1,70,0,0
88528,-50,4,2,1,5,0,0
88606,-50,4,2,1,70,0,0
88684,-50,4,2,1,5,0,0
88762,-50,4,2,1,70,0,0
88840,-50,4,2,1,5,0,0
88919,-66.6666666666667,4,2,1,70,0,0
88997,-66.6666666666667,4,2,1,5,0,0
89075,-66.6666666666667,4,2,1,70,0,0
89153,-66.6666666666667,4,2,1,5,0,0
89231,-66.6666666666667,4,2,1,70,0,0
89309,-66.6666666666667,4,2,1,5,0,0
89387,-66.6666666666667,4,2,1,70,0,0
89622,-66.6666666666667,4,2,1,5,0,0
89700,-66.6666666666667,4,2,1,70,0,0
89934,-66.6666666666667,4,2,1,5,0,0
90012,-66.6666666666667,4,2,1,70,0,0
90169,-40,4,2,1,70,0,0
90247,-40,4,2,1,5,0,0
90325,-40,4,2,1,70,0,0
90403,-40,4,2,1,5,0,0
90481,-40,4,2,1,70,0,0
90559,-40,4,2,1,5,0,0
90637,-40,4,2,1,70,0,0
90715,-40,4,2,1,5,0,0
90794,-40,4,2,1,70,0,0
90872,-40,4,2,1,5,0,0
90950,-40,4,2,1,70,0,0
91028,-40,4,2,1,5,0,0
91106,-40,4,2,1,70,0,0
91184,-40,4,2,1,5,0,0
91262,-40,4,2,1,70,0,0
91340,-40,4,2,1,5,0,0
91419,-66.6666666666667,4,2,1,70,0,0
93919,-66.6666666666667,4,2,1,70,0,0
93997,-66.6666666666667,4,2,1,5,0,0
94075,-66.6666666666667,4,2,1,70,0,0
94309,-66.6666666666667,4,2,1,5,0,0
94387,-66.6666666666667,4,2,1,70,0,0
94622,-66.6666666666667,4,2,1,5,0,0
94700,-66.6666666666667,4,2,1,70,0,0
94934,-66.6666666666667,4,2,1,5,0,0
95012,-66.6666666666667,4,2,1,70,0,0
95247,-66.6666666666667,4,2,1,5,0,0
95325,-66.6666666666667,4,2,1,70,0,0
95403,-66.6666666666667,4,2,1,5,0,0
95481,-58.8235294117647,4,2,1,70,0,0
95559,-66.6666666666667,4,2,1,5,0,0
95637,-58.8235294117647,4,2,1,70,0,0
95715,-66.6666666666667,4,2,1,5,0,0
95794,-40,4,2,1,70,0,0
95872,-66.6666666666667,4,2,1,5,0,0
95950,-40,4,2,1,70,0,0
96028,-66.6666666666667,4,2,1,5,0,0
96106,-40,4,2,1,70,0,0
96184,-66.6666666666667,4,2,1,5,0,0
96262,-40,4,2,1,70,0,0
96340,-66.6666666666667,4,2,1,5,0,0
96419,-66.6666666666667,4,2,1,70,0,0
96497,-66.6666666666667,4,2,1,5,0,0
96575,-66.6666666666667,4,2,1,70,0,0
96653,-66.6666666666667,4,2,1,5,0,0
96731,-66.6666666666667,4,2,1,70,0,0
96809,-66.6666666666667,4,2,1,5,0,0
96887,-66.6666666666667,4,2,1,70,0,0
97122,-66.6666666666667,4,2,1,5,0,0
97200,-66.6666666666667,4,2,1,70,0,0
97434,-66.6666666666667,4,2,1,5,0,0
97512,-66.6666666666667,4,2,1,70,0,0
97669,-40,4,2,1,70,0,0
97747,-40,4,2,1,5,0,0
97825,-40,4,2,1,70,0,0
97903,-40,4,2,1,5,0,0
97981,-40,4,2,1,70,0,0
98059,-40,4,2,1,5,0,0
98137,-40,4,2,1,70,0,0
98215,-40,4,2,1,5,0,0
98294,-50,4,2,1,70,0,0
98372,-50,4,2,1,5,0,0
98450,-50,4,2,1,70,0,0
98528,-50,4,2,1,5,0,0
98606,-50,4,2,1,70,0,0
98684,-50,4,2,1,5,0,0
98762,-50,4,2,1,70,0,0
98840,-50,4,2,1,5,0,0
98919,-66.6666666666667,4,2,1,70,0,0
98997,-66.6666666666667,4,2,1,5,0,0
99075,-66.6666666666667,4,2,1,70,0,0
99153,-66.6666666666667,4,2,1,5,0,0
99231,-66.6666666666667,4,2,1,70,0,0
99309,-66.6666666666667,4,2,1,5,0,0
99387,-66.6666666666667,4,2,1,70,0,0
99622,-66.6666666666667,4,2,1,5,0,0
99700,-66.6666666666667,4,2,1,70,0,0
99934,-66.6666666666667,4,2,1,5,0,0
100012,-66.6666666666667,4,2,1,70,0,0
100247,-66.6666666666667,4,2,1,5,0,0
100325,-66.6666666666667,4,2,1,70,0,0
100403,-66.6666666666667,4,2,1,5,0,0
100481,-66.6666666666667,4,2,1,70,0,0
100559,-66.6666666666667,4,2,1,5,0,0
100637,-66.6666666666667,4,2,1,70,0,0
100872,-66.6666666666667,4,2,1,5,0,0
100950,-66.6666666666667,4,2,1,70,0,0
101184,-66.6666666666667,4,2,1,5,0,0
101262,-66.6666666666667,4,2,1,70,0,0
103919,-58.8235294117647,4,2,1,70,0,1
104153,-58.8235294117647,4,2,1,5,0,1
104231,-111.111111111111,4,2,1,70,0,1
104465,-111.111111111111,4,2,1,5,0,1
104544,-111.111111111111,4,2,1,70,0,1
104934,-111.111111111111,4,2,1,5,0,1
105012,-111.111111111111,4,2,1,70,0,1
105169,-50,4,2,1,70,0,1
105403,-50,4,2,1,5,0,1
105481,-58.8235294117647,4,2,1,60,0,1
105715,-58.8235294117647,4,2,1,5,0,1
105794,-71.4285714285714,4,2,1,50,0,1
106028,-71.4285714285714,4,2,1,5,0,1
106106,-90.9090909090909,4,2,1,40,0,1
106340,-90.9090909090909,4,2,1,5,0,1
106419,-66.6666666666667,4,2,1,50,0,1
106653,-66.6666666666667,4,2,1,5,0,1
106731,-66.6666666666667,4,2,1,50,0,1
106887,-90.9090909090908,4,2,1,50,0,1
107200,-111.111111111111,4,2,1,50,0,1
107434,-111.111111111111,4,2,1,5,0,1
107512,-111.111111111111,4,2,1,50,0,1
107669,-90.9090909090909,4,2,1,50,0,1
107903,-90.9090909090909,4,2,1,5,0,1
107981,-71.4285714285714,4,2,1,40,0,1
108215,-71.4285714285714,4,2,1,5,0,1
108294,-28.5714285714286,4,2,1,70,0,1
108528,-28.5714285714286,4,2,1,5,0,1
108606,-31.25,4,2,1,60,0,1
108840,-31.25,4,2,1,5,0,1
108919,-50,4,2,1,60,0,1
109153,-50,4,2,1,5,0,1
109231,-50,4,2,1,60,0,1
109465,-50,4,2,1,5,0,1
109544,-66.6666666666667,4,2,1,60,0,1
110012,-133.333333333333,4,2,1,40,0,1
110481,-50,4,2,1,60,0,1
110715,-50,4,2,1,5,0,1
110794,-66.6666666666667,4,2,1,60,0,1
111262,-66.6666666666667,4,2,1,40,0,1
111731,-66.6666666666667,4,2,1,60,0,1
113919,-58.8235294117647,4,2,1,70,0,1
114153,-58.8235294117647,4,2,1,5,0,1
114231,-111.111111111111,4,2,1,70,0,1
114465,-58.8235294117647,4,2,1,5,0,1
114544,-111.111111111111,4,2,1,70,0,1
115169,-50,4,2,1,70,0,1
115403,-50,4,2,1,5,0,1
115481,-58.8235294117647,4,2,1,60,0,1
115715,-58.8235294117647,4,2,1,5,0,1
115794,-71.4285714285714,4,2,1,50,0,1
116028,-71.4285714285714,4,2,1,5,0,1
116106,-90.9090909090909,4,2,1,40,0,1
116340,-90.9090909090909,4,2,1,5,0,1
116419,-66.6666666666667,4,2,1,50,0,1
116653,-66.6666666666667,4,2,1,5,0,1
116731,-66.6666666666667,4,2,1,60,0,1
117669,-90.9090909090909,4,2,1,50,0,1
117903,-90.9090909090909,4,2,1,5,0,1
117981,-71.4285714285714,4,2,1,40,0,1
118215,-71.4285714285714,4,2,1,5,0,1
118294,-90.9090909090909,4,2,1,50,0,1
118528,-28.5714285714286,4,2,1,5,0,1
118606,-31.25,4,2,1,70,0,1
118840,-31.25,4,2,1,5,0,1
118919,-50,4,2,1,70,0,1
122669,-33.3333333333333,4,2,1,80,0,1
122825,-33.3333333333333,4,2,1,5,0,1
122903,-33.3333333333333,4,2,1,80,0,1
123059,-33.3333333333333,4,2,1,5,0,1
123137,-33.3333333333333,4,2,1,80,0,1
123215,-33.3333333333333,4,2,1,5,0,1
123294,-33.3333333333333,4,2,1,80,0,1
123450,-33.3333333333333,4,2,1,5,0,1
123528,-33.3333333333333,4,2,1,80,0,1
123684,-33.3333333333333,4,2,1,5,0,1
123762,-33.3333333333333,4,2,1,80,0,1
123840,-33.3333333333333,4,2,1,5,0,1
123919,-33.3333333333333,4,2,1,70,0,0

[Colours]
Combo1 : 202,134,242
Combo2 : 254,224,214
Combo3 : 158,159,163
Combo4 : 148,217,254
Combo5 : 232,170,102
Combo6 : 234,66,129
Combo7 : 112,245,196

[HitObjects]
19,116,1419,5,0,0:0:0:0:
96,96,1575,1,0,0:0:0:0:
19,116,1731,1,2,0:0:0:0:
96,96,1887,1,0,0:0:0:0:
193,200,2200,5,0,0:0:0:0:
270,180,2356,1,0,0:0:0:0:
193,200,2512,1,2,0:0:0:0:
270,180,2669,1,0,0:0:0:0:
367,284,2981,85,0,0:0:0:0:
444,264,3137,1,2,0:0:0:0:
310,364,3294,37,2,0:0:0:0:
270,180,3450,1,2,0:0:0:0:
454,140,3606,1,2,0:0:0:0:
494,324,3762,1,2,0:0:0:0:
310,364,3919,1,2,0:0:0:0:
444,264,4075,69,0,0:0:0:0:
367,284,4231,1,2,0:0:0:0:
444,264,4387,1,0,0:0:0:0:
193,200,4700,85,0,0:0:0:0:
270,180,4856,1,0,0:0:0:0:
193,200,5012,1,2,0:0:0:0:
333,102,5169,37,2,0:0:0:0:
309,292,5325,1,2,0:0:0:0:
121,328,5481,1,2,0:0:0:0:
29,161,5637,1,2,0:0:0:0:
160,21,5794,5,2,0:0:0:0:
116,220,5950,1,2,0:0:0:0:
315,264,6106,1,2,0:0:0:0:
359,65,6262,1,2,0:0:0:0:
193,200,6419,53,2,0:0:0:0:
270,180,6575,1,0,0:0:0:0:
193,200,6731,1,2,0:0:0:0:
270,180,6887,1,0,0:0:0:0:
19,116,7200,85,2,0:0:0:0:
96,96,7356,1,0,0:0:0:0:
19,116,7512,1,2,0:0:0:0:
228,152,7669,53,2,0:0:0:0:
91,15,7825,1,2,0:0:0:0:
228,152,7981,1,2,0:0:0:0:
178,340,8137,1,2,0:0:0:0:
228,152,8294,1,2,0:0:0:0:
416,99,8450,1,2,0:0:0:0:
228,152,8606,1,2,0:0:0:0:
91,15,8762,1,2,0:0:0:0:
403,181,8919,53,2,0:0:0:0:
488,157,9075,2,0,L|476:237,1,80,2|0,0:0|0:0,0:0:0:0:
403,181,9387,2,0,L|391:261,1,80,2|0,0:0|0:0,0:0:0:0:
330,138,9700,2,0,L|318:218,1,80,2|0,0:0|0:0,0:0:0:0:
139,129,10012,86,0,P|223:101|201:207,1,240,2|0,0:0|0:0,0:0:0:0:
290,65,10637,2,0,P|164:25|63:151,1,300,2|2,0:0|0:0,0:0:0:0:
136,197,11262,1,0,0:0:0:0:
15,381,11419,22,0,P|39:364|67:355,1,59.9999981689454,4|0,1:0|0:0,0:0:0:0:
38,264,11575,2,0,P|66:268|93:282,1,59.9999981689454
136,197,11731,2,0,P|153:221|162:249,1,59.9999981689454,2|0,0:0|0:0,0:0:0:0:
253,218,11887,1,0,1:0:0:0:
54,62,12200,38,0,P|75:73|97:90,1,50
158,49,12356,2,0,P|164:72|168:100,1,50,0|0,0:0|0:0,0:0:0:0:
240,114,12512,2,0,P|229:133|211:157,1,50,2|0,0:0|0:0,0:0:0:0:
253,218,12669,1,0,0:0:0:0:
253,218,12981,22,0,P|258:242|262:268,1,50
181,232,13137,2,0,P|185:256|190:281,1,50,2|0,0:0|0:0,0:0:0:0:
363,145,13294,54,0,P|382:117|390:65,1,85.0000016212464,2|0,0:1|0:0,0:0:0:0:
156,103,13450,2,0,P|142:72|101:39,1,85.0000016212464,2|0,0:1|0:0,0:0:0:0:
265,97,13606,86,0,P|268:63|249:14,1,85.0000016212464,2|0,0:1|0:0,0:0:0:0:
65,163,13762,1,0,1:0:0:0:
303,326,13919,86,0,P|279:309|251:300,1,59.9999981689454,0|0,1:0|0:0,0:0:0:0:
280,209,14075,2,0,P|252:213|225:227,1,59.9999981689454,0|0,0:0|0:0,0:0:0:0:
182,142,14231,2,0,P|165:166|156:194,1,59.9999981689454,2|0,0:0|0:0,0:0:0:0:
65,163,14387,1,0,1:0:0:0:
273,20,14700,38,0,P|252:31|230:48,1,50
169,7,14856,2,0,P|163:30|159:58,1,50,0|0,0:0|0:0,0:0:0:0:
86,71,15012,2,0,P|98:91|114:114,1,50,2|0,0:0|0:0,0:0:0:0:
390,188,15169,70,0,P|429:199|451:235,1,85.0000016212464,2|0,0:1|0:0,0:0:0:0:
279,133,15325,2,0,P|303:99|344:91,1,85.0000016212464,2|0,0:0|0:0,0:0:0:0:
189,217,15481,2,0,P|166:183|172:141,1,85.0000016212464,2|0,0:1|0:0,0:0:0:0:
239,330,15637,2,0,P|200:341|162:322,1,85.0000016212464,2|0,0:0|0:0,0:0:0:0:
42,28,15794,6,0,P|70:9|122:1,1,85.0000016212464,2|0,0:1|0:0,0:0:0:0:
84,235,15950,2,0,P|115:249|148:290,1,85.0000016212464,2|0,0:1|0:0,0:0:0:0:
90,126,16106,86,0,P|124:123|173:142,1,85.0000016212464,2|0,0:1|0:0,0:0:0:0:
24,326,16262,1,0,1:0:0:0:
279,217,16419,86,0,P|291:243|295:272,1,59.9999981689454,0|0,1:0|0:0,0:0:0:0:
274,367,16575,2,0,P|244:364|217:353,1,59.9999981689454
146,287,16731,2,0,P|162:262|185:244,1,59.9999981689454,2|0,0:0|0:0,0:0:0:0:
279,217,16887,1,0,1:0:0:0:
68,45,17200,38,0,P|92:46|114:56,1,50
172,111,17356,2,0,P|158:131|138:146,1,50
63,169,17512,2,0,P|52:146|49:122,1,50,2|0,0:0|0:0,0:0:0:0:
391,144,17669,70,0,P|429:158|449:195,1,85.0000016212464,2|0,0:1|0:0,0:0:0:0:
250,148,17825,2,0,P|264:110|301:90,1,85.0000016212464,2|0,0:0|0:0,0:0:0:0:
254,289,17981,2,0,P|216:275|196:238,1,85.0000016212464,2|0,0:1|0:0,0:0:0:0:
395,285,18137,2,0,P|381:323|344:343,1,85.0000016212464,2|0,0:0|0:0,0:0:0:0:
89,374,18294,6,0,P|70:346|62:294,1,85.0000016212464,2|0,0:1|0:0,0:0:0:0:
223,159,18450,2,0,P|204:187|196:239,1,85.0000016212464,2|0,0:1|0:0,0:0:0:0:
0,242,18606,86,0,P|28:223|80:215,1,85.0000016212464,2|0,0:1|0:0,0:0:0:0:
225,340,18762,2,0,P|197:321|145:313,1,85.0000016212464,2|0,0:1|0:0,0:0:0:0:
31,123,18919,85,2,1:2:0:0:
92,49,19075,2,0,L|210:66,1,119.999996337891,2|0,0:0|0:0,0:0:0:0:
31,123,19387,2,0,L|149:140,1,119.999996337891,2|0,1:2|0:0,0:0:0:0:
62,209,19700,2,0,L|180:226,1,119.999996337891,2|0,0:0|0:0,0:0:0:0:
457,258,20012,38,0,P|373:209|356:354,1,300,2|0,0:0|0:0,0:0:0:0:
461,143,20637,2,0,P|357:125|224:316,1,359.999989013672,2|2,0:1|0:0,0:0:0:0:
355,354,21262,1,0,0:0:0:0:
48,267,21419,69,4,0:0:0:0:
64,144,21575,1,0,0:0:0:0:
80,21,21731,1,8,0:1:0:0:
209,231,21887,6,0,P|214:181|323:137,1,179.999994506836,2|0,0:1|0:0,0:0:0:0:
363,73,22200,2,0,P|411:86|435:201,1,179.999994506836,2|0,0:0|0:0,0:0:0:0:
491,252,22512,1,2,0:0:0:0:
250,372,22669,86,0,L|131:361,1,119.999996337891,2|0,0:0|0:0,0:0:0:0:
7,348,22981,1,8,0:1:0:0:
280,247,23137,6,0,P|266:198|151:174,1,179.999994506836,2|0,0:1|0:0,0:0:0:0:
101,119,23450,1,2,0:0:0:0:
308,42,23606,2,0,P|335:74|332:149,1,119.999996337891,8|0,0:1|0:0,0:0:0:0:
101,119,23919,86,0,L|90:0,2,119.999996337891,2|0|8,0:0|0:0|0:1,0:0:0:0:
26,378,24387,5,2,0:1:0:0:
115,277,24544,1,0,0:0:0:0:
236,341,24700,1,2,0:0:0:0:
325,240,24856,1,8,0:1:0:0:
446,304,25012,2,0,P|478:255|470:197,1,119.999996337891
161,33,25325,85,2,0:0:0:0:
318,67,25481,1,8,0:1:0:0:
184,153,25637,1,2,0:0:0:0:
493,312,25794,5,2,0:0:0:0:
317,232,25950,1,2,0:0:0:0:
196,381,26106,1,8,0:1:0:0:
20,301,26262,1,0,0:0:0:0:
239,53,26419,86,0,L|228:172,2,119.999996337891,2|0|8,0:0|0:0|0:1,0:0:0:0:
480,164,26887,6,0,P|456:110|343:114,1,179.999994506836,2|0,0:1|0:0,0:0:0:0:
327,178,27200,1,2,0:0:0:0:
239,53,27356,2,0,P|204:100|264:195,1,179.999994506836,10|0,0:1|0:0,0:0:0:0:
327,178,27669,1,2,0:0:0:0:
263,318,27825,2,0,P|321:324|373:224,1,179.999994506836,2|0,0:1|0:0,0:0:0:0:
327,178,28137,1,2,0:1:0:0:
124,334,28294,86,0,P|65:342|17:309,1,119.999996337891,2|0,0:1|0:0,0:0:0:0:
182,245,28606,2,0,P|146:198|151:140,1,119.999996337891,10|0,0:1|0:0,0:0:0:0:
363,171,28919,6,0,P|310:196|287:250,2,119.999996337891,2|0|8,0:1|0:0|0:1,0:0:0:0:
498,297,29387,2,0,P|439:304|391:271,1,119.999996337891,2|0,0:0|0:0,0:0:0:0:
432,92,29700,2,0,P|467:138|463:197,1,119.999996337891,2|8,0:1|0:1,0:0:0:0:
363,171,30012,1,0,0:0:0:0:
133,337,30169,85,2,0:0:0:0:
81,219,30325,1,2,0:0:0:0:
183,140,30481,1,8,0:1:0:0:
131,22,30637,1,2,0:0:0:0:
402,96,30794,5,0,0:0:0:0:
183,140,30950,1,2,0:1:0:0:
388,292,31106,1,10,0:1:0:0:
169,336,31262,1,2,0:1:0:0:
512,374,31419,85,4,0:0:0:0:
496,251,31575,1,0,0:0:0:0:
480,128,31731,1,8,0:1:0:0:
198,297,31887,6,0,P|148:292|104:183,1,179.999994506836,2|0,0:1|0:0,0:0:0:0:
39,143,32200,2,0,P|62:75|166:59,1,179.999994506836,2|0,0:0|0:0,0:0:0:0:
219,15,32512,1,2,0:0:0:0:
457,137,32669,86,0,L|446:256,1,119.999996337891,2|0,0:0|0:0,0:0:0:0:
433,380,32981,1,8,0:1:0:0:
332,107,33137,6,0,P|283:121|259:236,1,179.999994506836,2|0,0:1|0:0,0:0:0:0:
204,286,33450,1,2,0:0:0:0:
127,79,33606,2,0,P|159:52|234:55,1,119.999996337891,10|0,0:1|0:0,0:0:0:0:
447,270,33919,86,0,L|436:151,1,119.999996337891,2|0,0:1|0:0,0:0:0:0:
423,27,34231,1,8,0:1:0:0:
322,300,34387,6,0,P|273:286|249:171,1,179.999994506836,2|0,0:1|0:0,0:0:0:0:
194,121,34700,1,2,0:0:0:0:
117,328,34856,2,0,P|149:355|224:352,1,119.999996337891,8|0,0:1|0:0,0:0:0:0:
194,121,35169,86,0,L|75:132,2,119.999996337891,2|0|8,0:1|0:0|0:1,0:0:0:0:
511,274,35637,5,2,0:1:0:0:
365,197,35794,1,2,0:0:0:0:
258,319,35950,1,2,0:0:0:0:
112,242,36106,1,10,0:1:0:0:
5,364,36262,1,2,0:0:0:0:
239,53,36419,86,0,L|228:172,2,119.999996337891,2|0|8,0:0|0:0|0:1,0:0:0:0:
480,164,36887,6,0,P|456:110|343:114,1,179.999994506836,2|0,0:1|0:0,0:0:0:0:
317,182,37200,2,0,P|341:236|454:232,1,179.999994506836,2|0,0:0|0:0,0:0:0:0:
480,164,37512,1,2,0:0:0:0:
255,359,37669,37,4,0:3:0:0:
223,202,37825,1,4,0:3:0:0:
255,359,37981,1,8,0:1:0:0:
68,237,38137,5,4,0:3:0:0:
68,237,38215,1,0,0:3:0:0:
68,237,38294,1,4,0:3:0:0:
100,80,38450,1,4,0:3:0:0:
68,237,38606,1,8,0:1:0:0:
100,80,38762,1,4,0:3:0:0:
256,192,38919,12,8,41106,0:1:0:0:
303,1,41419,101,4,0:3:0:0:
434,33,41575,1,2,0:3:0:0:
282,100,41731,1,8,0:1:0:0:
413,132,41887,1,6,0:3:0:0:
413,132,41965,1,4,0:3:0:0:
413,132,42200,70,2,C|446:228|446:228|383:299|383:299|415:393,1,330.000003147125,6|8,0:3|0:1,0:3:0:0:
382,43,42669,5,4,0:3:0:0:
265,148,42825,1,2,0:3:0:0:
177,92,42981,1,8,0:1:0:0:
60,197,43137,1,6,0:3:0:0:
60,197,43215,1,4,0:3:0:0:
60,197,43294,1,4,0:3:0:0:
233,280,43450,86,2,C|262:243|262:243|138:260|138:260|89:302|89:302|-37:284,1,369.999998588562,6|8,0:3|0:1,0:3:0:0:
369,5,43919,21,4,0:3:0:0:
391,132,44075,1,2,0:3:0:0:
369,5,44231,1,8,0:1:0:0:
391,132,44387,1,6,0:3:0:0:
391,132,44465,1,4,0:3:0:0:
391,132,44700,70,2,C|358:228|358:228|421:299|421:299|389:393,1,330.000003147125,6|8,0:3|0:1,0:3:0:0:
8,128,45169,5,4,0:3:0:0:
163,178,45325,1,2,0:3:0:0:
235,79,45481,1,8,0:1:0:0:
80,29,45637,1,6,0:3:0:0:
233,311,45950,86,2,C|262:274|262:274|138:291|138:291|89:333|89:333|-37:315,2,369.999998588562,6|8|8,0:3|0:1|0:1,0:3:0:0:
25,0,46419,21,4,0:3:0:0:
156,32,46575,1,2,0:3:0:0:
4,99,46731,1,8,0:1:0:0:
135,131,46887,1,6,0:3:0:0:
135,131,46965,1,4,0:3:0:0:
135,131,47200,70,2,C|102:227|102:227|165:298|165:298|133:392,1,330.000003147125,6|8,0:3|0:1,0:3:0:0:
468,181,47669,5,4,0:3:0:0:
352,301,47825,1,2,0:3:0:0:
202,228,47981,1,8,0:1:0:0:
226,62,48137,1,2,0:3:0:0:
390,33,48294,1,4,0:3:0:0:
468,181,48450,1,2,0:3:0:0:
300,241,48606,86,2,C|271:204|271:204|395:221|395:221|444:263|444:263|570:245,1,369.999998588562,8|8,0:1|0:1,0:3:0:0:
382,5,48919,21,4,0:3:0:0:
360,132,49075,1,2,0:3:0:0:
382,5,49231,1,8,0:1:0:0:
360,132,49387,1,6,0:3:0:0:
360,132,49465,1,4,0:3:0:0:
360,132,49700,70,2,C|393:228|393:228|330:299|330:299|362:393,1,330.000003147125,6|8,0:3|0:1,0:3:0:0:
70,107,50169,5,4,0:3:0:0:
231,76,50325,1,2,0:3:0:0:
196,199,50481,1,4,0:3:0:0:
35,230,50637,1,6,0:3:0:0:
35,230,50715,1,4,0:3:0:0:
35,230,50794,1,4,0:3:0:0:
0,353,50950,1,6,0:3:0:0:
289,296,51106,1,8,0:1:0:0:
289,296,51262,1,8,0:1:0:0:
24,61,51419,5,4,0:3:0:0:
56,192,51575,1,2,0:3:0:0:
123,40,51731,1,8,0:1:0:0:
155,171,51887,1,6,0:3:0:0:
155,171,51965,1,4,0:3:0:0:
155,171,52200,70,2,C|183:278|183:278|250:256|250:256|222:146,1,330.000003147125,6|8,0:3|0:1,0:3:0:0:
453,378,52669,5,4,0:3:0:0:
412,226,52825,1,2,0:3:0:0:
493,171,52981,1,8,0:1:0:0:
452,19,53137,1,6,0:3:0:0:
452,19,53215,1,4,0:3:0:0:
452,19,53294,1,4,0:3:0:0:
281,83,53450,86,2,C|252:46|252:46|376:63|376:63|425:105|425:105|551:87,1,369.999998588562,6|8,0:3|0:1,0:3:0:0:
82,356,53919,21,4,0:3:0:0:
209,334,54075,1,2,0:3:0:0:
82,356,54231,1,8,0:1:0:0:
209,334,54387,1,6,0:3:0:0:
209,334,54465,1,4,0:3:0:0:
209,334,54700,70,2,C|102:306|102:306|124:239|124:239|234:267,1,330.000003147125,6|8,0:3|0:1,0:3:0:0:
75,11,55169,5,4,0:3:0:0:
25,166,55325,1,2,0:3:0:0:
124,238,55481,1,8,0:1:0:0:
174,83,55637,1,6,0:3:0:0:
306,332,55950,86,2,C|335:295|335:295|211:312|211:312|162:354|162:354|36:336,2,369.999998588562,6|8|8,0:3|0:1|0:1,0:3:0:0:
480,13,56419,21,4,0:3:0:0:
512,144,56575,1,2,0:3:0:0:
381,34,56731,1,8,0:1:0:0:
413,165,56887,1,6,0:3:0:0:
413,165,56965,1,4,0:3:0:0:
413,165,57200,70,2,C|385:272|385:272|318:250|318:250|346:140,1,330.000003147125,6|8,0:3|0:1,0:3:0:0:
44,248,57669,5,4,0:3:0:0:
160,368,57825,1,2,0:3:0:0:
310,295,57981,1,8,0:1:0:0:
286,129,58137,1,2,0:3:0:0:
122,100,58294,1,4,0:3:0:0:
44,248,58450,1,2,0:3:0:0:
212,308,58606,86,2,C|241:271|241:271|117:288|117:288|68:330|68:330|-58:312,1,369.999998588562,8|8,0:1|0:1,0:3:0:0:
380,90,58919,21,4,0:3:0:0:
287,105,59075,1,4,0:3:0:0:
303,197,59231,1,8,0:1:0:0:
395,182,59387,1,4,0:3:0:0:
248,13,59544,85,4,0:3:0:0:
210,237,59700,1,8,0:1:0:0:
434,275,59856,1,4,0:3:0:0:
472,50,60012,1,4,0:3:0:0:
102,123,60169,6,0,L|129:352,1,230.000004386902,8|0,0:1|0:0,0:0:0:0:
356,324,60403,2,0,L|329:95,1,230.000004386902,8|0,0:1|0:0,0:0:0:0:
128,351,60637,2,0,L|357:324,1,230.000004386902,8|0,0:1|0:0,0:0:0:0:
330,96,60872,2,0,L|101:123,1,230.000004386902,8|0,0:1|0:0,0:0:0:0:
226,223,61106,1,8,0:1:0:0:
264,64,71419,6,0,P|206:44|149:152,2,200,2|2|2,0:1|0:0|0:0,0:0:0:0:
391,136,72200,2,0,B|356:94|356:94|213:117,1,200,0|2,0:0|0:0,0:0:0:0:
331,300,72669,54,0,B|352:282|361:250|346:216|317:198|317:198|288:194|257:205|236:236|242:269,1,239.999992675781,2|2,0:1|0:1,0:0:0:0:
252,267,73294,2,0,B|246:238|263:212|289:203|313:206|313:206|338:222|350:249|342:275|326:291,1,200,2|2,0:1|0:1,0:0:0:0:
465,40,73919,38,0,P|416:118|329:87,1,200,2|2,0:0|0:0,0:0:0:0:
257,123,74387,2,0,L|151:113,1,100,2|0,0:0|0:0,0:0:0:0:
45,35,74700,2,0,B|87:70|87:70|63:213,1,200,2|2,0:0|0:0,0:0:0:0:
239,328,75169,54,0,B|249:302|237:274|213:261|189:260|189:260|162:270|145:296|148:323|162:341,1,200,2|2,0:1|0:1,0:0:0:0:
147,354,75794,2,0,B|128:329|124:291|148:255|186:240|186:240|219:242|253:261|270:300|257:337,1,279.999991455078,2|2,0:1|0:1,0:0:0:0:
180,31,76419,86,0,P|229:109|316:78,1,200,2|2,0:0|0:1,0:0:0:0:
59,320,77044,1,2,0:1:0:0:
126,280,77200,2,0,L|226:292,1,100,2|0,0:1|0:0,0:0:0:0:
205,369,77512,2,0,L|405:345,1,200,2|0,0:1|0:0,0:0:0:0:
225,291,77981,1,2,0:1:0:0:
505,75,78294,1,2,0:1:0:0:
438,35,78450,2,0,L|338:47,1,100,2|0,0:1|0:0,0:0:0:0:
359,124,78762,2,0,L|159:100,1,200,2|0,0:1|0:0,0:0:0:0:
87,132,79231,54,0,P|87:68|210:37,2,200,2|2|2,0:1|0:1|0:1,0:0:0:0:
370,198,80169,2,0,P|408:112|339:49,1,200,2|2,0:1|0:1,0:0:0:0:
140,263,80794,2,0,P|194:338|283:310,1,200,2|2,0:1|0:1,0:0:0:0:
256,192,81419,12,8,83606,0:1:0:0:
130,192,83919,102,0,P|109:165|74:147,1,75.0000028610231,4|0,1:0|0:0,0:0:0:0:
220,207,84075,2,0,P|207:238|209:277,1,75.0000028610231,2|0,0:0|0:0,0:0:0:0:
188,122,84231,2,0,P|221:117|254:96,1,75.0000028610231,8|0,0:1|0:0,0:0:0:0:
454,169,84387,38,0,P|385:138|348:264,1,225.000008583069,2|0,0:0|0:0,0:0:0:0:
401,286,84700,1,0,1:0:0:0:
130,192,84856,2,0,L|119:268,1,75.0000028610231,8|0,0:1|0:0,0:0:0:0:
169,330,85012,1,2,0:0:0:0:
270,43,85169,70,0,P|239:55|214:105,1,75.0000028610231,0|0,1:0|0:0,0:0:0:0:
345,72,85325,2,0,P|355:107|344:142,1,75.0000028610231,2|0,0:0|0:0,0:0:0:0:
130,192,85481,54,0,P|119:152|133:114,1,85.0000016212464,8|0,0:1|0:0,0:0:0:0:
271,176,85637,2,0,P|250:213|211:229,1,85.0000016212464,2|0,0:0|0:0,0:0:0:0:
48,99,85794,54,0,P|65:46|138:33,1,125,2|0,0:1|0:0,0:0:0:0:
342,214,85950,2,0,P|371:166|334:102,1,125,2|0,0:1|0:0,0:0:0:0:
76,259,86106,86,0,P|41:308|63:364,1,125,10|0,0:1|0:0,0:0:0:0:
253,320,86262,2,0,P|245:264|175:239,1,125,2|0,0:1|0:0,0:0:0:0:
144,108,86419,86,0,P|125:136|120:176,1,75.0000028610231,0|0,1:0|0:0,0:0:0:0:
225,57,86575,2,0,P|209:26|177:2,1,75.0000028610231,2|0,0:0|0:0,0:0:0:0:
228,152,86731,2,0,P|262:153|298:138,1,75.0000028610231,8|0,0:1|0:0,0:0:0:0:
502,187,86887,38,0,P|433:156|396:282,1,225.000008583069,2|0,0:0|0:0,0:0:0:0:
449,304,87200,1,0,1:0:0:0:
161,258,87356,2,0,L|237:247,1,75.0000028610231,8|0,0:1|0:0,0:0:0:0:
299,297,87512,1,2,0:0:0:0:
174,24,87669,86,0,P|208:53|217:131,1,125,2|0,1:0|0:0,0:0:0:0:
326,0,87825,2,0,P|302:40|320:115,1,125,2|0,0:0|0:0,0:0:0:0:
113,183,87981,86,0,P|157:191|203:253,1,125,10|0,0:1|0:0,0:0:0:0:
430,139,88137,2,0,P|389:162|367:236,1,125,2|0,0:0|0:0,0:0:0:0:
74,120,88294,54,0,P|35:155|46:207,1,100,2|0,0:1|0:0,0:0:0:0:
117,267,88450,2,0,P|167:253|183:204,1,100,2|0,0:0|0:0,0:0:0:0:
385,54,88606,38,0,P|377:105|329:126,1,100,10|0,0:1|0:0,0:0:0:0:
267,108,88762,2,0,P|243:61|270:15,1,100,2|0,0:0|0:0,0:0:0:0:
289,225,88919,86,0,P|269:197|233:179,1,75.0000028610231,0|0,1:0|0:0,0:0:0:0:
169,87,89075,2,0,P|155:117|157:158,1,75.0000028610231,2|0,0:0|0:0,0:0:0:0:
110,261,89231,2,0,P|143:257|177:235,1,75.0000028610231,8|0,0:1|0:0,0:0:0:0:
406,278,89387,38,0,P|437:209|311:172,1,225.000008583069,2|0,0:0|0:0,0:0:0:0:
289,225,89700,1,0,1:0:0:0:
17,126,89856,2,0,L|28:50,1,75.0000028610231,8|0,0:1|0:0,0:0:0:0:
94,11,90012,1,2,0:0:0:0:
58,384,90169,70,0,P|95:319|142:318,1,125,2|0,1:0|0:0,0:0:0:0:
17,126,90325,2,0,P|81:163|82:210,1,125,2|0,0:0|0:0,0:0:0:0:
275,85,90481,2,0,P|237:149|190:150,1,125,10|0,0:1|0:0,0:0:0:0:
316,343,90637,2,0,P|251:305|250:258,1,125,2|0,0:0|0:0,0:0:0:0:
464,174,90794,6,0,P|402:221|315:213,1,125,2|0,0:1|0:0,0:0:0:0:
95,299,90950,2,0,P|85:221|135:150,1,125,2|0,0:1|0:0,0:0:0:0:
316,343,91106,86,0,P|244:312|207:233,1,125,10|0,0:1|0:0,0:0:0:0:
22,86,91262,2,0,P|83:38|170:46,1,125,2|0,0:1|0:0,0:0:0:0:
464,174,91419,85,2,1:0:0:0:
369,78,91575,2,0,L|217:95,1,150.000005722046,2|8,0:1|0:1,0:0:0:0:
464,174,91887,2,0,L|312:191,1,150.000005722046,2|0,0:1|0:0,0:0:0:0:
421,290,92200,2,0,L|269:307,2,150.000005722046,2|8|0,0:1|0:1|0:0,0:0:0:0:
139,383,92669,37,10,0:1:0:0:
29,305,92825,2,0,L|46:153,1,150.000005722046,2|0,1:1|0:0,0:0:0:0:
139,383,93137,2,0,L|291:366,1,150.000005722046,10|0,0:1|0:0,0:0:0:0:
29,305,93450,1,10,0:1:0:0:
288,366,93606,1,2,1:0:0:0:
29,305,93762,1,0,1:0:0:0:
290,97,93919,54,0,P|263:123|251:158,1,75.0000028610231,4|0,1:0|0:0,0:0:0:0:
366,250,94075,69,2,0:0:0:0:
186,120,94231,22,0,P|175:155|183:192,1,75.0000028610231,8|0,0:1|0:0,0:0:0:0:
366,250,94387,69,2,0:0:0:0:
107,193,94544,22,0,P|116:228|141:255,1,75.0000028610231,2|0,0:0|0:0,0:0:0:0:
366,250,94700,69,2,0:0:0:0:
75,294,94856,22,0,P|100:319|136:331,1,75.0000028610231,8|0,0:1|0:0,0:0:0:0:
366,250,95012,69,2,0:0:0:0:
170,68,95169,38,0,P|154:97|167:152,1,75.0000028610231,0|0,1:0|0:0,0:0:0:0:
247,42,95325,2,0,P|277:63|291:98,1,75.0000028610231,2|0,0:0|0:0,0:0:0:0:
75,165,95481,54,0,P|40:188|27:228,1,85.0000016212464,8|0,0:1|0:0,0:0:0:0:
212,199,95637,2,0,P|231:236|224:277,1,85.0000016212464,2|0,0:0|0:0,0:0:0:0:
78,376,95794,54,0,P|20:362|0:306,1,125,2|0,0:1|0:0,0:0:0:0:
303,191,95950,2,0,P|332:239|295:303,1,125,2|0,0:1|0:0,0:0:0:0:
27,104,96106,86,0,P|-8:55|14:-1,1,125,10|0,0:1|0:0,0:0:0:0:
204,43,96262,2,0,P|196:99|126:124,1,125,2|0,0:1|0:0,0:0:0:0:
342,145,96419,86,0,P|311:166|274:172,1,75.0000028610231,0|0,1:0|0:0,0:0:0:0:
204,43,96575,69,2,0:0:0:0:
302,243,96731,22,0,P|265:246|230:232,1,75.0000028610231,8|0,0:1|0:0,0:0:0:0:
204,43,96887,69,2,0:0:0:0:
216,308,97044,22,0,P|182:292|159:263,1,75.0000028610231,2|0,0:0|0:0,0:0:0:0:
204,43,97200,69,2,0:0:0:0:
111,322,97356,22,0,P|89:292|84:254,1,75.0000028610231,8|0,0:1|0:0,0:0:0:0:
204,43,97512,69,2,0:0:0:0:
303,330,97669,54,0,P|346:371|407:360,1,125,2|0,1:0|0:0,0:0:0:0:
228,376,97825,2,0,P|189:330|203:272,1,125,2|0,0:0|0:0,0:0:0:0:
420,184,97981,86,0,P|405:127|446:79,1,125,10|0,0:1|0:0,0:0:0:0:
259,151,98137,2,0,P|279:208|337:226,1,125,2|0,0:0|0:0,0:0:0:0:
469,348,98294,54,0,P|460:305|406:276,1,100,2|0,0:1|0:0,0:0:0:0:
274,291,98450,2,0,P|291:245|336:226,1,100,2|0,1:2|0:0,0:0:0:0:
435,97,98606,38,0,P|411:134|351:143,1,100,10|0,0:1|0:0,0:0:0:0:
286,161,98762,2,0,P|253:131|255:70,1,100,2|0,0:0|0:0,0:0:0:0:
453,208,98919,86,0,L|446:290,1,75.0000028610231,0|0,1:0|0:0,0:0:0:0:
373,237,99075,2,0,L|366:319,1,75.0000028610231,2|0,0:0|0:0,0:0:0:0:
464,278,99231,2,0,L|457:360,1,75.0000028610231,8|0,1:1|0:0,0:0:0:0:
280,328,99387,38,0,L|300:85,1,225.000008583069,2|0,0:1|0:0,0:0:0:0:
368,68,99700,1,2,0:0:0:0:
194,151,99856,2,0,L|187:69,1,75.0000028610231,8|0,1:1|0:0,0:0:0:0:
179,0,100012,1,2,0:0:0:0:
24,105,100169,54,0,L|106:112,1,75.0000028610231,0|0,1:0|0:0,0:0:0:0:
53,185,100325,2,0,L|135:192,1,75.0000028610231,2|0,0:0|0:0,0:0:0:0:
94,94,100481,2,0,L|168:100,1,75.0000028610231,8|0,1:1|0:0,0:0:0:0:
4,260,100637,38,0,L|246:280,1,225.000008583069,2|0,0:1|0:0,0:0:0:0:
279,217,100950,1,2,0:0:0:0:
161,369,101106,2,0,L|243:362,1,75.0000028610231,8|0,1:1|0:0,0:0:0:0:
311,353,101262,1,2,0:0:0:0:
168,11,101419,53,2,1:0:0:0:
264,106,101575,2,0,L|247:258,1,150.000005722046,2|8,0:1|0:1,0:0:0:0:
168,11,101887,2,0,L|151:163,1,150.000005722046,2|0,0:1|0:0,0:0:0:0:
264,106,102200,1,2,0:1:0:0:
235,362,102356,1,8,0:1:0:0:
264,106,102512,1,2,0:1:0:0:
110,383,102669,37,2,1:1:0:0:
0,305,102825,2,0,L|17:153,1,150.000005722046,2|8,0:1|0:1,0:0:0:0:
110,383,103137,1,2,1:1:0:0:
300,205,103294,21,0,1:0:0:0:
172,235,103450,1,10,0:1:0:0:
332,333,103606,1,2,1:0:0:0:
204,363,103762,1,2,1:0:0:0:
512,167,103919,22,0,P|504:94|351:81,1,255.000004863739,6|0,1:0|0:0,0:0:0:0:
496,125,104231,2,0,P|461:70|396:72,1,134.999995880127,10|0,0:1|0:0,0:0:0:0:
287,137,104544,1,2,0:1:0:0:
438,253,104700,2,0,P|379:249|339:306,1,134.999995880127,2|0,1:1|0:0,0:0:0:0:
407,312,105012,1,2,0:1:0:0:
202,57,105169,54,0,B|224:86|228:127|203:165|163:181|163:181|127:179|91:159|73:117|87:78,1,300,2|0,1:1|0:0,0:0:0:0:
97,82,105481,2,0,B|85:115|100:151|131:168|162:170|162:170|195:156|217:124|214:89|195:65,1,255.000004863739,10|0,0:1|0:0,0:0:0:0:
186,72,105794,2,0,B|204:93|207:122|189:148|162:159|162:159|137:158|111:144|99:115|109:88,1,209.999993591309,2|0,1:1|0:0,0:0:0:0:
119,93,106106,2,0,B|111:115|121:138|141:149|161:150|161:150|182:142|196:121|194:98|182:83,1,165.000005035401,10|0,0:1|0:0,0:0:0:0:
419,151,106419,38,0,P|303:143|259:237,1,225.000008583069,2|0,1:0|0:0,0:0:0:0:
316,274,106731,1,10,0:1:0:0:
376,149,106887,2,0,P|326:147|283:191,1,110.000003356934,2|0,0:1|0:0,0:0:0:0:
146,209,107200,2,0,P|142:150|199:110,1,134.999995880127,2|0,1:1|0:0,0:0:0:0:
205,177,107512,1,2,0:1:0:0:
353,112,107669,54,0,B|361:135|351:158|331:169|311:170|311:170|290:162|276:141|278:118|290:103,1,165.000005035401,2|0,1:1|0:0,0:0:0:0:
286,91,107981,2,0,B|268:113|265:142|283:168|310:179|310:179|335:178|361:164|373:135|363:108,1,209.999993591309,10|0,0:1|0:0,0:0:0:0:
431,78,108294,70,0,B|459:140|431:222|361:254|301:252|301:252|227:234|180:164|190:86|231:41,1,525.00000500679,2|0,1:1|0:0,0:0:0:0:
239,49,108606,2,0,B|200:91|191:162|234:226|302:242|302:242|356:244|420:215|446:140|420:83,1,480,10|0,0:1|0:0,0:0:0:0:
116,73,108919,6,0,P|42:137|64:322,1,300,2|0,1:0|0:0,0:0:0:0:
250,346,109231,2,0,P|107:361|14:251,1,300,10|0,0:1|0:0,0:0:0:0:
116,73,109544,1,2,1:0:0:0:
187,275,109700,2,0,B|214:248|214:248|200:132,1,150.000005722046,2|8,0:1|0:1,0:0:0:0:
100,224,110012,69,2,0:0:0:0:
108,148,110169,1,0,1:0:0:0:
116,73,110325,1,2,0:0:0:0:
250,346,110481,22,0,P|107:361|14:251,1,300,10|0,0:1|0:0,0:0:0:0:
322,293,110794,1,2,1:0:0:0:
116,73,110950,2,0,B|89:100|89:100|103:216,1,150.000005722046,2|8,0:1|0:1,0:0:0:0:
249,141,111262,69,2,0:0:0:0:
230,139,111340,1,0,0:0:0:0:
211,137,111419,1,0,1:0:0:0:
192,135,111497,1,0,0:0:0:0:
174,133,111575,1,2,0:0:0:0:
322,293,111731,85,10,0:1:0:0:
275,35,111887,1,2,0:0:0:0:
375,52,112044,37,2,0:1:0:0:
422,310,112200,1,2,1:2:0:0:
322,293,112356,53,10,0:1:0:0:
275,35,112512,1,2,0:0:0:0:
375,52,112669,37,10,0:1:0:0:
186,85,112825,1,2,1:2:0:0:
142,177,112981,53,2,0:1:0:0:
331,144,113137,1,8,0:1:0:0:
208,377,113294,69,0,1:0:0:0:
183,249,113450,1,10,0:1:0:0:
338,355,113606,1,2,1:0:0:0:
313,225,113762,1,2,1:0:0:0:
9,153,113919,22,0,P|17:80|170:67,1,255.000004863739,6|0,1:0|0:0,0:0:0:0:
25,111,114231,2,0,P|60:56|125:57,1,134.999995880127,10|0,0:1|0:0,0:0:0:0:
226,125,114544,1,2,0:1:0:0:
94,301,114700,69,2,0:1:0:0:
269,243,114856,21,8,0:1:0:0:
94,301,115012,69,2,0:1:0:0:
465,192,115169,86,0,B|479:153|461:111|425:91|389:89|389:89|349:105|324:143|328:184|350:213,1,300,2|0,1:1|0:0,0:0:0:0:
357,205,115481,2,0,B|338:181|335:146|357:114|390:100|390:100|421:102|452:119|467:155|455:188,1,255.000004863739,10|0,0:1|0:0,0:0:0:0:
444,181,115794,2,0,B|454:154|442:125|416:111|391:110|391:110|364:121|346:147|349:176|365:196,1,209.999993591309,2|0,1:1|0:0,0:0:0:0:
371,186,116106,2,0,B|359:171|357:148|371:127|392:119|392:119|412:120|432:131|442:154|434:175,1,165.000005035401,10|0,0:1|0:0,0:0:0:0:
315,44,116419,38,0,P|199:36|155:130,1,225.000008583069,2|0,1:0|0:0,0:0:0:0:
212,167,116731,1,10,0:1:0:0:
48,115,116887,69,2,0:1:0:0:
195,254,117044,21,0,0:0:0:0:
48,115,117200,69,2,0:1:0:0:
178,341,117356,21,10,0:1:0:0:
48,115,117512,69,2,0:1:0:0:
350,249,117669,86,0,B|362:234|364:211|350:190|329:182|329:182|309:183|289:194|279:217|287:240,1,165.000005035401,2|0,1:1|0:0,0:0:0:0:
277,244,117981,2,0,B|267:217|279:188|305:174|330:173|330:173|357:184|375:210|372:239|354:261,1,209.999993591309,10|0,0:1|0:0,0:0:0:0:
350,249,118294,2,0,B|362:234|364:211|350:190|329:182|329:182|309:183|289:194|279:217|287:240,1,165.000005035401,2|0,1:1|0:0,0:0:0:0:
220,269,118606,70,0,B|194:212|220:137|284:108|338:110|338:110|406:126|449:190|440:261|401:303,1,480,10|0,0:1|0:0,0:0:0:0:
512,284,118919,85,6,1:0:0:0:
96,341,119075,1,2,1:0:0:0:
491,127,119231,53,2,1:0:0:0:
76,184,119387,1,2,1:0:0:0:
364,307,119544,5,4,0:3:0:0:
178,279,119700,1,4,0:3:0:0:
381,198,119856,85,4,0:3:0:0:
195,170,120012,1,4,0:3:0:0:
510,323,120169,37,2,1:0:0:0:
97,376,120325,1,2,1:0:0:0:
510,323,120481,1,2,1:0:0:0:
297,138,120637,69,4,0:3:0:0:
377,383,120794,1,4,0:3:0:0:
297,138,120950,1,4,0:3:0:0:
377,383,121106,1,4,0:3:0:0:
297,138,121262,1,4,0:3:0:0:
0,202,121419,5,2,1:0:0:0:
123,328,121575,2,0,L|321:306,1,200,2|8,1:1|0:1,0:0:0:0:
0,202,121887,2,0,L|198:180,1,200,2|0,1:1|1:0,0:0:0:0:
56,51,122200,2,0,L|254:29,1,200,10|0,1:1|1:1,0:0:0:0:
0,202,122512,1,2,1:1:0:0:
490,373,122669,22,0,B|473:284|473:284|501:244|501:244|472:83,1,300.000011444092,8|0,1:0|0:0,0:0:0:0:
401,354,122903,2,0,B|384:265|384:265|412:225|412:225|383:64,1,300.000011444092,8|0,1:0|0:0,0:0:0:0:
319,194,123137,2,0,L|292:46,1,150.000005722046,8|0,1:0|0:0,0:0:0:0:
310,333,123294,22,0,B|293:244|293:244|321:204|321:204|292:43,1,300.000011444092,8|0,1:0|0:0,0:0:0:0:
221,314,123528,2,0,B|204:225|204:225|232:185|232:185|203:24,1,300.000011444092,8|0,1:0|0:0,0:0:0:0:
140,154,123762,2,0,L|113:6,1,150.000005722046,8|0,1:0|0:0,0:0:0:0:
0,328,123919,21,4,0:1:0:0:
