osu file format v14

[General]
AudioFilename: audio.mp3
AudioLeadIn: 0
PreviewTime: 103879
Countdown: 0
SampleSet: Soft
StackLeniency: 0.7
Mode: 0
LetterboxInBreaks: 0
WidescreenStoryboard: 1

[Editor]
Bookmarks: 1419,11419,21419,41419,61419,71419,83919,103919,123919
DistanceSpacing: 0.9
BeatDivisor: 4
GridSize: 16
TimelineZoom: 1

[Metadata]
Title:Absent Color
TitleUnicode:Absent Color
Artist:Sound Souler
ArtistUnicode:Sound Souler
Creator:Sonnyc
Version:EasyPlus
Source:OverRapid
Tags:Instrumental Electronic Artcore
BeatmapID:2321039
BeatmapSetID:1093465

[Difficulty]
HPDrainRate:3
CircleSize:3
OverallDifficulty:2
ApproachRate:3
SliderMultiplier:0.9
SliderTickRate:0.5

[Events]
//Background and Video events
0,0,"bg.jpg",0,0
//Break Periods
2,61419,69979
2,80994,82479
//Storyboard Layer 0 (Background)
//Storyboard Layer 1 (Fail)
//Storyboard Layer 2 (Pass)
//Storyboard Layer 3 (Foreground)
//Storyboard Layer 4 (Overlay)
//Storyboard Sound Samples

[TimingPoints]
1419,312.5,4,2,1,50,1,0
1419,-111.111111111111,4,2,1,50,0,0
11419,-100,4,2,1,60,0,0
21419,-100,4,2,1,70,0,0
71419,-100,4,2,1,30,0,0
72669,-100,4,2,1,40,0,0
73294,-100,4,2,1,30,0,0
73919,-100,4,2,1,30,0,0
75794,-100,4,2,1,40,0,0
76419,-100,4,2,1,30,0,0
79544,-100,4,2,1,20,0,0
80169,-100,4,2,1,20,0,0
80794,-100,4,2,1,15,0,0
83919,-100,4,2,1,70,0,0
103919,-100,4,2,1,70,0,1
105794,-100,4,2,1,50,0,1
106419,-100,4,2,1,50,0,1
107669,-100,4,2,1,50,0,1
107981,-100,4,2,1,40,0,1
108294,-100,4,2,1,70,0,1
108606,-100,4,2,1,60,0,1
108919,-100,4,2,1,60,0,1
112669,-100,4,2,1,60,0,1
113294,-100,4,2,1,60,0,1
113919,-100,4,2,1,70,0,1
115481,-100,4,2,1,60,0,1
115794,-100,4,2,1,50,0,1
116106,-100,4,2,1,40,0,1
116419,-100,4,2,1,50,0,1
117669,-100,4,2,1,50,0,1
117981,-100,4,2,1,40,0,1
118294,-100,4,2,1,50,0,1
118606,-100,4,2,1,70,0,1
118919,-100,4,2,1,70,0,1
121419,-100,4,2,1,70,0,1
122669,-100,4,2,1,80,0,1
123919,-100,4,2,1,70,0,0

[Colours]
Combo1 : 202,134,242
Combo2 : 254,224,214
Combo3 : 158,159,163
Combo4 : 148,217,254
Combo5 : 232,170,102
Combo6 : 234,66,129
Combo7 : 112,245,196

[HitObjects]
461,68,1419,22,0,L|137:38,1,323.999990112305,2|2,0:0|0:0,0:0:0:0:
9,52,3294,1,2,0:0:0:0:
47,172,3919,2,0,L|376:202,1,323.999990112305,2|2,0:0|0:0,0:0:0:0:
492,243,5794,1,2,0:0:0:0:
427,352,6419,2,0,L|103:322,1,323.999990112305,2|2,0:0|0:0,0:0:0:0:
73,196,8294,1,2,0:0:0:0:
201,214,8919,86,0,L|411:233,1,202.499993820191,2|2,0:0|0:0,0:0:0:0:
375,139,10169,2,0,L|240:126,1,121.499996292114,2|2,0:0|0:0,0:0:0:0:
106,26,11419,22,0,P|41:70|58:172,2,180,4|2|2,1:0|0:0|0:0,0:0:0:0:
237,121,13294,2,0,L|328:113,1,90,2|2,0:1|0:1,0:0:0:0:
389,61,13919,38,0,P|454:105|437:207,1,180,0|2,1:0|0:0,0:0:0:0:
316,295,15169,2,0,L|225:287,1,90,2|2,0:1|0:1,0:0:0:0:
168,230,15794,1,2,0:1:0:0:
216,75,16419,54,0,P|130:63|79:131,1,180,0|2,1:0|0:0,0:0:0:0:
29,285,17669,2,0,L|120:277,1,90,2|2,0:1|0:1,0:0:0:0:
186,321,18294,2,0,L|277:313,1,90,2|2,0:1|0:1,0:0:0:0:
356,304,18919,38,0,L|342:167,1,135,0|0,1:0|1:0,0:0:0:0:
484,314,20169,2,0,L|465:133,1,180,0|0,1:0|1:0,0:0:0:0:
306,167,21419,70,0,P|281:89|193:90,1,180,4|2,0:0|0:1,0:0:0:0:
127,135,22356,1,8,0:1:0:0:
60,87,22669,2,0,L|67:280,2,180,2|2|2,0:0|0:1|0:1,0:0:0:0:
202,162,24544,6,0,P|239:93|328:105,1,180,2|2,0:0|0:0,0:0:0:0:
375,170,25481,1,8,0:1:0:0:
311,219,25794,2,0,L|303:308,1,90,2|8,0:1|0:1,0:0:0:0:
363,362,26419,1,2,0:0:0:0:
451,279,26887,86,0,P|459:216|404:167,2,135,2|10|2,0:1|0:1|0:1,0:0:0:0:
363,362,28294,2,0,L|274:354,1,90,2|10,0:1|0:1,0:0:0:0:
193,346,28919,1,2,0:1:0:0:
430,125,30169,6,0,L|243:141,1,180,2|2,0:0|0:0,0:0:0:0:
170,145,31106,1,8,0:1:0:0:
107,92,31419,86,0,P|27:119|28:203,1,180,4|2,0:0|0:1,0:0:0:0:
82,263,32356,1,8,0:1:0:0:
34,330,32669,2,0,L|227:323,1,180,2|2,0:0|0:1,0:0:0:0:
317,199,33919,6,0,P|254:207|205:152,2,135,2|2|8,0:1|0:1|0:1,0:0:0:0:
361,130,35169,2,0,P|345:66|285:40,2,135,2|2|10,0:1|0:1|0:1,0:0:0:0:
399,201,36419,1,2,0:1:0:0:
105,338,37669,86,0,L|130:50,1,270,2|8,0:0|0:1,0:0:0:0:
256,192,38919,12,4,41419,0:1:0:0:
214,142,42669,70,0,B|187:104|187:104|92:117,2,135,4|2|8,0:3|0:1|0:1,0:0:0:0:
282,99,43919,2,0,B|309:137|309:137|404:124,2,135,4|2|8,0:3|0:1|0:1,0:0:0:0:
214,142,45169,1,2,0:1:0:0:
423,252,46419,86,0,B|385:279|385:279|398:374,2,135,4|2|8,0:3|0:1|0:1,0:0:0:0:
368,192,47669,2,0,B|406:165|406:165|393:70,2,135,4|2|8,0:3|0:1|0:1,0:0:0:0:
423,252,48919,2,0,B|385:279|385:279|398:374,2,135,2|2|8,0:1|0:1|0:1,0:0:0:0:
368,192,50169,1,2,0:1:0:0:
179,354,51419,6,0,B|152:316|152:316|57:329,2,135,4|2|8,0:3|0:1|0:1,0:0:0:0:
247,311,52669,2,0,B|274:349|274:349|369:336,2,135,4|2|8,0:3|0:1|0:1,0:0:0:0:
179,354,53919,2,0,B|152:316|152:316|57:329,2,135,4|2|8,0:3|0:1|0:1,0:0:0:0:
247,311,55169,1,2,0:1:0:0:
94,129,56419,86,0,B|132:102|132:102|119:7,2,135,4|2|8,0:3|0:1|0:1,0:0:0:0:
149,189,57669,2,0,B|111:216|111:216|124:311,2,135,4|2|8,0:3|0:1|0:1,0:0:0:0:
94,129,58919,2,0,B|132:102|132:102|119:7,2,135,2|2|8,0:1|0:1|0:1,0:0:0:0:
149,189,60169,1,10,0:1:0:0:
362,335,71419,21,2,0:1:0:0:
362,335,72669,1,2,0:1:0:0:
226,312,73294,1,2,0:1:0:0:
90,289,73919,1,2,0:0:0:0:
362,335,75169,1,2,0:1:0:0:
339,199,75794,1,2,0:1:0:0:
316,63,76419,38,0,B|277:120|277:120|33:83,1,315,2|2,0:1|0:1,0:0:0:0:
55,252,78294,2,0,B|99:187|99:187|377:229,1,360,2|2,0:1|0:1,0:0:0:0:
511,256,80169,1,2,0:1:0:0:
511,256,80794,1,2,0:1:0:0:
381,114,83919,54,0,P|436:157|427:223,2,135,4|2|8,1:0|0:0|0:1,0:0:0:0:
313,159,85169,2,0,L|218:150,1,90,0|8,1:1|0:1,0:0:0:0:
142,142,85794,2,0,L|151:237,1,90,2|10,0:1|0:1,0:0:0:0:
105,299,86419,38,0,P|148:354|214:345,2,135,0|2|8,1:0|0:0|0:1,0:0:0:0:
150,231,87669,1,2,1:0:0:0:
112,73,88294,1,2,0:1:0:0:
273,121,88919,54,0,P|316:66|382:75,2,135,0|2|8,1:0|0:0|0:1,0:0:0:0:
318,189,90169,1,2,1:0:0:0:
306,269,90481,1,10,0:1:0:0:
294,349,90794,1,2,0:1:0:0:
145,284,91419,38,0,L|131:147,2,135,0|2|8,1:0|0:1|0:1,0:0:0:0:
65,273,92669,2,0,L|51:136,1,135,10|10,0:1|0:1,0:0:0:0:
181,34,93919,54,0,P|245:31|283:84,2,135,4|2|8,1:0|0:0|0:1,0:0:0:0:
142,105,95169,2,0,L|151:195,1,90,0|8,1:1|0:1,0:0:0:0:
158,275,95794,2,0,L|248:284,1,90,2|10,0:1|0:1,0:0:0:0:
315,238,96419,38,0,P|370:281|361:347,2,135,0|2|8,1:0|0:0|0:1,0:0:0:0:
247,283,97669,1,2,1:0:0:0:
89,248,98294,1,2,0:1:0:0:
175,111,98919,54,0,L|39:120,2,135,0|2|8,1:0|0:1|0:1,0:0:0:0:
225,47,100169,2,0,L|359:55,1,135,0|2,1:0|0:1,0:0:0:0:
221,209,101419,38,0,L|235:346,2,135,2|2|8,1:0|0:1|0:1,0:0:0:0:
299,187,102669,2,0,L|313:324,2,135,2|2|8,0:1|0:1|0:1,0:0:0:0:
269,111,103919,54,0,P|236:87|182:88,1,90,6|10,1:0|0:1,0:0:0:0:
118,129,104544,1,2,0:1:0:0:
214,259,105169,2,0,B|199:277|197:302|213:324|237:334|237:334|258:333|280:321|292:295|283:272,1,180,2|2,1:1|1:1,0:0:0:0:
369,136,106419,54,0,P|416:183|416:249,2,135,2|2|10,1:0|0:1|0:1,0:0:0:0:
291,161,107669,2,0,B|306:179|308:204|292:226|268:236|268:236|247:235|225:223|213:197|222:174,1,180,2|2,1:1|1:1,0:0:0:0:
119,49,108919,85,2,1:0:0:0:
46,84,109231,2,0,B|4:109|4:109|17:284,1,225,10|2,0:1|0:1,0:0:0:0:
123,344,110481,2,0,B|164:318|164:318|151:143,1,225,10|2,0:1|0:1,0:0:0:0:
261,92,111731,2,0,B|254:181,2,90,10|2|10,0:1|0:1|0:1,0:0:0:0:
323,40,112669,2,0,B|365:64|365:64|354:240,1,180,10|2,0:1|0:1,0:0:0:0:
254,320,113919,54,0,P|221:344|167:343,1,90,6|10,1:0|0:1,0:0:0:0:
103,302,114544,1,2,0:1:0:0:
199,171,115169,2,0,B|184:153|182:128|198:106|222:96|222:96|243:97|265:109|277:135|268:157,1,180,2|2,1:1|1:1,0:0:0:0:
322,309,116419,54,0,P|369:356|435:356,2,135,2|2|10,1:0|0:1|0:1,0:0:0:0:
361,238,117669,2,0,B|352:216|364:190|386:178|407:177|407:177|431:187|447:209|445:234|430:252,1,180,2|2,1:1|1:1,0:0:0:0:
304,352,118919,53,6,1:1:0:0:
223,342,119231,1,2,1:0:0:0:
143,331,119544,1,4,0:3:0:0:
87,178,120169,1,2,1:1:0:0:
168,188,120481,1,2,1:0:0:0:
248,199,120794,1,4,0:3:0:0:
391,123,121419,6,0,L|377:260,2,135,2|2|8,1:0|1:1|1:1,0:0:0:0:
342,58,122669,2,0,B|288:68|288:68|264:51|264:51|168:69,2,180,8|8|4,1:0|1:1|0:1,0:0:0:0:
