osu file format v14

[General]
AudioFilename: audio.mp3
AudioLeadIn: 0
PreviewTime: -1
Countdown: 1
SampleSet: None
StackLeniency: 0.7
Mode: 3
LetterboxInBreaks: 0
SpecialStyle: 0
WidescreenStoryboard: 1

[Editor]
DistanceSpacing: 1.2
BeatDivisor: 4
GridSize: 8
TimelineZoom: 1

[Metadata]
Title:3rd Avenue
TitleUnicode:3rd Avenue
Artist:Sound Souler
ArtistUnicode:Sound Souler
Creator:The_Endz
Version:Whisper
Source:Lanota
Tags:video game
BeatmapID:1248530
BeatmapSetID:567090

[Difficulty]
HPDrainRate:7
CircleSize:4
OverallDifficulty:5
ApproachRate:5
SliderMultiplier:1.4
SliderTickRate:1

[Events]
//Background and Video events
0,0,"cube-structure-line-neon-650x366.jpg",0,0
//Break Periods
//Storyboard Layer 0 (Background)
//Storyboard Layer 1 (Fail)
//Storyboard Layer 2 (Pass)
//Storyboard Layer 3 (Foreground)
//Storyboard Sound Samples

[TimingPoints]
1060.59090909091,461.538461538462,4,1,0,30,1,0
37983,-90.9090909090909,4,1,0,30,0,0
38445,-83.3333333333333,4,1,0,30,0,0
38906,-76.9230769230769,4,1,0,30,0,0
39368,-71.4285714285714,4,1,0,30,0,0
39829,-66.6666666666667,4,1,0,30,0,0
40291,-62.5,4,1,0,30,0,0
40752,-58.8235294117647,4,1,0,30,0,0
41214,-55.5555555555556,4,1,0,30,0,0
41675,-52.6315789473684,4,1,0,30,0,0
42137,-50,4,1,0,30,0,0
42599,-47.6190476190476,4,1,0,30,0,0
43060,-100,4,1,0,30,0,0
43522,-10000,4,1,0,30,0,0
44906,-133.333333333333,4,1,0,30,0,0
45368,-125,4,1,0,30,0,0
45829,-100,4,1,0,30,0,1
48137,-66.6666666666667,4,1,0,30,0,0
48368,-500,4,1,0,30,0,0
48599,-200,4,1,0,30,0,0
49060,-133.333333333333,4,1,0,30,0,0
49522,-100,4,1,0,30,0,1
51829,-10000,4,1,0,30,0,0
52291,-10,4,1,0,30,0,0
52752,-133.333333333333,4,1,0,30,0,0
53214,-100,4,1,0,30,0,1
55522,-66.6666666666667,4,1,0,30,0,0
55752,-500,4,1,0,30,0,0
55983,-200,4,1,0,30,0,0
56445,-133.333333333333,4,1,0,30,0,0
56906,-100,4,1,0,30,0,1
58291,-100,4,1,0,30,0,0
60599,-100,4,1,0,30,0,1
62906,-66.6666666666667,4,1,0,30,0,0
63137,-500,4,1,0,30,0,0
63368,-133.333333333333,4,1,0,30,0,0
63829,-100,4,1,0,30,0,0
64291,-100,4,1,0,30,0,1
66599,-10000,4,1,0,30,0,0
67060,-10,4,1,0,30,0,0
67522,-133.333333333333,4,1,0,30,0,0
67983,-100,4,1,0,30,0,1
70291,-100,4,1,0,30,0,0
71675,-100,4,1,0,30,0,1
73060,-100,4,1,0,30,0,0
104445,-10000,4,1,0,30,0,0
104791,-66.6666666666667,4,1,0,30,0,0
104906,-10000,4,1,0,30,0,0
105252,-66.6666666666667,4,1,0,30,0,0
105368,-10000,4,1,0,30,0,0
105714,-66.6666666666667,4,1,0,30,0,0
105829,-10000,4,1,0,30,0,0
106175,-66.6666666666667,4,1,0,30,0,0
106291,-10000,4,1,0,30,0,0
106637,-66.6666666666667,4,1,0,30,0,0
106752,-10000,4,1,0,30,0,0
107099,-66.6666666666667,4,1,0,30,0,0
107214,-10000,4,1,0,30,0,0
107560,-66.6666666666667,4,1,0,30,0,0
107675,-10000,4,1,0,30,0,0
108022,-66.6666666666667,4,1,0,30,0,0
108137,-10000,4,1,0,30,0,0
108483,-66.6666666666667,4,1,0,30,0,0
108599,-10000,4,1,0,30,0,0
108945,-66.6666666666667,4,1,0,30,0,0
109060,-10000,4,1,0,30,0,0
109406,-66.6666666666667,4,1,0,30,0,0
109522,-10000,4,1,0,30,0,0
109868,-66.6666666666667,4,1,0,30,0,0
109983,-10000,4,1,0,30,0,0
110329,-66.6666666666667,4,1,0,30,0,0
110445,-10000,4,1,0,30,0,0
110791,-66.6666666666667,4,1,0,30,0,0
110906,-10000,4,1,0,30,0,0
111252,-66.6666666666667,4,1,0,30,0,0
111368,-10000,4,1,0,30,0,0
111829,-100,4,1,0,30,0,0
119675,-100,4,1,0,30,0,1
121983,-100,4,1,0,30,0,0
123368,-100,4,1,0,30,0,1
125675,-100,4,1,0,30,0,0
127060,-100,4,1,0,30,0,1
129368,-100,4,1,0,30,0,0
130752,-100,4,1,0,30,0,1
132137,-100,4,1,0,30,0,0
134445,-100,4,1,0,30,0,1
136752,-100,4,1,0,30,0,0
138137,-100,4,1,0,30,0,1
140445,-100,4,1,0,30,0,0
141829,-100,4,1,0,30,0,1
144137,-100,4,1,0,30,0,0
145522,-100,4,1,0,30,0,1
146906,-100,4,1,0,30,0,0
148752,-50,4,1,0,30,0,0
150599,-33.3333333333333,4,1,0,30,0,0
152445,-25,4,1,0,30,0,0
154291,-20,4,1,0,30,0,0
156137,-16.6666666666667,4,1,0,30,0,0
157983,-100,4,1,0,30,0,0

[HitObjects]
64,192,1060,5,0,0:0:0:0:
320,192,1522,1,0,0:0:0:0:
192,192,1983,1,0,0:0:0:0:
64,192,2445,1,0,0:0:0:0:
448,192,2906,1,0,0:0:0:0:
192,192,3368,1,0,0:0:0:0:
320,192,3829,1,0,0:0:0:0:
64,192,4291,1,0,0:0:0:0:
64,192,4752,1,0,0:0:0:0:
448,192,5214,1,0,0:0:0:0:
192,192,5675,1,0,0:0:0:0:
320,192,6137,1,0,0:0:0:0:
64,192,6599,1,0,0:0:0:0:
320,192,7060,1,0,0:0:0:0:
192,192,7522,1,0,0:0:0:0:
448,192,7983,1,0,0:0:0:0:
320,192,8445,1,0,0:0:0:0:
192,192,8906,1,0,0:0:0:0:
64,192,9368,1,0,0:0:0:0:
320,192,9829,1,0,0:0:0:0:
192,192,10291,1,0,0:0:0:0:
64,192,10752,1,0,0:0:0:0:
192,192,11214,1,0,0:0:0:0:
64,192,11675,1,0,0:0:0:0:
448,192,12137,1,0,0:0:0:0:
320,192,12599,1,0,0:0:0:0:
192,192,13060,1,0,0:0:0:0:
64,192,13522,1,0,0:0:0:0:
320,192,13983,1,0,0:0:0:0:
192,192,14445,1,0,0:0:0:0:
64,192,14906,1,0,0:0:0:0:
192,192,15137,1,0,0:0:0:0:
64,192,15368,1,0,0:0:0:0:
64,192,45829,1,0,0:0:0:0:
320,192,45829,1,0,0:0:0:0:
64,192,46291,1,0,0:0:0:0:
320,192,46291,1,0,0:0:0:0:
320,192,46752,1,0,0:0:0:0:
64,192,46752,1,0,0:0:0:0:
64,192,47214,1,0,0:0:0:0:
320,192,47214,1,0,0:0:0:0:
192,192,47675,1,0,0:0:0:0:
64,192,48137,1,0,0:0:0:0:
320,192,48137,1,0,0:0:0:0:
192,192,49522,1,0,0:0:0:0:
448,192,49522,1,0,0:0:0:0:
192,192,49983,1,0,0:0:0:0:
448,192,49983,1,0,0:0:0:0:
192,192,50445,1,0,0:0:0:0:
448,192,50445,1,0,0:0:0:0:
192,192,50906,1,0,0:0:0:0:
448,192,50906,1,0,0:0:0:0:
320,192,51368,1,0,0:0:0:0:
192,192,51829,1,0,0:0:0:0:
448,192,51829,1,0,0:0:0:0:
64,192,53214,1,0,0:0:0:0:
320,192,53214,1,0,0:0:0:0:
64,192,53675,1,0,0:0:0:0:
320,192,53675,1,0,0:0:0:0:
64,192,54137,1,0,0:0:0:0:
320,192,54137,1,0,0:0:0:0:
64,192,54599,1,0,0:0:0:0:
320,192,54599,1,0,0:0:0:0:
192,192,55060,1,0,0:0:0:0:
64,192,55522,1,0,0:0:0:0:
320,192,55522,1,0,0:0:0:0:
448,192,56906,1,0,0:0:0:0:
192,192,56906,1,0,0:0:0:0:
448,192,57368,1,0,0:0:0:0:
192,192,57368,1,0,0:0:0:0:
192,192,57829,1,0,0:0:0:0:
448,192,57829,1,0,0:0:0:0:
448,192,58291,1,0,0:0:0:0:
192,192,58291,1,0,0:0:0:0:
64,192,60599,1,0,0:0:0:0:
448,192,60599,1,0,0:0:0:0:
448,192,61060,1,0,0:0:0:0:
64,192,61060,1,0,0:0:0:0:
64,192,61522,1,0,0:0:0:0:
448,192,61522,1,0,0:0:0:0:
448,192,61983,1,0,0:0:0:0:
64,192,61983,1,0,0:0:0:0:
192,192,62445,1,0,0:0:0:0:
320,192,62445,1,0,0:0:0:0:
64,192,62906,1,0,0:0:0:0:
448,192,62906,1,0,0:0:0:0:
192,192,64291,1,0,0:0:0:0:
320,192,64291,1,0,0:0:0:0:
192,192,64752,1,0,0:0:0:0:
320,192,64752,1,0,0:0:0:0:
192,192,65214,1,0,0:0:0:0:
320,192,65214,1,0,0:0:0:0:
192,192,65675,1,0,0:0:0:0:
320,192,65675,1,0,0:0:0:0:
64,192,66137,1,0,0:0:0:0:
448,192,66137,1,0,0:0:0:0:
192,192,66599,1,0,0:0:0:0:
320,192,66599,1,0,0:0:0:0:
64,192,67983,1,0,0:0:0:0:
320,192,67983,1,0,0:0:0:0:
448,192,68445,1,0,0:0:0:0:
192,192,68445,1,0,0:0:0:0:
64,192,68906,1,0,0:0:0:0:
320,192,68906,1,0,0:0:0:0:
192,192,69368,1,0,0:0:0:0:
448,192,69368,1,0,0:0:0:0:
64,192,69829,1,0,0:0:0:0:
320,192,69829,1,0,0:0:0:0:
448,192,69829,1,0,0:0:0:0:
192,192,69829,1,0,0:0:0:0:
192,192,70291,1,0,0:0:0:0:
320,192,70291,1,0,0:0:0:0:
448,192,71675,1,0,0:0:0:0:
192,192,71675,1,0,0:0:0:0:
64,192,72137,1,0,0:0:0:0:
320,192,72137,1,0,0:0:0:0:
192,192,72599,1,0,0:0:0:0:
448,192,72599,1,0,0:0:0:0:
