osu file format v14

[General]
AudioFilename: audio.mp3
AudioLeadIn: 0
PreviewTime: -1
Countdown: 1
SampleSet: Normal
StackLeniency: 0.7
Mode: 3
LetterboxInBreaks: 0
SpecialStyle: 0
WidescreenStoryboard: 1

[Editor]
DistanceSpacing: 1.2
BeatDivisor: 4
GridSize: 8
TimelineZoom: 1

[Metadata]
Title:3rd Avenue
TitleUnicode:3rd Avenue
Artist:Sound Souler
ArtistUnicode:Sound Souler
Creator:The_Endz
Version:Ultra
Source:Lanota
Tags:video game
BeatmapID:1226889
BeatmapSetID:567090

[Difficulty]
HPDrainRate:7
CircleSize:4
OverallDifficulty:5
ApproachRate:5
SliderMultiplier:1.4
SliderTickRate:1

[Events]
//Background and Video events
0,0,"cube-structure-line-neon-650x366.jpg",0,0
//Break Periods
//Storyboard Layer 0 (Background)
//Storyboard Layer 1 (Fail)
//Storyboard Layer 2 (Pass)
//Storyboard Layer 3 (Foreground)
//Storyboard Sound Samples

[TimingPoints]
1060.59090909091,461.538461538462,4,1,0,30,1,0
45861,-100,4,1,0,30,0,1
48137,-100,4,1,0,30,0,0
49522,-100,4,1,0,30,0,1
51829,-100,4,1,0,30,0,0
53214,-100,4,1,0,30,0,1
55522,-100,4,1,0,30,0,0
56906,-100,4,1,0,30,0,1
58291,-100,4,1,0,30,0,0
60599,-100,4,1,0,30,0,1
62906,-100,4,1,0,30,0,0
64291,-100,4,1,0,30,0,1
66599,-100,4,1,0,30,0,0
67983,-100,4,1,0,30,0,1
70291,-100,4,1,0,30,0,0
71675,-100,4,1,0,30,0,1
73060,-100,4,1,0,30,0,0
119675,-100,4,1,0,30,0,1
121983,-100,4,1,0,30,0,0
123368,-100,4,1,0,30,0,1
125675,-100,4,1,0,30,0,0
127060,-100,4,1,0,30,0,1
129368,-100,4,1,0,30,0,0
130752,-100,4,1,0,30,0,1
132137,-100,4,1,0,30,0,0
134445,-100,4,1,0,30,0,1
136752,-100,4,1,0,30,0,0
138137,-100,4,1,0,30,0,1
140445,-100,4,1,0,30,0,0
141829,-100,4,1,0,30,0,1
144137,-100,4,1,0,30,0,0
145522,-100,4,1,0,30,0,1
146906,-100,4,1,0,30,0,0
148752,-50,4,1,0,30,0,0
150599,-33.3333333333333,4,1,0,30,0,0
152445,-25,4,1,0,30,0,0
154291,-20,4,1,0,30,0,0
156137,-16.6666666666667,4,1,0,30,0,0
157983,-100,4,1,0,30,0,0

[HitObjects]
448,192,1060,5,2,1:3:0:0:
192,192,1406,1,4,2:3:0:0:
320,192,1522,1,14,1:3:0:0:
192,192,1752,1,4,2:3:0:0:
64,192,1983,1,14,2:3:0:0:
320,192,2329,1,4,2:3:0:0:
192,192,2445,1,14,2:3:0:0:
320,192,2675,1,4,2:3:0:0:
448,192,2906,1,14,2:3:0:0:
192,192,3252,1,4,2:3:0:0:
320,192,3368,1,14,2:3:0:0:
192,192,3599,1,4,2:3:0:0:
64,192,3829,1,14,2:3:0:0:
320,192,4175,1,4,2:3:0:0:
192,192,4291,1,14,1:3:0:0:
320,192,4522,1,4,2:3:0:0:
448,192,4752,1,0,0:0:0:0:
192,192,5099,1,4,2:3:0:0:
320,192,5214,1,14,1:3:0:0:
192,192,5445,1,4,2:3:0:0:
64,192,5675,1,0,0:0:0:0:
192,192,6022,1,4,2:3:0:0:
320,192,6137,1,14,1:3:0:0:
192,192,6368,1,4,2:3:0:0:
448,192,6599,1,0,0:0:0:0:
320,192,6945,1,4,2:3:0:0:
192,192,7060,1,14,1:3:0:0:
320,192,7291,1,4,2:3:0:0:
64,192,7522,1,14,2:3:0:0:
192,192,7868,1,4,2:3:0:0:
320,192,7983,1,14,1:3:0:0:
192,192,8214,1,4,2:3:0:0:
448,192,8445,1,4,1:3:0:0:
192,192,8445,1,10,2:3:0:0:
320,192,8791,1,4,1:3:0:0:
192,192,8906,1,4,1:3:0:0:
64,192,9137,1,14,1:3:0:0:
320,192,9368,1,4,1:3:0:0:
192,192,9483,1,14,1:3:0:0:
320,192,9599,1,14,1:3:0:0:
192,192,9829,1,4,1:3:0:0:
448,192,10060,1,14,1:3:0:0:
320,192,10291,1,4,1:3:0:0:
64,192,10291,1,0,0:0:0:0:
192,192,10637,1,4,1:3:0:0:
320,192,10752,1,4,1:3:0:0:
448,192,10983,1,14,1:3:0:0:
192,192,11214,1,4,1:3:0:0:
320,192,11329,1,14,1:3:0:0:
192,192,11445,1,14,1:3:0:0:
64,192,11675,1,4,1:3:0:0:
320,192,11906,1,0,1:3:0:0:
448,192,12137,1,0,1:3:0:0:
192,192,12137,1,0,0:0:0:0:
320,192,12483,1,0,1:3:0:0:
192,192,12599,1,0,1:3:0:0:
64,192,12829,1,0,1:3:0:0:
320,192,13060,1,0,1:3:0:0:
192,192,13175,1,0,1:3:0:0:
320,192,13291,1,0,1:3:0:0:
448,192,13522,1,0,1:3:0:0:
320,192,13752,1,0,1:3:0:0:
64,192,13983,1,0,1:3:0:0:
320,192,13983,1,0,0:0:0:0:
192,192,14329,1,0,0:0:0:0:
192,192,14445,1,0,0:0:0:0:
320,192,14675,1,0,0:0:0:0:
320,192,15022,1,0,0:0:0:0:
320,192,15137,1,0,0:0:0:0:
64,192,15368,1,0,0:0:0:0:
448,192,15368,1,0,0:0:0:0:
192,192,15829,128,0,16060:0:0:0:0:
64,192,16060,128,0,16291:0:0:0:0:
192,192,16291,128,14,16522:3:3:0:0:
64,192,16522,128,14,18599:2:3:0:0:
448,192,16752,1,14,3:3:0:0:
448,192,17214,1,14,3:3:0:0:
448,192,17675,1,14,3:3:0:0:
448,192,18137,1,14,3:3:0:0:
448,192,18599,1,14,3:3:0:0:
448,192,18829,128,0,19060:0:0:0:0:
320,192,19060,128,14,19291:3:3:0:0:
448,192,19291,128,14,20675:2:3:0:0:
64,192,19522,1,14,3:3:0:0:
64,192,19983,1,14,3:3:0:0:
64,192,20445,1,14,3:3:0:0:
64,192,20675,128,0,20906:0:0:0:0:
192,192,20906,128,14,21137:3:3:0:0:
64,192,21137,128,14,22060:2:3:0:0:
448,192,21368,1,0,3:3:0:0:
448,192,21829,1,0,3:3:0:0:
320,192,22060,128,14,22752:2:3:0:0:
64,192,22291,1,0,3:3:0:0:
448,192,22752,128,14,22983:3:3:0:0:
64,192,22752,1,0,3:3:0:0:
320,192,22983,128,14,23214:3:2:0:0:
64,192,23214,1,0,3:3:0:0:
448,192,23214,128,0,23445:0:0:0:0:
320,192,23445,128,14,23675:3:2:0:0:
448,192,23675,128,0,23906:0:0:0:0:
64,192,23906,128,14,25983:3:2:0:0:
448,192,24137,1,0,0:0:0:0:
448,192,24599,1,0,0:0:0:0:
448,192,25060,1,0,0:0:0:0:
448,192,25522,1,0,0:0:0:0:
448,192,25983,1,0,0:0:0:0:
192,192,26214,128,0,26445:0:0:0:0:
64,192,26445,128,0,26675:0:0:0:0:
448,192,26675,128,0,27829:0:0:0:0:
64,192,26906,1,0,0:0:0:0:
64,192,27368,1,0,0:0:0:0:
64,192,27829,1,0,0:0:0:0:
448,192,28060,128,0,28291:0:0:0:0:
64,192,28291,128,0,28522:0:0:0:0:
192,192,28522,128,0,29445:0:0:0:0:
64,192,28752,1,0,0:0:0:0:
64,192,29214,1,0,0:0:0:0:
320,192,29445,128,0,30137:0:0:0:0:
64,192,29675,1,0,0:0:0:0:
192,192,30137,128,0,30368:0:0:0:0:
64,192,30137,1,0,0:0:0:0:
64,192,30368,128,0,30599:0:0:0:0:
448,192,30599,1,0,0:0:0:0:
192,192,30599,128,0,30829:0:0:0:0:
320,192,30829,128,0,31060:0:0:0:0:
448,192,31060,128,0,31291:0:0:0:0:
64,192,31060,1,0,0:0:0:0:
192,192,31291,128,0,33599:0:0:0:0:
448,192,31522,1,0,0:0:0:0:
448,192,31983,1,0,0:0:0:0:
448,192,32445,1,0,0:0:0:0:
448,192,32906,1,0,0:0:0:0:
448,192,33368,1,0,0:0:0:0:
448,192,33599,128,0,33829:0:0:0:0:
320,192,33829,128,0,34060:0:0:0:0:
64,192,33829,1,0,0:0:0:0:
192,192,34060,128,0,35445:0:0:0:0:
448,192,34291,1,0,0:0:0:0:
448,192,34752,1,0,0:0:0:0:
448,192,35214,1,0,0:0:0:0:
64,192,35445,128,0,35675:0:0:0:0:
192,192,35675,128,0,35906:0:0:0:0:
320,192,35675,1,0,0:0:0:0:
448,192,35906,128,0,36829:0:0:0:0:
192,192,36137,1,0,0:0:0:0:
64,192,36599,1,0,0:0:0:0:
320,192,36829,128,0,37522:0:0:0:0:
64,192,37060,1,0,0:0:0:0:
448,192,37522,128,0,37752:0:0:0:0:
64,192,37522,1,0,0:0:0:0:
320,192,37752,128,0,37983:0:0:0:0:
64,192,37983,128,0,43522:0:0:0:0:
192,192,37983,1,0,0:0:0:0:
320,192,38214,1,0,0:0:0:0:
448,192,38445,1,0,0:0:0:0:
320,192,38675,1,0,0:0:0:0:
192,192,38906,1,0,0:0:0:0:
320,192,39137,1,0,0:0:0:0:
448,192,39368,1,0,0:0:0:0:
320,192,39599,1,0,0:0:0:0:
192,192,39829,1,0,0:0:0:0:
320,192,40060,1,0,0:0:0:0:
448,192,40291,1,0,0:0:0:0:
320,192,40522,1,0,0:0:0:0:
192,192,40752,1,0,0:0:0:0:
320,192,40983,1,0,0:0:0:0:
448,192,41214,1,0,0:0:0:0:
320,192,41445,1,0,0:0:0:0:
192,192,41675,1,0,0:0:0:0:
320,192,41791,1,0,0:0:0:0:
448,192,41906,1,0,0:0:0:0:
448,192,42022,1,0,0:0:0:0:
320,192,42022,1,0,0:0:0:0:
448,192,42137,1,0,0:0:0:0:
320,192,42252,1,0,0:0:0:0:
192,192,42368,1,0,0:0:0:0:
320,192,42483,1,0,0:0:0:0:
192,192,42483,1,0,0:0:0:0:
192,192,42599,1,0,0:0:0:0:
320,192,42714,1,0,0:0:0:0:
448,192,42829,1,0,0:0:0:0:
448,192,42945,1,0,0:0:0:0:
320,192,42945,1,0,0:0:0:0:
448,192,43060,1,0,0:0:0:0:
320,192,43175,1,0,0:0:0:0:
192,192,43291,1,0,0:0:0:0:
192,192,43406,1,0,0:0:0:0:
320,192,43406,1,0,0:0:0:0:
192,192,43522,1,0,0:0:0:0:
448,192,43637,1,0,0:0:0:0:
448,192,43752,1,0,0:0:0:0:
448,192,43868,1,0,0:0:0:0:
320,192,43983,1,0,0:0:0:0:
192,192,44214,1,0,0:0:0:0:
64,192,44445,1,0,0:0:0:0:
192,192,44675,1,0,0:0:0:0:
320,192,44906,1,0,0:0:0:0:
64,192,45368,128,0,45599:0:0:0:0:
448,192,45368,128,0,45599:0:0:0:0:
448,192,45829,1,0,0:0:0:0:
64,192,45829,1,0,0:0:0:0:
192,192,46060,1,0,0:0:0:0:
320,192,46060,1,0,0:0:0:0:
448,192,46291,1,0,0:0:0:0:
64,192,46291,1,0,0:0:0:0:
192,192,46522,1,0,0:0:0:0:
320,192,46522,1,0,0:0:0:0:
448,192,46752,1,0,0:0:0:0:
64,192,46752,1,0,0:0:0:0:
192,192,46983,1,0,0:0:0:0:
320,192,46983,1,0,0:0:0:0:
192,192,47214,1,0,0:0:0:0:
320,192,47214,1,0,0:0:0:0:
448,192,47445,1,0,0:0:0:0:
64,192,47445,1,0,0:0:0:0:
448,192,47675,1,0,0:0:0:0:
64,192,47675,1,0,0:0:0:0:
192,192,47906,1,0,0:0:0:0:
320,192,47906,1,0,0:0:0:0:
64,192,48137,1,0,0:0:0:0:
192,192,48137,1,0,0:0:0:0:
320,192,48368,1,0,0:0:0:0:
64,192,48368,1,0,0:0:0:0:
320,192,48599,128,0,49060:0:0:0:0:
192,192,48599,128,0,49060:0:0:0:0:
64,192,49060,1,14,1:3:0:0:
448,192,49060,1,14,1:3:0:0:
448,192,49522,1,0,0:0:0:0:
64,192,49522,1,0,0:0:0:0:
192,192,49752,1,0,0:0:0:0:
320,192,49752,1,0,0:0:0:0:
64,192,49983,1,0,0:0:0:0:
448,192,49983,1,0,0:0:0:0:
192,192,50214,1,0,0:0:0:0:
320,192,50214,1,0,0:0:0:0:
448,192,50445,1,0,0:0:0:0:
64,192,50445,1,0,0:0:0:0:
192,192,50675,1,0,0:0:0:0:
320,192,50675,1,0,0:0:0:0:
192,192,50906,1,0,0:0:0:0:
320,192,50906,1,0,0:0:0:0:
448,192,51137,1,0,0:0:0:0:
64,192,51137,1,0,0:0:0:0:
448,192,51368,1,0,0:0:0:0:
64,192,51368,1,0,0:0:0:0:
192,192,51599,1,0,0:0:0:0:
320,192,51599,1,0,0:0:0:0:
448,192,51829,128,0,51945:0:0:0:0:
320,192,51945,128,0,52060:0:0:0:0:
64,192,52060,128,0,52175:0:0:0:0:
192,192,52175,128,0,52291:0:0:0:0:
64,192,52291,128,0,52752:0:0:0:0:
448,192,52291,128,0,52752:0:0:0:0:
192,192,52752,1,0,0:0:0:0:
320,192,52752,1,0,0:0:0:0:
64,192,53214,1,0,0:0:0:0:
448,192,53214,1,0,0:0:0:0:
320,192,53445,1,0,0:0:0:0:
192,192,53445,1,0,0:0:0:0:
448,192,53675,1,0,0:0:0:0:
64,192,53675,1,0,0:0:0:0:
192,192,53906,1,0,0:0:0:0:
320,192,53906,1,0,0:0:0:0:
448,192,54137,1,0,0:0:0:0:
64,192,54137,1,0,0:0:0:0:
320,192,54368,1,0,0:0:0:0:
192,192,54368,1,0,0:0:0:0:
320,192,54599,1,0,0:0:0:0:
192,192,54599,1,0,0:0:0:0:
448,192,54829,1,0,0:0:0:0:
64,192,54829,1,0,0:0:0:0:
448,192,55060,1,0,0:0:0:0:
64,192,55060,1,0,0:0:0:0:
320,192,55291,1,0,0:0:0:0:
192,192,55291,1,0,0:0:0:0:
448,192,55522,1,0,0:0:0:0:
320,192,55522,1,0,0:0:0:0:
192,192,55752,1,0,0:0:0:0:
448,192,55752,1,0,0:0:0:0:
64,192,55983,128,0,56445:0:0:0:0:
448,192,55983,128,0,56445:0:0:0:0:
192,192,56445,1,0,0:0:0:0:
320,192,56445,1,0,0:0:0:0:
448,192,56906,1,0,0:0:0:0:
64,192,56906,1,0,0:0:0:0:
192,192,57137,1,0,0:0:0:0:
320,192,57137,1,0,0:0:0:0:
64,192,57368,1,0,0:0:0:0:
448,192,57368,1,0,0:0:0:0:
192,192,57599,1,0,0:0:0:0:
320,192,57599,1,0,0:0:0:0:
448,192,57829,1,0,0:0:0:0:
64,192,57829,1,0,0:0:0:0:
192,192,58060,1,0,0:0:0:0:
320,192,58060,1,0,0:0:0:0:
448,192,58291,128,0,59675:0:0:0:0:
320,192,58291,1,0,0:0:0:0:
320,192,58522,1,0,0:0:0:0:
192,192,58752,1,0,0:0:0:0:
64,192,58983,128,0,59675:0:0:0:0:
320,192,58983,1,0,0:0:0:0:
192,192,59214,1,0,0:0:0:0:
320,192,59445,1,0,0:0:0:0:
192,192,59560,1,0,0:0:0:0:
192,192,59675,1,0,0:0:0:0:
64,192,60137,1,0,0:0:0:0:
448,192,60137,1,0,0:0:0:0:
320,192,60368,1,0,0:0:0:0:
192,192,60483,1,0,0:0:0:0:
448,192,60599,1,0,0:0:0:0:
64,192,60599,1,0,0:0:0:0:
320,192,60599,1,0,0:0:0:0:
192,192,60829,1,0,0:0:0:0:
320,192,60829,1,0,0:0:0:0:
192,192,61060,1,0,0:0:0:0:
64,192,61060,1,0,0:0:0:0:
448,192,61060,1,0,0:0:0:0:
192,192,61291,1,0,0:0:0:0:
320,192,61291,1,0,0:0:0:0:
192,192,61406,1,0,0:0:0:0:
320,192,61522,1,0,0:0:0:0:
448,192,61522,1,0,0:0:0:0:
64,192,61522,1,0,0:0:0:0:
192,192,61752,1,0,0:0:0:0:
320,192,61752,1,0,0:0:0:0:
64,192,61983,1,0,0:0:0:0:
448,192,61983,1,0,0:0:0:0:
192,192,61983,1,0,0:0:0:0:
448,192,62214,1,0,0:0:0:0:
64,192,62214,1,0,0:0:0:0:
192,192,62329,1,0,0:0:0:0:
320,192,62445,1,0,0:0:0:0:
448,192,62445,1,0,0:0:0:0:
64,192,62445,1,0,0:0:0:0:
192,192,62675,1,0,0:0:0:0:
320,192,62675,1,0,0:0:0:0:
320,192,62906,1,0,0:0:0:0:
64,192,62906,1,0,0:0:0:0:
448,192,63137,1,0,0:0:0:0:
192,192,63137,1,0,0:0:0:0:
64,192,63368,1,0,0:0:0:0:
448,192,63368,1,0,0:0:0:0:
320,192,63599,1,0,0:0:0:0:
192,192,63599,1,0,0:0:0:0:
64,192,63829,1,0,0:0:0:0:
448,192,63829,1,0,0:0:0:0:
320,192,64175,1,0,0:0:0:0:
192,192,64291,1,0,0:0:0:0:
448,192,64291,1,0,0:0:0:0:
64,192,64291,1,0,0:0:0:0:
192,192,64522,1,0,0:0:0:0:
320,192,64522,1,0,0:0:0:0:
320,192,64752,1,0,0:0:0:0:
64,192,64752,1,0,0:0:0:0:
448,192,64752,1,0,0:0:0:0:
320,192,64983,1,0,0:0:0:0:
192,192,64983,1,0,0:0:0:0:
320,192,65099,1,0,0:0:0:0:
192,192,65214,1,0,0:0:0:0:
448,192,65214,1,0,0:0:0:0:
64,192,65214,1,0,0:0:0:0:
320,192,65445,1,0,0:0:0:0:
192,192,65445,1,0,0:0:0:0:
448,192,65675,1,0,0:0:0:0:
64,192,65675,1,0,0:0:0:0:
192,192,65675,1,0,0:0:0:0:
448,192,65906,1,0,0:0:0:0:
64,192,65906,1,0,0:0:0:0:
192,192,66022,1,0,0:0:0:0:
320,192,66137,1,0,0:0:0:0:
448,192,66137,1,0,0:0:0:0:
64,192,66137,1,0,0:0:0:0:
192,192,66368,1,0,0:0:0:0:
320,192,66368,1,0,0:0:0:0:
192,192,66599,1,0,0:0:0:0:
320,192,66599,128,0,66714:0:0:0:0:
448,192,66714,128,0,66829:0:0:0:0:
320,192,66829,128,0,66945:0:0:0:0:
64,192,66945,1,0,0:0:0:0:
192,192,66945,128,0,67060:0:0:0:0:
320,192,67060,1,0,0:0:0:0:
192,192,67291,1,0,0:0:0:0:
64,192,67522,1,0,0:0:0:0:
192,192,67868,1,0,0:0:0:0:
320,192,67983,1,0,0:0:0:0:
448,192,67983,1,0,0:0:0:0:
64,192,67983,1,0,0:0:0:0:
192,192,68214,1,0,0:0:0:0:
320,192,68214,1,0,0:0:0:0:
192,192,68445,1,0,0:0:0:0:
64,192,68445,1,0,0:0:0:0:
448,192,68445,1,0,0:0:0:0:
192,192,68675,1,0,0:0:0:0:
320,192,68675,1,0,0:0:0:0:
192,192,68791,1,0,0:0:0:0:
320,192,68906,1,0,0:0:0:0:
448,192,68906,1,0,0:0:0:0:
64,192,68906,1,0,0:0:0:0:
320,192,69137,1,0,0:0:0:0:
192,192,69137,1,0,0:0:0:0:
448,192,69368,1,0,0:0:0:0:
64,192,69368,1,0,0:0:0:0:
192,192,69368,1,0,0:0:0:0:
448,192,69599,1,0,0:0:0:0:
64,192,69599,1,0,0:0:0:0:
320,192,69714,1,0,0:0:0:0:
192,192,69829,1,0,0:0:0:0:
448,192,69829,1,0,0:0:0:0:
64,192,69829,1,0,0:0:0:0:
192,192,70060,1,0,0:0:0:0:
320,192,70060,1,0,0:0:0:0:
448,192,70291,1,0,0:0:0:0:
192,192,70291,1,0,0:0:0:0:
320,192,70522,1,0,0:0:0:0:
64,192,70522,1,0,0:0:0:0:
192,192,70637,1,0,0:0:0:0:
448,192,70752,1,0,0:0:0:0:
64,192,70983,1,0,0:0:0:0:
320,192,71214,1,0,0:0:0:0:
320,192,71560,1,0,0:0:0:0:
192,192,71675,1,0,0:0:0:0:
448,192,71675,1,0,0:0:0:0:
64,192,71675,1,0,0:0:0:0:
192,192,71906,1,0,0:0:0:0:
320,192,71906,1,0,0:0:0:0:
320,192,72137,1,0,0:0:0:0:
64,192,72137,1,0,0:0:0:0:
448,192,72137,1,0,0:0:0:0:
320,192,72368,1,0,0:0:0:0:
192,192,72368,1,0,0:0:0:0:
320,192,72483,1,0,0:0:0:0:
192,192,72599,1,0,0:0:0:0:
448,192,72599,1,0,0:0:0:0:
64,192,72599,1,0,0:0:0:0:
320,192,72829,1,0,0:0:0:0:
192,192,72829,1,0,0:0:0:0:
64,192,73060,128,0,74445:0:0:0:0:
320,192,73060,128,0,73175:0:0:0:0:
320,192,73291,128,0,73406:0:0:0:0:
320,192,73522,128,0,73637:0:0:0:0:
192,192,73752,128,0,74445:0:0:0:0:
448,192,73752,128,0,73868:0:0:0:0:
448,192,73983,128,0,74099:0:0:0:0:
320,192,74214,128,0,74445:0:0:0:0:
448,192,74214,128,0,74445:0:0:0:0:
64,192,74906,128,0,76522:0:0:0:0:
192,192,76522,128,0,77445:0:0:0:0:
320,192,77445,128,0,78137:0:0:0:0:
448,192,78137,128,0,78599:0:0:0:0:
320,192,78599,128,0,79752:0:0:0:0:
192,192,79752,128,0,80214:0:0:0:0:
64,192,80214,128,0,81368:0:0:0:0:
192,192,81368,128,0,81599:0:0:0:0:
320,192,81599,128,0,81829:0:0:0:0:
448,192,81829,128,0,82060:0:0:0:0:
320,192,82060,128,0,82291:0:0:0:0:
192,192,82291,128,0,83906:0:0:0:0:
64,192,83906,128,0,84829:0:0:0:0:
192,192,84829,128,0,85522:0:0:0:0:
320,192,85522,128,0,85983:0:0:0:0:
448,192,85983,128,0,86906:0:0:0:0:
320,192,86906,128,0,87137:0:0:0:0:
192,192,87137,128,0,87599:0:0:0:0:
64,192,87599,128,0,88752:0:0:0:0:
192,192,88752,128,0,88983:0:0:0:0:
320,192,88983,128,0,89214:0:0:0:0:
448,192,89214,128,0,89445:0:0:0:0:
320,192,89445,128,0,89675:0:0:0:0:
192,192,89675,128,0,91291:0:0:0:0:
448,192,89675,1,0,0:0:0:0:
448,192,89906,1,0,0:0:0:0:
448,192,90368,1,0,0:0:0:0:
448,192,90829,1,0,0:0:0:0:
64,192,91291,128,0,92214:0:0:0:0:
448,192,91291,1,0,0:0:0:0:
448,192,91522,1,0,0:0:0:0:
448,192,91752,1,0,0:0:0:0:
192,192,92214,128,0,92906:0:0:0:0:
448,192,92214,1,0,0:0:0:0:
448,192,92675,1,0,0:0:0:0:
320,192,92906,128,0,93368:0:0:0:0:
448,192,93137,1,0,0:0:0:0:
448,192,93368,128,0,94522:0:0:0:0:
64,192,93368,1,0,0:0:0:0:
64,192,93599,1,0,0:0:0:0:
64,192,94060,1,0,0:0:0:0:
320,192,94522,128,0,94983:0:0:0:0:
64,192,94522,1,0,0:0:0:0:
192,192,94983,128,0,95906:0:0:0:0:
448,192,94983,1,0,0:0:0:0:
448,192,95214,1,0,0:0:0:0:
448,192,95445,1,0,0:0:0:0:
64,192,95906,128,0,96599:0:0:0:0:
448,192,95906,1,0,0:0:0:0:
448,192,96368,1,0,0:0:0:0:
192,192,96599,128,0,97060:0:0:0:0:
64,192,96829,1,0,0:0:0:0:
320,192,97060,128,0,98906:0:0:0:0:
448,192,97060,1,0,0:0:0:0:
448,192,97291,1,0,0:0:0:0:
448,192,97752,1,0,0:0:0:0:
448,192,98214,1,0,0:0:0:0:
448,192,98675,1,0,0:0:0:0:
448,192,98906,128,0,99599:0:0:0:0:
64,192,98906,1,0,0:0:0:0:
64,192,99137,1,0,0:0:0:0:
320,192,99599,128,0,100291:0:0:0:0:
64,192,99599,1,0,0:0:0:0:
64,192,100060,1,0,0:0:0:0:
192,192,100291,128,0,100522:0:0:0:0:
64,192,100522,128,0,100752:0:0:0:0:
448,192,100522,1,0,0:0:0:0:
192,192,100752,128,0,104329:0:0:0:0:
320,192,100752,1,0,0:0:0:0:
448,192,100983,1,0,0:0:0:0:
64,192,101445,1,0,0:0:0:0:
448,192,101906,1,0,0:0:0:0:
64,192,102368,1,0,0:0:0:0:
448,192,102829,1,0,0:0:0:0:
64,192,103291,1,0,0:0:0:0:
448,192,103752,1,0,0:0:0:0:
64,192,104214,1,0,0:0:0:0:
64,192,104445,1,0,0:0:0:0:
192,192,104445,1,0,0:0:0:0:
448,192,104445,128,0,117368:0:0:0:0:
192,192,104906,1,0,0:0:0:0:
320,192,104906,1,0,0:0:0:0:
64,192,105368,1,0,0:0:0:0:
192,192,105368,1,0,0:0:0:0:
192,192,105829,1,0,0:0:0:0:
320,192,105829,1,0,0:0:0:0:
64,192,106291,1,0,0:0:0:0:
192,192,106291,1,0,0:0:0:0:
320,192,106752,1,0,0:0:0:0:
192,192,106752,1,0,0:0:0:0:
192,192,107214,1,0,0:0:0:0:
64,192,107214,1,0,0:0:0:0:
192,192,107675,1,0,0:0:0:0:
320,192,107675,1,0,0:0:0:0:
64,192,108137,1,0,0:0:0:0:
192,192,108137,1,0,0:0:0:0:
192,192,108599,1,0,0:0:0:0:
320,192,108599,1,0,0:0:0:0:
64,192,109060,1,0,0:0:0:0:
192,192,109060,1,0,0:0:0:0:
320,192,109522,1,0,0:0:0:0:
192,192,109522,1,0,0:0:0:0:
192,192,109983,1,0,0:0:0:0:
64,192,109983,1,0,0:0:0:0:
192,192,110445,1,0,0:0:0:0:
320,192,110445,1,0,0:0:0:0:
64,192,110906,1,0,0:0:0:0:
192,192,110906,1,0,0:0:0:0:
192,192,111368,1,0,0:0:0:0:
320,192,111368,1,0,0:0:0:0:
64,192,111829,1,0,0:0:0:0:
192,192,111829,1,0,0:0:0:0:
64,192,112060,1,0,0:0:0:0:
320,192,112060,1,0,0:0:0:0:
320,192,112291,1,0,0:0:0:0:
192,192,112291,1,0,0:0:0:0:
64,192,112522,1,0,0:0:0:0:
320,192,112522,1,0,0:0:0:0:
64,192,112752,1,0,0:0:0:0:
192,192,112752,1,0,0:0:0:0:
64,192,112983,1,0,0:0:0:0:
320,192,112983,1,0,0:0:0:0:
320,192,113214,1,0,0:0:0:0:
192,192,113214,1,0,0:0:0:0:
64,192,113445,1,0,0:0:0:0:
320,192,113445,1,0,0:0:0:0:
64,192,113675,1,0,0:0:0:0:
192,192,113675,1,0,0:0:0:0:
64,192,113906,1,0,0:0:0:0:
320,192,113906,1,0,0:0:0:0:
320,192,114137,1,0,0:0:0:0:
192,192,114137,1,0,0:0:0:0:
64,192,114368,1,0,0:0:0:0:
320,192,114368,1,0,0:0:0:0:
64,192,114599,1,0,0:0:0:0:
192,192,114599,1,0,0:0:0:0:
64,192,114829,1,0,0:0:0:0:
320,192,114829,1,0,0:0:0:0:
320,192,115060,1,0,0:0:0:0:
192,192,115060,1,0,0:0:0:0:
64,192,115291,1,0,0:0:0:0:
320,192,115291,1,0,0:0:0:0:
64,192,115522,1,0,0:0:0:0:
192,192,115522,1,0,0:0:0:0:
320,192,115637,1,0,0:0:0:0:
320,192,115752,1,0,0:0:0:0:
64,192,115752,1,0,0:0:0:0:
320,192,115868,1,0,0:0:0:0:
192,192,115983,1,0,0:0:0:0:
64,192,116099,1,0,0:0:0:0:
64,192,116214,1,0,0:0:0:0:
320,192,116214,1,0,0:0:0:0:
64,192,116329,1,0,0:0:0:0:
192,192,116445,1,0,0:0:0:0:
320,192,116560,1,0,0:0:0:0:
320,192,116675,1,0,0:0:0:0:
64,192,116675,1,0,0:0:0:0:
320,192,116791,1,0,0:0:0:0:
192,192,116906,1,0,0:0:0:0:
64,192,117022,1,0,0:0:0:0:
64,192,117137,1,0,0:0:0:0:
320,192,117137,1,0,0:0:0:0:
64,192,117252,1,0,0:0:0:0:
192,192,117368,128,0,117483:0:0:0:0:
64,192,117599,128,0,117714:0:0:0:0:
320,192,117599,128,0,117714:0:0:0:0:
192,192,117829,128,0,117945:0:0:0:0:
448,192,117829,128,0,117945:0:0:0:0:
320,192,118060,128,0,118175:0:0:0:0:
64,192,118291,128,0,118522:0:0:0:0:
448,192,118291,128,0,118522:0:0:0:0:
64,192,118752,1,0,0:0:0:0:
448,192,118752,1,0,0:0:0:0:
64,192,119214,128,0,119445:0:0:0:0:
448,192,119214,128,0,119445:0:0:0:0:
64,192,119675,1,0,0:0:0:0:
448,192,119675,1,0,0:0:0:0:
192,192,119906,1,0,0:0:0:0:
320,192,119906,1,0,0:0:0:0:
64,192,120137,1,0,0:0:0:0:
320,192,120137,1,0,0:0:0:0:
192,192,120368,1,0,0:0:0:0:
448,192,120368,1,0,0:0:0:0:
64,192,120599,1,0,0:0:0:0:
320,192,120599,1,0,0:0:0:0:
192,192,120829,1,0,0:0:0:0:
320,192,120829,1,0,0:0:0:0:
64,192,121060,1,0,0:0:0:0:
448,192,121060,1,0,0:0:0:0:
192,192,121291,1,0,0:0:0:0:
320,192,121291,1,0,0:0:0:0:
64,192,121522,1,0,0:0:0:0:
320,192,121522,1,0,0:0:0:0:
192,192,121752,1,0,0:0:0:0:
448,192,121752,1,0,0:0:0:0:
320,192,121983,1,0,0:0:0:0:
192,192,122214,1,0,0:0:0:0:
192,192,122445,1,0,0:0:0:0:
320,192,122445,1,0,0:0:0:0:
64,192,122445,128,0,122906:0:0:0:0:
448,192,122445,128,0,122906:0:0:0:0:
192,192,122906,1,0,0:0:0:0:
320,192,122906,1,0,0:0:0:0:
192,192,123368,1,0,0:0:0:0:
320,192,123368,1,0,0:0:0:0:
64,192,123599,1,0,0:0:0:0:
448,192,123599,1,0,0:0:0:0:
192,192,123829,1,0,0:0:0:0:
448,192,123829,1,0,0:0:0:0:
64,192,124060,1,0,0:0:0:0:
320,192,124060,1,0,0:0:0:0:
192,192,124291,1,0,0:0:0:0:
448,192,124291,1,0,0:0:0:0:
64,192,124522,1,0,0:0:0:0:
448,192,124522,1,0,0:0:0:0:
192,192,124752,1,0,0:0:0:0:
320,192,124752,1,0,0:0:0:0:
64,192,124983,1,0,0:0:0:0:
448,192,124983,1,0,0:0:0:0:
192,192,125214,1,0,0:0:0:0:
448,192,125214,1,0,0:0:0:0:
64,192,125445,1,0,0:0:0:0:
320,192,125445,1,0,0:0:0:0:
448,192,125675,128,0,125791:0:0:0:0:
320,192,125791,128,0,125906:0:0:0:0:
64,192,125906,128,0,126022:0:0:0:0:
192,192,126022,128,0,126137:0:0:0:0:
64,192,126137,1,0,0:0:0:0:
448,192,126137,128,0,126599:0:0:0:0:
320,192,126368,1,0,0:0:0:0:
64,192,126599,1,0,0:0:0:0:
320,192,126599,1,0,0:0:0:0:
192,192,127060,128,0,127175:0:0:0:0:
448,192,127060,128,0,127175:0:0:0:0:
320,192,127291,128,0,127406:0:0:0:0:
64,192,127291,128,0,127406:0:0:0:0:
192,192,127522,128,0,127637:0:0:0:0:
448,192,127522,128,0,127637:0:0:0:0:
320,192,127752,128,0,127868:0:0:0:0:
64,192,127752,128,0,127868:0:0:0:0:
192,192,127983,128,0,128099:0:0:0:0:
448,192,127983,128,0,128099:0:0:0:0:
64,192,128214,128,0,128329:0:0:0:0:
448,192,128214,128,0,128329:0:0:0:0:
192,192,128445,128,0,128675:0:0:0:0:
320,192,128445,128,0,128675:0:0:0:0:
64,192,128675,128,0,128791:0:0:0:0:
448,192,128675,128,0,128791:0:0:0:0:
192,192,128906,128,0,129022:0:0:0:0:
320,192,128906,128,0,129022:0:0:0:0:
64,192,129137,128,0,129252:0:0:0:0:
448,192,129137,128,0,129252:0:0:0:0:
320,192,129368,1,0,0:0:0:0:
192,192,129599,1,0,0:0:0:0:
448,192,129829,128,0,130291:0:0:0:0:
64,192,129829,128,0,130291:0:0:0:0:
192,192,129829,1,0,0:0:0:0:
320,192,129829,1,0,0:0:0:0:
192,192,130291,1,0,0:0:0:0:
320,192,130291,1,0,0:0:0:0:
64,192,130752,128,0,130868:0:0:0:0:
320,192,130752,128,0,130868:0:0:0:0:
448,192,130983,128,0,131099:0:0:0:0:
192,192,130983,128,0,131099:0:0:0:0:
64,192,131214,128,0,131329:0:0:0:0:
320,192,131214,128,0,131329:0:0:0:0:
448,192,131445,128,0,131560:0:0:0:0:
192,192,131445,128,0,131560:0:0:0:0:
320,192,131675,128,0,131791:0:0:0:0:
64,192,131675,128,0,131791:0:0:0:0:
448,192,131906,128,0,132022:0:0:0:0:
64,192,131906,128,0,132022:0:0:0:0:
64,192,132137,128,0,133522:0:0:0:0:
320,192,132137,128,0,132252:0:0:0:0:
320,192,132368,128,0,132483:0:0:0:0:
320,192,132599,128,0,132714:0:0:0:0:
192,192,132829,128,0,133522:0:0:0:0:
448,192,132829,128,0,132945:0:0:0:0:
448,192,133060,128,0,133175:0:0:0:0:
320,192,133291,128,0,133522:0:0:0:0:
448,192,133291,128,0,133522:0:0:0:0:
320,192,133983,1,0,0:0:0:0:
192,192,134329,1,0,0:0:0:0:
320,192,134445,1,0,0:0:0:0:
64,192,134445,1,0,0:0:0:0:
192,192,134675,1,0,0:0:0:0:
448,192,134675,1,0,0:0:0:0:
320,192,134906,1,0,0:0:0:0:
64,192,134906,1,0,0:0:0:0:
192,192,135137,1,0,0:0:0:0:
448,192,135137,1,0,0:0:0:0:
320,192,135368,1,0,0:0:0:0:
64,192,135368,1,0,0:0:0:0:
192,192,135599,1,0,0:0:0:0:
448,192,135599,1,0,0:0:0:0:
320,192,135829,1,0,0:0:0:0:
64,192,135829,1,0,0:0:0:0:
320,192,136060,1,0,0:0:0:0:
192,192,136060,1,0,0:0:0:0:
192,192,136175,1,0,0:0:0:0:
320,192,136291,1,0,0:0:0:0:
64,192,136291,1,0,0:0:0:0:
448,192,136291,1,0,0:0:0:0:
192,192,136522,1,0,0:0:0:0:
64,192,136522,1,0,0:0:0:0:
448,192,136522,1,0,0:0:0:0:
192,192,136752,1,0,0:0:0:0:
448,192,136752,1,0,0:0:0:0:
320,192,136983,1,0,0:0:0:0:
64,192,136983,1,0,0:0:0:0:
192,192,137214,1,0,0:0:0:0:
64,192,137214,128,0,137675:0:0:0:0:
320,192,137445,1,0,0:0:0:0:
192,192,137675,1,0,0:0:0:0:
192,192,138022,1,0,0:0:0:0:
320,192,138137,1,0,0:0:0:0:
64,192,138137,1,0,0:0:0:0:
192,192,138368,1,0,0:0:0:0:
448,192,138368,1,0,0:0:0:0:
320,192,138599,1,0,0:0:0:0:
64,192,138599,1,0,0:0:0:0:
192,192,138829,1,0,0:0:0:0:
448,192,138829,1,0,0:0:0:0:
320,192,139060,1,0,0:0:0:0:
64,192,139060,1,0,0:0:0:0:
192,192,139291,1,0,0:0:0:0:
448,192,139291,1,0,0:0:0:0:
320,192,139522,1,0,0:0:0:0:
64,192,139522,1,0,0:0:0:0:
192,192,139752,1,0,0:0:0:0:
320,192,139752,1,0,0:0:0:0:
192,192,139868,1,0,0:0:0:0:
320,192,139983,1,0,0:0:0:0:
64,192,139983,1,0,0:0:0:0:
448,192,139983,1,0,0:0:0:0:
192,192,140214,1,0,0:0:0:0:
448,192,140214,1,0,0:0:0:0:
64,192,140214,1,0,0:0:0:0:
320,192,140445,1,0,0:0:0:0:
64,192,140445,128,0,140560:0:0:0:0:
192,192,140560,128,0,140675:0:0:0:0:
448,192,140675,1,0,0:0:0:0:
320,192,140675,128,0,140791:0:0:0:0:
192,192,140791,128,0,140906:0:0:0:0:
64,192,140906,1,0,0:0:0:0:
448,192,140906,128,0,141368:0:0:0:0:
320,192,141137,1,0,0:0:0:0:
192,192,141368,1,0,0:0:0:0:
192,192,141714,1,0,0:0:0:0:
320,192,141829,1,0,0:0:0:0:
64,192,141829,1,0,0:0:0:0:
192,192,142060,1,0,0:0:0:0:
448,192,142060,1,0,0:0:0:0:
320,192,142291,1,0,0:0:0:0:
64,192,142291,1,0,0:0:0:0:
192,192,142522,1,0,0:0:0:0:
448,192,142522,1,0,0:0:0:0:
320,192,142752,1,0,0:0:0:0:
64,192,142752,1,0,0:0:0:0:
192,192,142983,1,0,0:0:0:0:
448,192,142983,1,0,0:0:0:0:
320,192,143214,1,0,0:0:0:0:
64,192,143214,1,0,0:0:0:0:
192,192,143445,1,0,0:0:0:0:
320,192,143445,1,0,0:0:0:0:
192,192,143560,1,0,0:0:0:0:
320,192,143675,1,0,0:0:0:0:
64,192,143675,1,0,0:0:0:0:
448,192,143675,1,0,0:0:0:0:
192,192,143906,1,0,0:0:0:0:
64,192,143906,1,0,0:0:0:0:
448,192,143906,1,0,0:0:0:0:
320,192,144137,1,0,0:0:0:0:
64,192,144137,1,0,0:0:0:0:
448,192,144368,1,0,0:0:0:0:
192,192,144368,1,0,0:0:0:0:
192,192,144599,1,0,0:0:0:0:
64,192,144599,128,0,145060:0:0:0:0:
320,192,144829,1,0,0:0:0:0:
192,192,145060,1,0,0:0:0:0:
192,192,145406,1,0,0:0:0:0:
320,192,145522,1,0,0:0:0:0:
64,192,145522,1,0,0:0:0:0:
192,192,145752,5,0,0:0:0:0:
448,192,145752,1,0,0:0:0:0:
320,192,145983,1,0,0:0:0:0:
64,192,145983,1,0,0:0:0:0:
192,192,146214,1,0,0:0:0:0:
448,192,146214,1,0,0:0:0:0:
320,192,146445,1,0,0:0:0:0:
64,192,146445,1,0,0:0:0:0:
192,192,146675,1,0,0:0:0:0:
448,192,146675,1,0,0:0:0:0:
448,192,146906,128,0,148175:0:0:0:0:
192,192,146906,128,0,147022:0:0:0:0:
192,192,147137,128,0,147252:0:0:0:0:
192,192,147368,128,0,147483:0:0:0:0:
64,192,147599,128,0,147714:0:0:0:0:
320,192,147599,128,0,148175:0:0:0:0:
64,192,147829,128,0,147945:0:0:0:0:
192,192,148060,128,0,148175:0:0:0:0:
64,192,148060,128,0,148175:0:0:0:0:
64,192,148291,5,0,0:0:0:0:
448,192,148291,1,0,0:0:0:0:
320,192,148752,1,0,0:0:0:0:
192,192,148752,1,0,0:0:0:0:
448,192,148752,128,4,158752:0:0:0:0:
64,192,148752,128,4,158752:0:0:0:0:
