osu file format v14

[General]
AudioFilename: audio.mp3
AudioLeadIn: 0
PreviewTime: -1
Countdown: 1
SampleSet: None
StackLeniency: 0.7
Mode: 3
LetterboxInBreaks: 0
SpecialStyle: 0
WidescreenStoryboard: 1

[Editor]
DistanceSpacing: 1.2
BeatDivisor: 4
GridSize: 8
TimelineZoom: 1

[Metadata]
Title:3rd Avenue
TitleUnicode:3rd Avenue
Artist:Sound Souler
ArtistUnicode:Sound Souler
Creator:The_Endz
Version:Master 7k
Source:Lanota
Tags:video game
BeatmapID:1324219
BeatmapSetID:567090

[Difficulty]
HPDrainRate:7
CircleSize:7
OverallDifficulty:5
ApproachRate:5
SliderMultiplier:1.4
SliderTickRate:1

[Events]
//Background and Video events
0,0,"cube-structure-line-neon-650x366.jpg",0,0
//Break Periods
//Storyboard Layer 0 (Background)
//Storyboard Layer 1 (Fail)
//Storyboard Layer 2 (Pass)
//Storyboard Layer 3 (Foreground)
//Storyboard Sound Samples

[TimingPoints]
1060.59090909091,461.538461538462,4,1,1,0,1,0
15368,-25,4,1,1,0,0,0
15599,-10000,4,1,1,0,0,0
15829,-100,4,1,1,0,0,0
37983,-133.333333333333,4,1,1,0,0,0
38445,-117.647058823529,4,1,1,0,0,0
38906,-105.263157894737,4,1,1,0,0,0
39368,-100,4,1,1,0,0,0
39829,-90.9090909090909,4,1,1,0,0,0
40291,-83.3333333333333,4,1,1,0,0,0
40752,-76.9230769230769,4,1,1,0,0,0
41214,-71.4285714285714,4,1,1,0,0,0
41675,-66.6666666666667,4,1,1,0,0,0
43579,-10000,4,1,1,0,0,0
43637,-50,4,1,1,0,0,0
43695,-10000,4,1,1,0,0,0
43752,-50,4,1,1,0,0,0
43810,-10000,4,1,1,0,0,0
43868,-50,4,1,1,0,0,0
43925,-10000,4,1,1,0,0,0
43983,-50,4,1,1,0,0,0
44041,-100,4,1,1,0,0,0
45368,-133.333333333333,4,1,1,0,0,0
45599,-100,4,1,1,0,0,0
45829,-100,4,1,1,0,0,1
48599,-50,4,1,1,0,0,0
48829,-10000,4,1,1,0,0,0
48945,-500,4,1,1,0,0,0
49060,-100,4,1,1,0,0,0
49522,-100,4,1,1,0,0,1
51829,-133.333333333333,4,1,1,0,0,0
52291,-50,4,1,1,0,0,0
52522,-10000,4,1,1,0,0,0
52637,-500,4,1,1,0,0,0
52752,-100,4,1,1,0,0,0
53214,-100,4,1,1,0,0,1
55291,-50,4,1,1,0,0,0
55406,-10000,4,1,1,0,0,0
55522,-50,4,1,1,0,0,0
55637,-10000,4,1,1,0,0,0
55752,-100,4,1,1,0,0,0
55983,-50,4,1,1,0,0,0
56214,-10000,4,1,1,0,0,0
56329,-500,4,1,1,0,0,0
56445,-100,4,1,1,0,0,0
56906,-100,4,1,1,0,0,1
58291,-90.9090909090909,4,1,1,0,0,0
59675,-133.333333333333,4,1,1,0,0,0
60137,-100,4,1,1,0,0,0
60599,-100,4,1,1,0,0,1
62906,-50,4,1,1,0,0,0
63022,-10000,4,1,1,0,0,0
63137,-50,4,1,1,0,0,0
63252,-10000,4,1,1,0,0,0
63368,-10,4,1,1,0,0,0
63483,-10000,4,1,1,0,0,0
63483,-133.333333333333,4,1,1,0,0,0
63583,-100,4,1,1,0,0,0
63829,-100,4,1,1,0,0,0
64291,-100,4,1,1,0,0,1
66599,-133.333333333333,4,1,1,0,0,0
67060,-50,4,1,1,0,0,0
67175,-10000,4,1,1,0,0,0
67285,-100,4,1,1,0,0,0
67522,-100,4,1,1,0,0,0
67983,-100,4,1,1,0,0,1
70291,-50,4,1,1,0,0,0
70406,-10000,4,1,1,0,0,0
70522,-50,4,1,1,0,0,0
70637,-100,4,1,1,0,0,0
71214,-100,4,1,1,0,0,0
71675,-100,4,1,1,0,0,1
73060,-83.3333333333333,4,1,1,0,0,0
74445,-50,4,1,1,0,0,0
74675,-10000,4,1,1,0,0,0
74906,-100,4,1,1,0,0,0
104445,-10000,4,1,1,0,0,1
104791,-66.6666666666667,4,1,1,0,0,1
104906,-10000,4,1,1,0,0,1
105137,-133.333333333333,4,1,1,0,0,1
105252,-66.6666666666667,4,1,1,0,0,1
105368,-10000,4,1,1,0,0,1
105483,-133.333333333333,4,1,1,0,0,1
105714,-66.6666666666667,4,1,1,0,0,1
105829,-10000,4,1,1,0,0,1
106060,-133.333333333333,4,1,1,0,0,1
106175,-66.6666666666667,4,1,1,0,0,1
106291,-10000,4,1,1,0,0,1
106637,-66.6666666666667,4,1,1,0,0,1
106752,-10000,4,1,1,0,0,1
106868,-133.333333333333,4,1,1,0,0,1
107099,-66.6666666666667,4,1,1,0,0,1
107214,-10000,4,1,1,0,0,1
107329,-133.333333333333,4,1,1,0,0,1
107560,-66.6666666666667,4,1,1,0,0,1
107675,-10000,4,1,1,0,0,1
107906,-133.333333333333,4,1,1,0,0,1
108137,-10000,4,1,1,0,0,1
108483,-66.6666666666667,4,1,1,0,0,1
108599,-10000,4,1,1,0,0,1
108829,-133.333333333333,4,1,1,0,0,1
109060,-10000,4,1,1,0,0,1
109175,-133.333333333333,4,1,1,0,0,1
109291,-66.6666666666667,4,1,1,0,0,1
109522,-10000,4,1,1,0,0,1
109752,-133.333333333333,4,1,1,0,0,1
109868,-66.6666666666667,4,1,1,0,0,1
109983,-10000,4,1,1,0,0,1
110329,-66.6666666666667,4,1,1,0,0,1
110445,-10000,4,1,1,0,0,1
110675,-66.6666666666667,4,1,1,0,0,1
110906,-10000,4,1,1,0,0,1
111022,-133.333333333333,4,1,1,0,0,1
111137,-66.6666666666667,4,1,1,0,0,1
111368,-10000,4,1,1,0,0,1
111483,-133.333333333333,4,1,1,0,0,1
111599,-66.6666666666667,4,1,1,0,0,1
111829,-66.6666666666667,4,1,1,0,0,1
111945,-133.333333333333,4,1,1,0,0,1
112060,-66.6666666666667,4,1,1,0,0,1
112175,-133.333333333333,4,1,1,0,0,1
112291,-66.6666666666667,4,1,1,0,0,1
112406,-133.333333333333,4,1,1,0,0,1
112522,-66.6666666666667,4,1,1,0,0,1
112637,-133.333333333333,4,1,1,0,0,1
112752,-66.6666666666667,4,1,1,0,0,1
112868,-133.333333333333,4,1,1,0,0,1
112983,-66.6666666666667,4,1,1,0,0,1
113099,-133.333333333333,4,1,1,0,0,1
113214,-66.6666666666667,4,1,1,0,0,1
113329,-133.333333333333,4,1,1,0,0,1
113445,-66.6666666666667,4,1,1,0,0,1
113560,-133.333333333333,4,1,1,0,0,1
113675,-66.6666666666667,4,1,1,0,0,1
113791,-133.333333333333,4,1,1,0,0,1
113906,-66.6666666666667,4,1,1,0,0,1
114022,-133.333333333333,4,1,1,0,0,1
114137,-66.6666666666667,4,1,1,0,0,1
114252,-133.333333333333,4,1,1,0,0,1
114368,-66.6666666666667,4,1,1,0,0,1
114483,-133.333333333333,4,1,1,0,0,1
114599,-66.6666666666667,4,1,1,0,0,1
114714,-133.333333333333,4,1,1,0,0,1
114829,-66.6666666666667,4,1,1,0,0,1
114945,-133.333333333333,4,1,1,0,0,1
115060,-66.6666666666667,4,1,1,0,0,1
115175,-133.333333333333,4,1,1,0,0,1
115291,-66.6666666666667,4,1,1,0,0,1
115406,-133.333333333333,4,1,1,0,0,1
115522,-100,4,1,1,0,0,1
117368,-66.6666666666667,4,1,1,0,0,0
117483,-133.333333333333,4,1,1,0,0,0
117599,-66.6666666666667,4,1,1,0,0,0
117714,-133.333333333333,4,1,1,0,0,0
117829,-66.6666666666667,4,1,1,0,0,0
117945,-133.333333333333,4,1,1,0,0,0
118060,-66.6666666666667,4,1,1,0,0,0
118175,-100,4,1,1,0,0,0
118291,-50,4,1,1,0,0,0
118522,-10000,4,1,1,0,0,0
118637,-100,4,1,1,0,0,0
118752,-133.333333333333,4,1,1,0,0,0
119214,-100,4,1,1,0,0,0
119675,-33.3333333333333,4,1,1,0,0,1
119791,-10000,4,1,1,0,0,1
119906,-33.3333333333333,4,1,1,0,0,1
120022,-10000,4,1,1,0,0,1
120137,-33.3333333333333,4,1,1,0,0,1
120252,-10000,4,1,1,0,0,1
120368,-33.3333333333333,4,1,1,0,0,1
120483,-10000,4,1,1,0,0,1
120599,-33.3333333333333,4,1,1,0,0,1
120714,-10000,4,1,1,0,0,1
120829,-33.3333333333333,4,1,1,0,0,1
120945,-10000,4,1,1,0,0,1
121060,-33.3333333333333,4,1,1,0,0,1
121175,-10000,4,1,1,0,0,1
121291,-33.3333333333333,4,1,1,0,0,1
121406,-10000,4,1,1,0,0,1
121522,-33.3333333333333,4,1,1,0,0,1
121637,-10000,4,1,1,0,0,1
121752,-100,4,1,1,0,0,1
121983,-66.6666666666667,4,1,1,0,0,1
122099,-133.333333333333,4,1,1,0,0,0
122214,-66.6666666666667,4,1,1,0,0,0
122329,-133.333333333333,4,1,1,0,0,0
122445,-50,4,1,1,0,0,0
122906,-20,4,1,1,0,0,0
123137,-10000,4,1,1,0,0,0
123368,-50,4,1,1,0,0,0
123483,-10000,4,1,1,0,0,0
123599,-50,4,1,1,0,0,0
123714,-10000,4,1,1,0,0,0
123829,-50,4,1,1,0,0,0
123945,-10000,4,1,1,0,0,0
124060,-50,4,1,1,0,0,0
124175,-10000,4,1,1,0,0,0
124291,-50,4,1,1,0,0,0
124406,-10000,4,1,1,0,0,0
124522,-50,4,1,1,0,0,0
124637,-10000,4,1,1,0,0,0
124752,-50,4,1,1,0,0,0
124868,-10000,4,1,1,0,0,0
124983,-50,4,1,1,0,0,0
125099,-10000,4,1,1,0,0,0
125214,-50,4,1,1,0,0,0
125329,-10000,4,1,1,0,0,0
125445,-100,4,1,1,0,0,0
125675,-133.333333333333,4,1,1,0,0,0
126137,-100,4,1,1,0,0,0
126599,-50,4,1,1,0,0,0
126829,-10000,4,1,1,0,0,0
127060,-50,4,1,1,0,0,0
127175,-133.333333333333,4,1,1,0,0,0
127291,-50,4,1,1,0,0,0
127406,-133.333333333333,4,1,1,0,0,0
127522,-50,4,1,1,0,0,0
127637,-133.333333333333,4,1,1,0,0,0
127752,-50,4,1,1,0,0,0
127868,-133.333333333333,4,1,1,0,0,0
127983,-50,4,1,1,0,0,0
128099,-133.333333333333,4,1,1,0,0,0
128214,-50,4,1,1,0,0,0
128329,-133.333333333333,4,1,1,0,0,0
128445,-50,4,1,1,0,0,0
128560,-133.333333333333,4,1,1,0,0,0
128675,-50,4,1,1,0,0,0
128791,-133.333333333333,4,1,1,0,0,0
128906,-50,4,1,1,0,0,0
129022,-133.333333333333,4,1,1,0,0,0
129137,-50,4,1,1,0,0,0
129252,-10000,4,1,1,0,0,0
129368,-33.3333333333333,4,1,1,0,0,0
129483,-10000,4,1,1,0,0,0
129599,-33.3333333333333,4,1,1,0,0,0
129714,-10000,4,1,1,0,0,0
129829,-50,4,1,1,0,0,0
130291,-20,4,1,1,0,0,0
130522,-10000,4,1,1,0,0,0
130752,-50,4,1,1,0,0,0
130868,-133.333333333333,4,1,1,0,0,0
130983,-50,4,1,1,0,0,0
131099,-133.333333333333,4,1,1,0,0,0
131214,-50,4,1,1,0,0,0
131329,-133.333333333333,4,1,1,0,0,0
131445,-50,4,1,1,0,0,0
131560,-133.333333333333,4,1,1,0,0,0
131675,-50,4,1,1,0,0,0
131791,-133.333333333333,4,1,1,0,0,0
131906,-50,4,1,1,0,0,0
132022,-133.333333333333,4,1,1,0,0,0
132137,-83.3333333333333,4,1,1,0,0,0
133522,-20,4,1,1,0,0,0
133752,-10000,4,1,1,0,0,0
133983,-50,4,1,1,0,0,0
134099,-133.333333333333,4,1,1,0,0,0
134214,-117.647058823529,4,1,1,0,0,0
134329,-100,4,1,1,0,0,0
134445,-50,4,1,1,0,0,0
134560,-10000,4,1,1,0,0,0
134675,-50,4,1,1,0,0,0
134791,-10000,4,1,1,0,0,0
134906,-50,4,1,1,0,0,0
135022,-10000,4,1,1,0,0,0
135137,-50,4,1,1,0,0,0
135252,-10000,4,1,1,0,0,0
135368,-50,4,1,1,0,0,0
135483,-10000,4,1,1,0,0,0
135599,-50,4,1,1,0,0,0
135714,-10000,4,1,1,0,0,0
135829,-50,4,1,1,0,0,0
135945,-10000,4,1,1,0,0,0
136060,-50,4,1,1,0,0,0
136175,-100,4,1,1,0,0,0
136291,-50,4,1,1,0,0,0
136406,-10000,4,1,1,0,0,0
136522,-50,4,1,1,0,0,0
136637,-100,4,1,1,0,0,0
136752,-66.6666666666667,4,1,1,0,0,0
136868,-10000,4,1,1,0,0,0
136983,-66.6666666666667,4,1,1,0,0,0
137099,-10000,4,1,1,0,0,0
137214,-66.6666666666667,4,1,1,0,0,0
137675,-50,4,1,1,0,0,0
137675,-100,4,1,1,0,0,0
137791,-133.333333333333,4,1,1,0,0,0
137906,-10000,4,1,1,0,0,0
138022,-100,4,1,1,0,0,0
138137,-50,4,1,1,0,0,0
138252,-10000,4,1,1,0,0,0
138368,-50,4,1,1,0,0,0
138483,-10000,4,1,1,0,0,0
138599,-50,4,1,1,0,0,0
138714,-10000,4,1,1,0,0,0
138829,-50,4,1,1,0,0,0
138945,-10000,4,1,1,0,0,0
139060,-50,4,1,1,0,0,0
139175,-10000,4,1,1,0,0,0
139291,-50,4,1,1,0,0,0
139406,-10000,4,1,1,0,0,0
139522,-50,4,1,1,0,0,0
139637,-10000,4,1,1,0,0,0
139752,-50,4,1,1,0,0,0
139868,-100,4,1,1,0,0,0
139983,-50,4,1,1,0,0,0
140099,-10000,4,1,1,0,0,0
140214,-50,4,1,1,0,0,0
140445,-133.333333333333,4,1,1,0,0,0
140906,-66.6666666666667,4,1,1,0,0,0
141368,-20,4,1,1,0,0,0
141483,-133.333333333333,4,1,1,0,0,0
141599,-10000,4,1,1,0,0,0
141714,-100,4,1,1,0,0,0
141829,-50,4,1,1,0,0,0
141945,-10000,4,1,1,0,0,0
142060,-50,4,1,1,0,0,0
142175,-10000,4,1,1,0,0,0
142291,-50,4,1,1,0,0,0
142406,-10000,4,1,1,0,0,0
142522,-50,4,1,1,0,0,0
142637,-10000,4,1,1,0,0,0
142752,-50,4,1,1,0,0,0
142868,-10000,4,1,1,0,0,0
142983,-50,4,1,1,0,0,0
143099,-10000,4,1,1,0,0,0
143214,-50,4,1,1,0,0,0
143329,-10000,4,1,1,0,0,0
143445,-50,4,1,1,0,0,0
143560,-100,4,1,1,0,0,0
143675,-50,4,1,1,0,0,0
143791,-10000,4,1,1,0,0,0
143906,-50,4,1,1,0,0,0
144022,-10000,4,1,1,0,0,0
144137,-33.3333333333333,4,1,1,0,0,0
144252,-10000,4,1,1,0,0,0
144368,-33.3333333333333,4,1,1,0,0,0
144483,-10000,4,1,1,0,0,0
144599,-66.6666666666667,4,1,1,0,0,0
145060,-20,4,1,1,0,0,0
145175,-133.333333333333,4,1,1,0,0,0
145291,-10000,4,1,1,0,0,0
145406,-100,4,1,1,0,0,0
145522,-50,4,1,1,0,0,0
145637,-10000,4,1,1,0,0,0
145752,-50,4,1,1,0,0,0
145868,-10000,4,1,1,0,0,0
145983,-50,4,1,1,0,0,0
146099,-10000,4,1,1,0,0,0
146214,-50,4,1,1,0,0,0
146329,-10000,4,1,1,0,0,0
146445,-50,4,1,1,0,0,0
146560,-10000,4,1,1,0,0,0
146675,-50,4,1,1,0,0,0
146791,-100,4,1,1,0,0,0
146906,-83.3333333333333,4,1,1,0,0,0
148291,-20,4,1,1,0,0,0
148406,-10000,4,1,1,0,0,0
148522,-66.6666666666667,4,1,1,0,0,0
148637,-100,4,1,1,0,0,0
148752,4000,4,1,1,0,1,0
148752,-10000,4,1,1,0,0,0
152752,-100,4,1,1,0,0,0

[HitObjects]
36,192,1060,5,0,0:0:0:0:
182,192,1060,1,0,0:0:0:0:
329,192,1060,1,0,0:0:0:0:
475,192,1060,1,0,0:0:0:0:
109,192,1406,1,0,0:0:0:0:
182,192,1522,1,0,0:0:0:0:
109,192,1752,1,0,0:0:0:0:
109,192,1983,1,0,0:0:0:0:
109,192,2329,1,0,0:0:0:0:
182,192,2445,1,0,0:0:0:0:
109,192,2675,1,0,0:0:0:0:
109,192,2906,1,0,0:0:0:0:
109,192,3252,1,0,0:0:0:0:
182,192,3368,1,0,0:0:0:0:
109,192,3599,1,0,0:0:0:0:
109,192,3829,1,0,0:0:0:0:
109,192,4175,1,0,0:0:0:0:
182,192,4291,1,0,0:0:0:0:
109,192,4522,1,0,0:0:0:0:
109,192,4752,1,0,0:0:0:0:
109,192,5099,1,0,0:0:0:0:
182,192,5214,1,0,0:0:0:0:
109,192,5445,1,0,0:0:0:0:
109,192,5675,1,0,0:0:0:0:
109,192,6022,1,0,0:0:0:0:
182,192,6137,1,0,0:0:0:0:
109,192,6368,1,0,0:0:0:0:
109,192,6599,1,0,0:0:0:0:
109,192,6945,1,0,0:0:0:0:
182,192,7060,1,0,0:0:0:0:
109,192,7291,1,0,0:0:0:0:
109,192,7522,1,0,0:0:0:0:
109,192,7868,1,0,0:0:0:0:
182,192,7983,1,0,0:0:0:0:
109,192,8214,1,0,0:0:0:0:
109,192,8445,1,0,0:0:0:0:
109,192,8675,1,0,0:0:0:0:
182,192,8791,1,0,0:0:0:0:
109,192,9022,1,0,0:0:0:0:
109,192,9252,1,0,0:0:0:0:
182,192,9368,1,0,0:0:0:0:
109,192,9483,1,0,0:0:0:0:
109,192,9714,1,0,0:0:0:0:
182,192,9945,1,0,0:0:0:0:
109,192,10175,1,0,0:0:0:0:
109,192,10637,1,0,0:0:0:0:
182,192,10752,1,0,0:0:0:0:
109,192,10983,1,0,0:0:0:0:
109,192,11214,1,0,0:0:0:0:
182,192,11329,1,0,0:0:0:0:
109,192,11445,1,0,0:0:0:0:
109,192,11675,1,0,0:0:0:0:
182,192,11906,1,0,0:0:0:0:
109,192,12137,1,0,0:0:0:0:
109,192,12483,1,0,0:0:0:0:
182,192,12599,1,0,0:0:0:0:
109,192,12829,1,0,0:0:0:0:
109,192,13060,1,0,0:0:0:0:
182,192,13175,1,0,0:0:0:0:
109,192,13291,1,0,0:0:0:0:
109,192,13522,1,0,0:0:0:0:
182,192,13752,1,0,0:0:0:0:
109,192,13983,1,0,0:0:0:0:
182,192,14329,1,0,0:0:0:0:
109,192,14560,1,0,0:0:0:0:
182,192,15022,1,0,0:0:0:0:
182,192,15137,1,0,0:0:0:0:
109,192,15368,1,0,0:0:0:0:
36,192,15829,1,0,0:0:0:0:
182,192,15829,1,0,0:0:0:0:
329,192,16060,1,0,0:0:0:0:
182,192,16060,1,0,0:0:0:0:
182,192,16291,1,0,0:0:0:0:
36,192,16291,1,0,0:0:0:0:
256,192,16522,128,0,18599:0:0:0:0:
475,192,16522,128,0,18599:0:0:0:0:
