osu file format v14

[General]
AudioFilename: audio.mp3
AudioLeadIn: 0
PreviewTime: -1
Countdown: 1
SampleSet: Normal
StackLeniency: 0.7
Mode: 3
LetterboxInBreaks: 0
SpecialStyle: 0
WidescreenStoryboard: 1

[Editor]
DistanceSpacing: 1.2
BeatDivisor: 4
GridSize: 8
TimelineZoom: 1

[Metadata]
Title:3rd Avenue
TitleUnicode:3rd Avenue
Artist:Sound Souler
ArtistUnicode:Sound Souler
Creator:The_Endz
Version:Acoustic
Source:Lanota
Tags:video game
BeatmapID:1227632
BeatmapSetID:567090

[Difficulty]
HPDrainRate:7
CircleSize:4
OverallDifficulty:5
ApproachRate:5
SliderMultiplier:1.4
SliderTickRate:1

[Events]
//Background and Video events
0,0,"cube-structure-line-neon-650x366.jpg",0,0
//Break Periods
2,129337,147552
//Storyboard Layer 0 (Background)
//Storyboard Layer 1 (Fail)
//Storyboard Layer 2 (Pass)
//Storyboard Layer 3 (Foreground)
//Storyboard Sound Samples

[TimingPoints]
1060.59090909091,461.538461538462,4,1,0,30,1,0
37983,-90.9090909090909,4,1,0,30,0,0
38445,-83.3333333333333,4,1,0,30,0,0
38906,-76.9230769230769,4,1,0,30,0,0
39368,-71.4285714285714,4,1,0,30,0,0
39829,-66.6666666666667,4,1,0,30,0,0
40291,-62.5,4,1,0,30,0,0
40752,-58.8235294117647,4,1,0,30,0,0
41214,-55.5555555555556,4,1,0,30,0,0
41675,-52.6315789473684,4,1,0,30,0,0
42137,-50,4,1,0,30,0,0
42599,-47.6190476190476,4,1,0,30,0,0
43060,-100,4,1,0,30,0,0
43522,-10000,4,1,0,30,0,0
44906,-133.333333333333,4,1,0,30,0,0
45368,-125,4,1,0,30,0,0
45829,-100,4,1,0,30,0,1
48137,-66.6666666666667,4,1,0,30,0,0
48368,-500,4,1,0,30,0,0
48599,-200,4,1,0,30,0,0
49060,-133.333333333333,4,1,0,30,0,0
49522,-100,4,1,0,30,0,1
51829,-10000,4,1,0,30,0,0
52291,-10,4,1,0,30,0,0
52752,-133.333333333333,4,1,0,30,0,0
53214,-100,4,1,0,30,0,1
55522,-66.6666666666667,4,1,0,30,0,0
55752,-500,4,1,0,30,0,0
55983,-200,4,1,0,30,0,0
56445,-133.333333333333,4,1,0,30,0,0
56906,-100,4,1,0,30,0,1
58291,-100,4,1,0,30,0,0
60599,-100,4,1,0,30,0,1
62906,-66.6666666666667,4,1,0,30,0,0
63137,-500,4,1,0,30,0,0
63368,-133.333333333333,4,1,0,30,0,0
63829,-100,4,1,0,30,0,0
64291,-100,4,1,0,30,0,1
66599,-10000,4,1,0,30,0,0
67060,-10,4,1,0,30,0,0
67522,-133.333333333333,4,1,0,30,0,0
67983,-100,4,1,0,30,0,1
70291,-100,4,1,0,30,0,0
71675,-100,4,1,0,30,0,1
73060,-100,4,1,0,30,0,0
104445,-10000,4,1,0,30,0,0
104791,-66.6666666666667,4,1,0,30,0,0
104906,-10000,4,1,0,30,0,0
105252,-66.6666666666667,4,1,0,30,0,0
105368,-10000,4,1,0,30,0,0
105714,-66.6666666666667,4,1,0,30,0,0
105829,-10000,4,1,0,30,0,0
106175,-66.6666666666667,4,1,0,30,0,0
106291,-10000,4,1,0,30,0,0
106637,-66.6666666666667,4,1,0,30,0,0
106752,-10000,4,1,0,30,0,0
107099,-66.6666666666667,4,1,0,30,0,0
107214,-10000,4,1,0,30,0,0
107560,-66.6666666666667,4,1,0,30,0,0
107675,-10000,4,1,0,30,0,0
108022,-66.6666666666667,4,1,0,30,0,0
108137,-10000,4,1,0,30,0,0
108483,-66.6666666666667,4,1,0,30,0,0
108599,-10000,4,1,0,30,0,0
108945,-66.6666666666667,4,1,0,30,0,0
109060,-10000,4,1,0,30,0,0
109406,-66.6666666666667,4,1,0,30,0,0
109522,-10000,4,1,0,30,0,0
109868,-66.6666666666667,4,1,0,30,0,0
109983,-10000,4,1,0,30,0,0
110329,-66.6666666666667,4,1,0,30,0,0
110445,-10000,4,1,0,30,0,0
110791,-66.6666666666667,4,1,0,30,0,0
110906,-10000,4,1,0,30,0,0
111252,-66.6666666666667,4,1,0,30,0,0
111368,-10000,4,1,0,30,0,0
111829,-100,4,1,0,30,0,0
119675,-100,4,1,0,30,0,1
121983,-100,4,1,0,30,0,0
123368,-100,4,1,0,30,0,1
125675,-100,4,1,0,30,0,0
127060,-100,4,1,0,30,0,1
129368,-100,4,1,0,30,0,0
130752,-100,4,1,0,30,0,1
132137,-100,4,1,0,30,0,0
134445,-100,4,1,0,30,0,1
136752,-100,4,1,0,30,0,0
138137,-100,4,1,0,30,0,1
140445,-100,4,1,0,30,0,0
141829,-100,4,1,0,30,0,1
144137,-100,4,1,0,30,0,0
145522,-100,4,1,0,30,0,1
146906,-100,4,1,0,30,0,0
148752,-50,4,1,0,30,0,0
150599,-33.3333333333333,4,1,0,30,0,0
152445,-25,4,1,0,30,0,0
154291,-20,4,1,0,30,0,0
156137,-16.6666666666667,4,1,0,30,0,0
157983,-100,4,1,0,30,0,0

[HitObjects]
64,192,1060,5,0,0:0:0:0:
448,192,1060,1,0,0:0:0:0:
320,192,1406,1,0,0:0:0:0:
192,192,1522,1,0,0:0:0:0:
64,192,1983,1,0,0:0:0:0:
448,192,1983,1,0,0:0:0:0:
192,192,2329,1,0,0:0:0:0:
320,192,2445,1,0,0:0:0:0:
448,192,2906,1,0,0:0:0:0:
64,192,2906,1,0,0:0:0:0:
320,192,3252,1,0,0:0:0:0:
192,192,3368,1,0,0:0:0:0:
64,192,3829,1,0,0:0:0:0:
448,192,3829,1,0,0:0:0:0:
192,192,4175,1,0,0:0:0:0:
320,192,4291,1,0,0:0:0:0:
64,192,4752,1,0,0:0:0:0:
448,192,4752,1,0,0:0:0:0:
320,192,5099,1,0,0:0:0:0:
192,192,5214,1,0,0:0:0:0:
64,192,5675,1,0,0:0:0:0:
448,192,5675,1,0,0:0:0:0:
192,192,6022,1,0,0:0:0:0:
320,192,6137,1,0,0:0:0:0:
448,192,6599,1,0,0:0:0:0:
64,192,6599,1,0,0:0:0:0:
320,192,6945,1,0,0:0:0:0:
192,192,7060,1,0,0:0:0:0:
448,192,7522,1,0,0:0:0:0:
64,192,7522,1,0,0:0:0:0:
192,192,7868,1,0,0:0:0:0:
320,192,7983,1,0,0:0:0:0:
448,192,8445,1,0,0:0:0:0:
64,192,8445,1,0,0:0:0:0:
320,192,8791,1,0,0:0:0:0:
192,192,8906,1,0,0:0:0:0:
64,192,9368,1,0,0:0:0:0:
64,192,9483,1,0,0:0:0:0:
64,192,10291,1,0,0:0:0:0:
448,192,10291,1,0,0:0:0:0:
192,192,10637,1,0,0:0:0:0:
320,192,10752,1,0,0:0:0:0:
448,192,11214,1,0,0:0:0:0:
448,192,11329,1,0,0:0:0:0:
448,192,12137,1,0,0:0:0:0:
64,192,12137,1,0,0:0:0:0:
320,192,12483,1,0,0:0:0:0:
192,192,12599,1,0,0:0:0:0:
64,192,13060,1,0,0:0:0:0:
64,192,13175,1,0,0:0:0:0:
64,192,13983,1,0,0:0:0:0:
320,192,13983,1,0,0:0:0:0:
192,192,14445,1,0,0:0:0:0:
448,192,14445,1,0,0:0:0:0:
320,192,14906,1,0,0:0:0:0:
64,192,14906,1,0,0:0:0:0:
192,192,15368,1,0,0:0:0:0:
320,192,15368,1,0,0:0:0:0:
64,192,15829,128,0,16060:0:0:0:0:
192,192,16060,128,0,16291:0:0:0:0:
320,192,16291,128,0,16522:0:0:0:0:
448,192,16522,128,0,18599:0:0:0:0:
320,192,18829,128,0,19060:0:0:0:0:
192,192,19060,128,0,19291:0:0:0:0:
64,192,19291,128,0,20675:0:0:0:0:
192,192,20675,128,0,20906:0:0:0:0:
320,192,20906,128,0,21137:0:0:0:0:
448,192,21137,128,0,22060:0:0:0:0:
320,192,22060,128,0,22637:0:0:0:0:
192,192,22752,1,0,0:0:0:0:
64,192,22983,1,0,0:0:0:0:
448,192,23214,128,0,23445:0:0:0:0:
320,192,23445,128,0,23675:0:0:0:0:
192,192,23675,128,0,23906:0:0:0:0:
64,192,23906,128,0,25983:0:0:0:0:
192,192,26214,128,0,26445:0:0:0:0:
320,192,26445,128,0,26675:0:0:0:0:
448,192,26675,128,0,28060:0:0:0:0:
320,192,28060,128,0,28291:0:0:0:0:
192,192,28291,128,0,28522:0:0:0:0:
64,192,28522,128,0,29445:0:0:0:0:
192,192,29445,128,0,30022:0:0:0:0:
320,192,30137,1,0,0:0:0:0:
448,192,30368,1,0,0:0:0:0:
320,192,30599,1,0,0:0:0:0:
192,192,30829,1,0,0:0:0:0:
64,192,31060,1,0,0:0:0:0:
448,192,31291,128,0,33368:0:0:0:0:
320,192,33599,1,0,0:0:0:0:
192,192,33829,1,0,0:0:0:0:
64,192,34060,128,0,35214:0:0:0:0:
192,192,35445,1,0,0:0:0:0:
320,192,35675,1,0,0:0:0:0:
448,192,35906,128,0,36829:0:0:0:0:
64,192,36829,128,0,37522:0:0:0:0:
448,192,37522,128,0,37752:0:0:0:0:
64,192,37752,128,0,37983:0:0:0:0:
192,192,37983,128,0,43406:0:0:0:0:
320,192,37983,128,0,43406:0:0:0:0:
64,192,43522,1,0,0:0:0:0:
448,192,43522,1,0,0:0:0:0:
64,192,45829,1,0,0:0:0:0:
320,192,45829,1,0,0:0:0:0:
64,192,46060,1,0,0:0:0:0:
64,192,46291,1,0,0:0:0:0:
320,192,46291,1,0,0:0:0:0:
64,192,46522,1,0,0:0:0:0:
64,192,46752,1,0,0:0:0:0:
320,192,46752,1,0,0:0:0:0:
64,192,46983,1,0,0:0:0:0:
64,192,47214,1,0,0:0:0:0:
320,192,47214,1,0,0:0:0:0:
64,192,47445,1,0,0:0:0:0:
64,192,47675,1,0,0:0:0:0:
320,192,47675,1,0,0:0:0:0:
64,192,47906,1,0,0:0:0:0:
320,192,48137,128,0,48368:0:0:0:0:
192,192,48137,128,0,48368:0:0:0:0:
64,192,48368,128,0,48599:0:0:0:0:
448,192,48368,128,0,48599:0:0:0:0:
192,192,49522,1,0,0:0:0:0:
448,192,49522,1,0,0:0:0:0:
448,192,49752,1,0,0:0:0:0:
448,192,49983,1,0,0:0:0:0:
192,192,49983,1,0,0:0:0:0:
448,192,50214,1,0,0:0:0:0:
192,192,50445,1,0,0:0:0:0:
448,192,50445,1,0,0:0:0:0:
448,192,50675,1,0,0:0:0:0:
192,192,50906,1,0,0:0:0:0:
448,192,50906,1,0,0:0:0:0:
448,192,51137,1,0,0:0:0:0:
192,192,51368,1,0,0:0:0:0:
448,192,51368,1,0,0:0:0:0:
448,192,51599,1,0,0:0:0:0:
448,192,51829,128,0,52291:0:0:0:0:
64,192,51829,128,0,52291:0:0:0:0:
64,192,53214,1,0,0:0:0:0:
320,192,53214,1,0,0:0:0:0:
64,192,53445,1,0,0:0:0:0:
192,192,53445,1,0,0:0:0:0:
192,192,53675,1,0,0:0:0:0:
448,192,53675,1,0,0:0:0:0:
448,192,53906,1,0,0:0:0:0:
320,192,53906,1,0,0:0:0:0:
64,192,54137,1,0,0:0:0:0:
320,192,54137,1,0,0:0:0:0:
64,192,54368,1,0,0:0:0:0:
192,192,54368,1,0,0:0:0:0:
192,192,54599,1,0,0:0:0:0:
448,192,54599,1,0,0:0:0:0:
448,192,54829,1,0,0:0:0:0:
320,192,54829,1,0,0:0:0:0:
64,192,55060,1,0,0:0:0:0:
320,192,55060,1,0,0:0:0:0:
192,192,55291,1,0,0:0:0:0:
64,192,55291,1,0,0:0:0:0:
64,192,55522,128,0,55752:0:0:0:0:
448,192,55522,128,0,55752:0:0:0:0:
192,192,55752,128,0,55983:0:0:0:0:
320,192,55752,128,0,55983:0:0:0:0:
192,192,56906,1,0,0:0:0:0:
448,192,56906,1,0,0:0:0:0:
320,192,57137,1,0,0:0:0:0:
448,192,57137,1,0,0:0:0:0:
64,192,57368,1,0,0:0:0:0:
320,192,57368,1,0,0:0:0:0:
64,192,57599,1,0,0:0:0:0:
192,192,57599,1,0,0:0:0:0:
192,192,57829,1,0,0:0:0:0:
448,192,57829,1,0,0:0:0:0:
448,192,58060,1,0,0:0:0:0:
320,192,58060,1,0,0:0:0:0:
320,192,58291,128,0,58406:0:0:0:0:
192,192,58522,128,0,58637:0:0:0:0:
320,192,58752,128,0,58868:0:0:0:0:
64,192,58983,128,0,59099:0:0:0:0:
448,192,59214,128,0,59329:0:0:0:0:
192,192,59445,128,0,60137:0:0:0:0:
320,192,59675,128,0,60137:0:0:0:0:
64,192,60599,1,0,0:0:0:0:
320,192,60599,1,0,0:0:0:0:
64,192,60829,1,0,0:0:0:0:
64,192,61060,1,0,0:0:0:0:
320,192,61060,1,0,0:0:0:0:
64,192,61291,1,0,0:0:0:0:
64,192,61522,1,0,0:0:0:0:
320,192,61522,1,0,0:0:0:0:
64,192,61752,1,0,0:0:0:0:
64,192,61983,1,0,0:0:0:0:
320,192,61983,1,0,0:0:0:0:
192,192,62214,1,0,0:0:0:0:
64,192,62445,1,0,0:0:0:0:
320,192,62445,1,0,0:0:0:0:
64,192,62675,1,0,0:0:0:0:
320,192,62675,1,0,0:0:0:0:
64,192,62906,128,0,63137:0:0:0:0:
448,192,62906,128,0,63137:0:0:0:0:
320,192,63137,128,0,63368:0:0:0:0:
192,192,63137,128,0,63368:0:0:0:0:
192,192,64291,1,0,0:0:0:0:
448,192,64291,1,0,0:0:0:0:
448,192,64522,1,0,0:0:0:0:
448,192,64752,1,0,0:0:0:0:
192,192,64752,1,0,0:0:0:0:
448,192,64983,1,0,0:0:0:0:
192,192,65214,1,0,0:0:0:0:
448,192,65214,1,0,0:0:0:0:
448,192,65445,1,0,0:0:0:0:
192,192,65675,1,0,0:0:0:0:
448,192,65675,1,0,0:0:0:0:
320,192,65906,1,0,0:0:0:0:
448,192,66137,1,0,0:0:0:0:
192,192,66137,1,0,0:0:0:0:
448,192,66368,1,0,0:0:0:0:
192,192,66368,1,0,0:0:0:0:
192,192,66599,128,0,67060:0:0:0:0:
320,192,66599,128,0,67060:0:0:0:0:
64,192,67983,1,0,0:0:0:0:
320,192,67983,1,0,0:0:0:0:
192,192,68214,1,0,0:0:0:0:
320,192,68214,1,0,0:0:0:0:
448,192,68445,1,0,0:0:0:0:
192,192,68445,1,0,0:0:0:0:
320,192,68675,1,0,0:0:0:0:
192,192,68675,1,0,0:0:0:0:
320,192,68906,1,0,0:0:0:0:
64,192,68906,1,0,0:0:0:0:
192,192,69137,1,0,0:0:0:0:
320,192,69137,1,0,0:0:0:0:
192,192,69368,1,0,0:0:0:0:
448,192,69368,1,0,0:0:0:0:
320,192,69599,1,0,0:0:0:0:
192,192,69599,1,0,0:0:0:0:
448,192,69829,1,0,0:0:0:0:
64,192,69829,1,0,0:0:0:0:
448,192,70060,1,0,0:0:0:0:
64,192,70060,1,0,0:0:0:0:
192,192,70291,128,0,70522:0:0:0:0:
320,192,70291,128,0,70522:0:0:0:0:
64,192,70522,128,0,70752:0:0:0:0:
448,192,70522,128,0,70752:0:0:0:0:
192,192,71675,1,0,0:0:0:0:
448,192,71675,1,0,0:0:0:0:
192,192,71906,1,0,0:0:0:0:
320,192,71906,1,0,0:0:0:0:
320,192,72137,1,0,0:0:0:0:
64,192,72137,1,0,0:0:0:0:
192,192,72368,1,0,0:0:0:0:
320,192,72368,1,0,0:0:0:0:
192,192,72599,1,0,0:0:0:0:
448,192,72599,1,0,0:0:0:0:
192,192,72829,1,0,0:0:0:0:
320,192,72829,1,0,0:0:0:0:
320,192,73060,128,0,73175:0:0:0:0:
192,192,73291,128,0,73406:0:0:0:0:
448,192,73522,128,0,73637:0:0:0:0:
64,192,73752,128,0,73868:0:0:0:0:
320,192,73983,128,0,74099:0:0:0:0:
192,192,74214,128,0,74445:0:0:0:0:
448,192,74906,128,0,76522:0:0:0:0:
320,192,76752,128,0,78368:0:0:0:0:
192,192,78599,128,0,80214:0:0:0:0:
64,192,80445,128,0,82060:0:0:0:0:
448,192,82291,128,0,83906:0:0:0:0:
320,192,84137,128,0,85752:0:0:0:0:
192,192,85983,128,0,87599:0:0:0:0:
64,192,87829,128,0,89445:0:0:0:0:
64,192,89675,128,0,91291:0:0:0:0:
192,192,89675,128,0,91291:0:0:0:0:
192,192,91522,128,0,93137:0:0:0:0:
320,192,91522,128,0,93137:0:0:0:0:
320,192,93368,128,0,94983:0:0:0:0:
448,192,93368,128,0,94983:0:0:0:0:
320,192,95214,128,0,96829:0:0:0:0:
192,192,95214,128,0,96829:0:0:0:0:
192,192,97060,128,0,98675:0:0:0:0:
64,192,97060,128,0,98675:0:0:0:0:
192,192,98906,128,0,100522:0:0:0:0:
320,192,98906,128,0,100522:0:0:0:0:
448,192,100752,128,0,104214:0:0:0:0:
64,192,100752,128,0,104214:0:0:0:0:
192,192,104445,1,0,0:0:0:0:
448,192,104445,1,0,0:0:0:0:
320,192,104906,1,0,0:0:0:0:
64,192,104906,1,0,0:0:0:0:
192,192,105368,1,0,0:0:0:0:
448,192,105368,1,0,0:0:0:0:
320,192,105829,1,0,0:0:0:0:
64,192,105829,1,0,0:0:0:0:
192,192,106291,1,0,0:0:0:0:
320,192,106291,1,0,0:0:0:0:
320,192,106752,1,0,0:0:0:0:
192,192,106752,1,0,0:0:0:0:
64,192,107214,1,0,0:0:0:0:
448,192,107214,1,0,0:0:0:0:
448,192,107675,1,0,0:0:0:0:
64,192,107675,1,0,0:0:0:0:
64,192,108137,1,0,0:0:0:0:
320,192,108137,1,0,0:0:0:0:
192,192,108599,1,0,0:0:0:0:
448,192,108599,1,0,0:0:0:0:
64,192,109060,1,0,0:0:0:0:
320,192,109060,1,0,0:0:0:0:
192,192,109522,1,0,0:0:0:0:
448,192,109522,1,0,0:0:0:0:
448,192,109983,1,0,0:0:0:0:
64,192,109983,1,0,0:0:0:0:
448,192,110445,1,0,0:0:0:0:
64,192,110445,1,0,0:0:0:0:
320,192,110906,1,0,0:0:0:0:
192,192,110906,1,0,0:0:0:0:
320,192,111368,1,0,0:0:0:0:
192,192,111368,1,0,0:0:0:0:
64,192,111829,1,0,0:0:0:0:
448,192,111829,1,0,0:0:0:0:
64,192,112060,1,0,0:0:0:0:
320,192,112060,1,0,0:0:0:0:
64,192,112291,1,0,0:0:0:0:
192,192,112291,1,0,0:0:0:0:
64,192,112522,1,0,0:0:0:0:
320,192,112522,1,0,0:0:0:0:
64,192,112752,1,0,0:0:0:0:
448,192,112752,1,0,0:0:0:0:
448,192,112983,1,0,0:0:0:0:
192,192,112983,1,0,0:0:0:0:
320,192,113214,1,0,0:0:0:0:
448,192,113214,1,0,0:0:0:0:
448,192,113445,1,0,0:0:0:0:
192,192,113445,1,0,0:0:0:0:
448,192,113675,1,0,0:0:0:0:
64,192,113675,1,0,0:0:0:0:
64,192,113906,1,0,0:0:0:0:
320,192,113906,1,0,0:0:0:0:
64,192,114137,1,0,0:0:0:0:
192,192,114137,1,0,0:0:0:0:
64,192,114368,1,0,0:0:0:0:
320,192,114368,1,0,0:0:0:0:
64,192,114599,1,0,0:0:0:0:
448,192,114599,1,0,0:0:0:0:
192,192,114829,1,0,0:0:0:0:
448,192,114829,1,0,0:0:0:0:
320,192,115060,1,0,0:0:0:0:
448,192,115060,1,0,0:0:0:0:
192,192,115291,1,0,0:0:0:0:
448,192,115291,1,0,0:0:0:0:
64,192,115522,128,0,115868:0:0:0:0:
448,192,115522,128,0,115868:0:0:0:0:
192,192,115983,128,0,116329:0:0:0:0:
320,192,115983,128,0,116329:0:0:0:0:
64,192,116445,128,0,116791:0:0:0:0:
320,192,116445,128,0,116791:0:0:0:0:
192,192,116906,128,0,117252:0:0:0:0:
448,192,116906,128,0,117252:0:0:0:0:
64,192,119214,1,0,0:0:0:0:
448,192,119214,1,0,0:0:0:0:
192,192,119560,1,0,0:0:0:0:
64,192,119675,1,0,0:0:0:0:
320,192,119675,1,0,0:0:0:0:
192,192,119906,1,0,0:0:0:0:
192,192,120137,1,0,0:0:0:0:
448,192,120137,1,0,0:0:0:0:
320,192,120368,1,0,0:0:0:0:
320,192,120599,1,0,0:0:0:0:
64,192,120599,1,0,0:0:0:0:
192,192,120829,1,0,0:0:0:0:
192,192,121060,1,0,0:0:0:0:
448,192,121060,1,0,0:0:0:0:
320,192,121291,1,0,0:0:0:0:
320,192,121522,1,0,0:0:0:0:
192,192,121752,1,0,0:0:0:0:
448,192,121752,1,0,0:0:0:0:
64,192,123368,1,0,0:0:0:0:
448,192,123368,1,0,0:0:0:0:
320,192,123599,1,0,0:0:0:0:
64,192,123599,1,0,0:0:0:0:
448,192,123829,1,0,0:0:0:0:
64,192,123829,1,0,0:0:0:0:
448,192,124060,1,0,0:0:0:0:
192,192,124060,1,0,0:0:0:0:
448,192,124291,1,0,0:0:0:0:
64,192,124291,1,0,0:0:0:0:
64,192,124522,1,0,0:0:0:0:
320,192,124522,1,0,0:0:0:0:
448,192,124752,1,0,0:0:0:0:
64,192,124752,1,0,0:0:0:0:
192,192,124983,1,0,0:0:0:0:
448,192,124983,1,0,0:0:0:0:
448,192,125214,1,0,0:0:0:0:
64,192,125214,1,0,0:0:0:0:
64,192,125445,1,0,0:0:0:0:
320,192,125445,1,0,0:0:0:0:
64,192,127060,1,0,0:0:0:0:
192,192,127060,1,0,0:0:0:0:
64,192,127291,1,0,0:0:0:0:
192,192,127291,1,0,0:0:0:0:
448,192,127522,1,0,0:0:0:0:
320,192,127522,1,0,0:0:0:0:
448,192,127752,1,0,0:0:0:0:
320,192,127752,1,0,0:0:0:0:
192,192,127983,1,0,0:0:0:0:
64,192,127983,1,0,0:0:0:0:
64,192,128214,1,0,0:0:0:0:
192,192,128214,1,0,0:0:0:0:
320,192,128445,1,0,0:0:0:0:
448,192,128445,1,0,0:0:0:0:
320,192,128675,1,0,0:0:0:0:
192,192,128675,1,0,0:0:0:0:
64,192,128906,1,0,0:0:0:0:
192,192,128906,1,0,0:0:0:0:
448,192,129137,1,0,0:0:0:0:
320,192,129137,1,0,0:0:0:0:
64,192,148752,5,0,0:0:0:0:
448,192,148752,1,0,0:0:0:0:
