osu file format v14

[General]
AudioFilename: Sound Patrol & VDG - Paper Wings (feat. Voia).mp3
AudioLeadIn: 0
PreviewTime: 162050
Countdown: 0
SampleSet: Soft
StackLeniency: 0.8
Mode: 0
LetterboxInBreaks: 0
WidescreenStoryboard: 0

[Editor]
DistanceSpacing: 1.8
BeatDivisor: 2
GridSize: 4
TimelineZoom: 1.3

[Metadata]
Title:Paper Wings (feat. Voia)
TitleUnicode:Paper Wings (feat. Voia)
Artist:Sound Patrol & VDG
ArtistUnicode:Sound Patrol & VDG
Creator:R4UP1
Version:XdREaM
Source:
Tags:Mr Suicide sheep DnB drum bass Raupy Caterpie
BeatmapID:997203
BeatmapSetID:465809

[Difficulty]
HPDrainRate:5
CircleSize:4.2
OverallDifficulty:8.3
ApproachRate:9.3
SliderMultiplier:1.6
SliderTickRate:1

[Events]
//Background and Video events
0,0,"52390650_p0.jpg",0,0
//Break Periods
2,8874,11496
2,64374,65496
2,118175,119496
//Storyboard Layer 0 (Background)
//Storyboard Layer 1 (Fail)
//Storyboard Layer 2 (Pass)
//Storyboard Layer 3 (Foreground)
//Storyboard Sound Samples

[TimingPoints]
1550,375,4,2,0,20,1,0
6050,-200,4,2,99,5,0,0
17675,-200,4,2,0,40,0,0
52175,-200,4,2,99,5,0,0
53675,-200,4,2,0,40,0,0
66050,-76.9230769230769,4,3,0,70,0,1
76925,-200,4,3,0,70,0,1
77675,-66.6666666666667,4,2,99,5,0,1
77768,-83.3333333333333,4,3,0,70,0,1
80487,-133.333333333333,4,3,0,15,0,1
80862,-83.3333333333333,4,3,0,70,0,1
86300,-83.3333333333333,4,2,0,40,0,1
87050,-83.3333333333333,4,3,0,70,0,1
89675,-200,4,2,0,40,0,1
90425,-83.3333333333333,4,3,0,70,0,1
98300,-83.3333333333333,4,2,0,40,0,1
99050,-83.3333333333333,4,3,0,70,0,1
112925,-200,4,3,0,70,0,1
113675,-83.3333333333333,4,3,0,70,0,1
114050,-133.333333333333,4,2,0,30,0,0
115987,-133.333333333333,4,2,99,5,0,0
117050,-133.333333333333,4,2,0,30,0,0
149300,-90.9090909090909,4,2,0,30,0,0
162050,-66.6666666666667,4,3,0,70,0,1
184550,-133.333333333333,4,3,0,70,0,1
185300,-76.9230769230769,4,2,0,10,0,1
186050,-66.6666666666667,4,3,0,70,0,1
207050,-100,4,2,0,50,0,0
208550,-133.333333333333,4,2,0,50,0,0
210050,-200,4,2,0,50,0,0

[Colours]
Combo1 : 196,241,14
Combo2 : 47,193,153
Combo3 : 3,68,220
Combo4 : 0,255,0

[HitObjects]
436,240,6050,6,0,B|392:259|344:248|344:248|296:268|296:268|256:252|256:252|232:260|200:256|172:244|172:244|184:272|216:280,1,320,0|0,0:0|0:0,0:0:0:0:
340,248,8112,2,0,B|300:192|300:192|248:168,1,120,0|0,0:0|0:0,0:0:0:0:
80,80,12050,6,0,B|128:84|152:104|152:104|212:96|212:96|252:120|252:120|280:108|332:116|332:116|314:88|276:88,1,320,0|0,0:0|0:0,0:0:0:0:
152,104,14112,2,0,B|112:156|112:156|104:212,1,120,0|0,0:0|0:0,0:0:0:0:
200,312,16175,5,0,0:0:0:0:
492,72,17675,6,0,P|478:113|454:144,1,80,0|2,0:0|0:0,0:0:0:0:
248,76,18612,6,0,P|286:85|319:107,1,80,0|0,0:0|0:0,0:0:0:0:
365,185,19176,1,0,0:0:0:0:
84,204,19549,5,0,0:0:0:0:
248,76,20112,1,0,0:0:0:0:
236,262,20675,1,0,0:0:0:0:
422,256,20862,5,0,0:0:0:0:
348,224,21050,2,0,B|276:236|276:236|228:268,1,120,0|0,0:0|0:0,0:0:0:0:
412,176,21987,1,0,0:0:0:0:
412,176,22175,2,0,B|240:204,1,160,0|0,0:0|0:0,0:0:0:0:
60,88,23675,6,0,B|81:128|81:128|120:156,1,80,0|2,0:0|0:0,0:0:0:0:
214,268,24612,2,0,B|244:234|244:234|257:188,1,80,0|0,0:0|0:0,0:0:0:0:
208,136,25175,1,0,0:0:0:0:
72,328,25550,5,0,0:0:0:0:
136,60,26112,1,0,0:0:0:0:
352,332,26675,5,0,0:0:0:0:
352,332,26862,1,0,0:0:0:0:
344,212,27050,2,0,L|352:332,1,120,0|0,0:0|0:0,0:0:0:0:
164,136,27987,1,0,0:0:0:0:
164,136,28175,2,0,B|172:228|172:228|200:292,1,160,0|0,0:0|0:0,0:0:0:0:
22,245,29675,6,0,L|-1:295,1,40,0|0,0:0|0:0,0:0:0:0:
52,344,30050,2,0,P|112:328|152:268,1,120,2|0,0:0|0:0,0:0:0:0:
76,152,30987,1,0,0:0:0:0:
76,152,31175,1,0,0:0:0:0:
216,44,31550,6,0,P|272:80|340:76,1,120,0|0,0:0|0:0,0:0:0:0:
460,32,32675,1,0,0:0:0:0:
408,200,32862,5,0,0:0:0:0:
408,200,33050,2,0,B|342:225|342:225|300:264,1,120,2|0,0:0|0:0,0:0:0:0:
196,164,33987,1,0,0:0:0:0:
196,164,34175,2,0,B|284:184|284:184|338:227,1,160,0|0,0:0|0:0,0:0:0:0:
100,320,35675,6,0,P|138:319|184:300,1,80,0|2,0:0|0:0,0:0:0:0:
412,320,36612,2,0,P|373:319|328:300,1,80,0|0,0:0|0:0,0:0:0:0:
256,236,37175,1,0,0:0:0:0:
348,72,37550,5,0,0:0:0:0:
256,236,38112,1,0,0:0:0:0:
164,72,38675,1,0,0:0:0:0:
416,124,39050,6,0,L|308:140,1,80,0|0,0:0|0:0,0:0:0:0:
124,200,39612,2,0,L|232:216,1,80,0|0,0:0|0:0,0:0:0:0:
356,280,40175,2,0,B|296:304|296:304|188:312,1,160,0|0,0:0|0:0,0:0:0:0:
356,280,41300,6,0,B|399:279|399:279|444:256,2,80,0|0|2,0:0|0:0|0:0,0:0:0:0:
104,136,42612,2,0,B|132:196|132:196|181:241,1,120,0|0,0:0|0:0,0:0:0:0:
272,64,43550,5,0,0:0:0:0:
171,232,44112,1,0,0:0:0:0:
408,324,44675,6,0,P|435:280|438:246,1,80
278,192,45612,6,0,P|304:242|368:262,1,120
280,108,47675,6,0,P|237:117|206:145,1,80,0|2,0:0|0:0,0:0:0:0:
88,116,48612,2,0,P|89:180|129:233,1,120,0|0,0:0|0:0,0:0:0:0:
256,312,49550,5,0,0:0:0:0:
436,184,50112,2,0,B|356:192|356:192|320:216,1,120,0|0,0:0|0:0,0:0:0:0:
256,192,50862,12,0,52175,0:0:0:0:
436,320,53675,6,0,P|399:294|376:256,1,80,0|2,0:0|0:0,0:0:0:0:
443,178,54612,6,0,P|435:226|375:266,1,120,0|0,0:0|0:0,0:0:0:0:
116,264,55550,5,0,0:0:0:0:
372,192,56112,1,0,0:0:0:0:
176,80,56675,2,0,P|156:128|156:164,1,80,0|0,0:0|0:0,0:0:0:0:
320,196,57612,6,0,P|281:150|215:134,1,120,0|0,0:0|0:0,0:0:0:0:
416,60,59675,6,0,L|400:144,1,80,0|2,0:0|0:0,0:0:0:0:
124,240,60612,6,0,B|180:216|180:216|252:204,1,120,0|0,0:0|0:0,0:0:0:0:
320,256,61550,5,0,0:0:0:0:
64,156,62112,1,0,0:0:0:0:
339,155,62675,6,0,B|387:151|435:163|475:211|475:211|431:207|395:215|367:239|367:239|331:239|307:267,1,320,4|0,0:0|0:0,0:0:0:0:
236,92,66050,5,0,0:0:0:0:
104,172,66237,1,0,0:0:0:0:
256,200,66425,1,0,0:0:0:0:
124,80,66612,1,0,0:0:0:0:
176,248,66800,1,8,0:0:0:0:
124,80,67175,5,0,0:0:0:0:
388,80,67362,1,0,0:0:0:0:
68,168,67550,1,0,0:0:0:0:
444,168,67737,1,0,0:0:0:0:
148,244,67925,1,0,0:0:0:0:
364,244,68112,1,0,0:0:0:0:
256,312,68300,1,8,0:0:0:0:
344,56,69050,5,0,0:0:0:0:
320,208,69237,1,0,0:0:0:0:
468,160,69425,1,0,0:0:0:0:
288,116,69612,1,0,0:0:0:0:
240,296,69800,1,8,0:0:0:0:
52,120,70175,6,0,B|64:184|64:184|92:228,1,103.999995239258
320,80,70550,1,0,0:0:0:0:
356,304,70737,1,0,0:0:0:0:
152,180,70925,1,0,0:0:0:0:
384,180,71112,1,0,0:0:0:0:
256,296,71300,1,8,0:0:0:0:
160,48,71675,5,0,0:0:0:0:
56,240,72050,5,0,0:0:0:0:
331,91,72237,1,0,0:0:0:0:
160,312,72425,1,0,0:0:0:0:
130,33,72612,1,0,0:0:0:0:
316,200,72800,1,8,0:0:0:0:
316,200,73175,6,0,P|228:256|276:328,1,207.999990478516,0|0,0:0|0:0,0:0:0:0:
392,192,73737,2,0,P|364:144|308:124,1,103.999995239258,0|0,0:0|0:0,0:0:0:0:
96,352,74112,1,0,0:0:0:0:
188,36,74300,1,8,0:0:0:0:
188,36,75050,6,0,P|144:80|128:124,1,103.999995239258
256,276,75425,2,0,B|298:245|298:245|320:192,1,103.999995239258
129,118,75800,1,8,0:0:0:0:
129,118,76175,6,0,P|130:171|166:222,1,103.999995239258
320,43,76550,2,0,P|273:78|253:141,1,103.999995239258
364,212,76925,6,0,L|404:212,1,40
156,213,77300,1,0,0:0:0:0:
320,120,77675,6,0,L|300:160,1,30.0000011444092
116,92,78050,6,0,L|88:108,2,23.9999992675781,0|0|0,0:0|0:0|0:0,0:0:0:0:
252,44,78237,2,0,P|299:64|336:112,1,95.9999970703126,0|0,0:0|0:0,0:0:0:0:
140,181,78612,2,0,P|115:134|121:74,1,95.9999970703126,0|8,0:0|0:0,0:0:0:0:
304,204,78987,2,0,L|292:264,1,47.9999985351563
272,352,79175,1,0,0:0:0:0:
188,120,79362,1,0,0:0:0:0:
368,324,79550,1,0,0:0:0:0:
424,144,79737,1,0,0:0:0:0:
136,252,79925,1,0,0:0:0:0:
340,76,80112,6,0,L|356:48,2,23.9999992675781,0|0|0,0:0|0:0|0:0,0:0:0:0:
252,224,80300,1,8,0:0:0:0:
236,88,80487,6,0,L|260:152,1,60.0000022888184,0|0,0:0|0:0,0:0:0:0:
176,36,81050,5,0,0:0:0:0:
136,252,81237,1,0,0:0:0:0:
80,64,81425,1,0,0:0:0:0:
224,264,81612,1,0,0:0:0:0:
48,164,81800,1,8,0:0:0:0:
356,304,82175,6,0,L|451:322,1,95.9999970703126,0|0,0:0|0:0,0:0:0:0:
224,264,82550,2,0,L|192:272,2,23.9999992675781,0|0|0,0:0|0:0|0:0,0:0:0:0:
328,236,82737,1,0,0:0:0:0:
172,184,82925,2,0,B|139:224|139:224|116:288,1,95.9999970703126,0|0,0:0|0:0,0:0:0:0:
100,360,83300,1,8,0:0:0:0:
47,49,83675,5,0,0:0:0:0:
416,272,84050,5,0,0:0:0:0:
136,88,84237,1,0,0:0:0:0:
388,152,84425,1,0,0:0:0:0:
172,228,84612,1,0,0:0:0:0:
256,152,84800,1,8,0:0:0:0:
148,340,85175,5,0,0:0:0:0:
356,32,85362,1,0,0:0:0:0:
323,304,85550,5,0,0:0:0:0:
178,80,85737,1,0,0:0:0:0:
353,201,85925,5,0,0:0:0:0:
155,187,86112,1,0,0:0:0:0:
353,201,86300,5,2,0:0:0:0:
368,222,86393,1,0,0:0:0:0:
382,242,86487,1,0,0:0:0:0:
397,263,86581,1,0,0:0:0:0:
411,284,86675,2,0,B|431:237|431:237|432:183,1,95.9999970703126,0|0,0:0|0:0,0:0:0:0:
328,56,87050,5,0,0:0:0:0:
180,304,87237,1,0,0:0:0:0:
100,128,87425,2,0,L|79:86,2,23.9999992675781,0|0|0,0:0|0:0|0:0,0:0:0:0:
193,151,87612,2,0,L|86:124,1,95.9999970703126,0|8,0:0|0:0,0:0:0:0:
456,248,88175,6,0,B|439:298|439:298|407:341,1,95.9999970703126,0|0,0:0|0:0,0:0:0:0:
336,156,88550,2,0,B|352:206|352:206|384:249,1,95.9999970703126,0|0,0:0|0:0,0:0:0:0:
444,88,88925,2,0,L|424:188,2,95.9999970703126,0|0|8,0:0|0:0|0:0,0:0:0:0:
197,182,89675,5,0,0:0:0:0:
174,189,89768,1,0,0:0:0:0:
150,197,89862,1,0,0:0:0:0:
127,204,89956,1,0,0:0:0:0:
103,212,90050,2,0,L|91:262,1,40,2|0,0:0|0:0,0:0:0:0:
53,131,90425,6,0,B|83:163|83:163|107:223,1,95.9999970703126,4|0,0:0|0:0,0:0:0:0:
336,280,90800,1,0,0:0:0:0:
336,280,91175,6,0,P|368:236|376:192,1,95.9999970703126,0|0,0:0|0:0,0:0:0:0:
204,268,91550,2,0,P|224:318|257:348,1,95.9999970703126,0|0,0:0|0:0,0:0:0:0:
296,208,91925,1,0,0:0:0:0:
424,292,92112,2,0,L|456:312,2,23.9999992675781,0|0|0,0:0|0:0|0:0,0:0:0:0:
296,208,92300,6,0,P|381:134|329:214,1,335.999989746094,8|0,0:0|0:0,0:0:0:0:
228,244,93050,6,0,P|196:196|191:151,1,95.9999970703126
301,24,93425,2,0,P|358:25|399:45,1,95.9999970703126
476,156,93800,1,8,0:0:0:0:
76,48,94175,5,0,0:0:0:0:
128,332,94362,1,0,0:0:0:0:
256,72,94550,2,0,L|256:32,2,23.9999992675781,0|0|0,0:0|0:0|0:0,0:0:0:0:
256,176,94737,1,0,0:0:0:0:
400,140,94925,1,0,0:0:0:0:
120,212,95112,1,0,0:0:0:0:
496,296,95300,1,8,0:0:0:0:
16,296,95675,1,0,0:0:0:0:
70,162,96050,5,0,0:0:0:0:
441,221,96237,1,0,0:0:0:0:
192,116,96425,1,0,0:0:0:0:
256,336,96612,1,0,0:0:0:0:
320,48,96800,1,8,0:0:0:0:
108,88,97175,6,0,P|80:140|76:176,1,95.9999970703126,0|0,0:0|0:0,0:0:0:0:
436,176,97550,2,0,P|429:128|404:88,1,95.9999970703126,0|0,0:0|0:0,0:0:0:0:
225,298,97925,2,0,B|256:336|256:336|296:288,1,95.9999970703126,0|0,0:0|0:0,0:0:0:0:
256,24,98300,5,2,0:0:0:0:
256,48,98393,1,0,0:0:0:0:
256,72,98487,1,0,0:0:0:0:
256,96,98581,1,0,0:0:0:0:
256,120,98675,2,0,P|308:112|340:80,1,95.9999970703126,0|0,0:0|0:0,0:0:0:0:
107,88,99050,5,0,0:0:0:0:
404,184,99237,1,0,0:0:0:0:
140,252,99425,2,0,L|116:224,2,23.9999992675781
204,328,99612,1,0,0:0:0:0:
256,40,99800,1,8,0:0:0:0:
404,184,100175,6,0,L|324:244,1,95.9999970703126,0|0,0:0|0:0,0:0:0:0:
400,144,100550,2,0,L|320:200,1,95.9999970703126,0|0,0:0|0:0,0:0:0:0:
181,289,100925,2,0,B|137:269|137:269|102:233,2,95.9999970703126,0|0|8,0:0|0:0|0:0,0:0:0:0:
156,64,101675,5,0,0:0:0:0:
159,77,101768,1,0,0:0:0:0:
162,91,101862,1,0,0:0:0:0:
166,105,101956,1,0,0:0:0:0:
172,124,102050,6,0,B|216:140|216:140|280:140,1,95.9999970703126,0|0,0:0|0:0,0:0:0:0:
132,268,102425,1,0,0:0:0:0:
356,32,102612,1,0,0:0:0:0:
256,304,102800,1,8,0:0:0:0:
256,48,102987,5,0,0:0:0:0:
256,80,103081,1,0,0:0:0:0:
256,112,103175,2,0,B|248:168|248:168|216:212,1,95.9999970703126,0|0,0:0|0:0,0:0:0:0:
40,112,103550,2,0,P|16:73|4:8,2,95.9999970703126,0|0|0,0:0|0:0|0:0,0:0:0:0:
224,199,104112,6,0,L|264:200,2,23.9999992675781,0|0|0,0:0|0:0|0:0,0:0:0:0:
81,280,104300,2,0,P|117:212|233:204,1,191.999994140625,8|0,0:0|0:0,0:0:0:0:
68,80,105050,6,0,L|52:52,2,23.9999992675781,0|0|0,0:0|0:0|0:0,0:0:0:0:
172,268,105237,1,0,0:0:0:0:
256,36,105425,1,0,0:0:0:0:
340,268,105612,1,0,0:0:0:0:
444,80,105800,2,0,B|444:176,1,95.9999970703126,8|0,0:0|0:0,0:0:0:0:
412,52,106081,5,0,0:0:0:0:
372,36,106175,2,0,P|320:48|284:76,1,95.9999970703126,0|0,0:0|0:0,0:0:0:0:
264,300,106550,2,0,P|307:269|330:229,1,95.9999970703126,0|0,0:0|0:0,0:0:0:0:
168,84,106925,2,0,L|156:188,1,95.9999970703126,0|0,0:0|0:0,0:0:0:0:
140,324,107300,1,8,0:0:0:0:
140,324,107675,6,0,L|112:356,2,23.9999992675781,0|0|0,0:0|0:0|0:0,0:0:0:0:
80,248,108050,6,0,L|44:236,2,23.9999992675781,0|0|0,0:0|0:0|0:0,0:0:0:0:
248,300,108237,1,0,0:0:0:0:
164,128,108425,1,0,0:0:0:0:
124,342,108612,1,0,0:0:0:0:
328,240,108800,2,0,P|364:204|368:144,1,95.9999970703126,8|0,0:0|0:0,0:0:0:0:
192,96,109081,5,0,0:0:0:0:
164,128,109175,2,0,L|140:232,1,95.9999970703126,0|0,0:0|0:0,0:0:0:0:
348,332,109550,2,0,L|372:228,1,95.9999970703126,0|0,0:0|0:0,0:0:0:0:
400,96,109925,1,0,0:0:0:0:
256,168,110112,2,0,L|256:208,2,23.9999992675781,0|0|0,0:0|0:0|0:0,0:0:0:0:
308,116,110300,2,0,B|220:136|220:136|164:224,1,191.999994140625,8|0,0:0|0:0,0:0:0:0:
20,148,111050,6,0,L|-4:132,2,23.9999992675781,0|0|0,0:0|0:0|0:0,0:0:0:0:
136,200,111237,2,0,B|172:156|172:156|184:112,1,95.9999970703126,0|0,0:0|0:0,0:0:0:0:
124,276,111612,2,0,P|84:256|60:212,1,95.9999970703126,0|8,0:0|0:0,0:0:0:0:
124,64,111987,5,0,0:0:0:0:
118,87,112081,1,0,0:0:0:0:
112,112,112175,1,0,0:0:0:0:
40,32,112362,1,0,0:0:0:0:
208,180,112550,1,0,0:0:0:0:
0,152,112737,1,0,0:0:0:0:
364,140,112925,6,0,L|325:160,1,40
72,294,113300,1,8,0:0:0:0:
256,120,113675,6,0,L|256:88,2,23.9999992675781,0|0|0,0:0|0:0|0:0,0:0:0:0:
300,288,114050,6,0,B|340:328|340:328|412:328|412:328|448:292|448:292|448:228|448:228|412:196|412:196|368:216|376:256,1,360.000013732911,0|0,0:0|0:0,0:0:0:0:
112,168,115987,6,0,L|128:216,1,40.000001525879,0|0,0:0|0:0,0:0:0:0:
360,108,117050,5,0,0:0:0:0:
96,104,120050,5,0,0:0:0:0:
428,244,121175,1,0,0:0:0:0:
428,244,123050,6,0,B|376:240|340:228|340:228|304:232|272:260|272:260|208:232|208:232|164:224|88:264|88:264|120:308|164:320|200:308,1,480.000018310548,0|0,0:0|0:0,0:0:0:0:
340,228,125300,6,0,P|296:164|412:132,1,240.000009155274
448,204,126237,1,0,0:0:0:0:
404,276,126425,1,0,0:0:0:0:
52,92,127175,6,0,L|128:112,1,60.0000022888184,0|0,0:0|0:0,0:0:0:0:
180,124,127550,1,0,0:0:0:0:
448,204,127925,6,0,L|372:224,1,60.0000022888184,0|0,0:0|0:0,0:0:0:0:
320,236,128300,1,0,0:0:0:0:
116,260,129050,5,0,0:0:0:0:
48,208,129237,1,0,0:0:0:0:
116,260,129425,2,0,P|186:247|217:205,2,120.000004577637,0|0|0,0:0|0:0|0:0,0:0:0:0:
140,188,130362,5,0,0:0:0:0:
208,328,130550,1,0,0:0:0:0:
392,137,130925,6,0,L|368:192,1,60.0000022888184,0|0,0:0|0:0,0:0:0:0:
304,328,131300,1,0,0:0:0:0:
256,88,131675,1,0,0:0:0:0:
116,245,132050,6,0,L|156:200,1,60.0000022888184,0|0,0:0|0:0,0:0:0:0:
256,88,132425,1,0,0:0:0:0:
440,220,133175,5,0,0:0:0:0:
308,296,133362,1,0,0:0:0:0:
408,216,133550,1,0,0:0:0:0:
145,221,133925,5,0,0:0:0:0:
244,166,134113,1,0,0:0:0:0:
157,94,134300,2,0,P|195:146|256:168,1,120.000004577637,0|0,0:0|0:0,0:0:0:0:
284,52,135050,6,0,B|313:34|345:30|371:41|371:41|391:79|428:108|428:108|384:148|336:152|336:152|364:216|304:256|220:232|248:156,1,480.000018310548,0|0,0:0|0:0,0:0:0:0:
132,228,136925,5,0,0:0:0:0:
244,166,137112,1,0,0:0:0:0:
143,113,137300,2,0,B|119:173|119:173|131:228,1,120.000004577637,0|0,0:0|0:0,0:0:0:0:
436,44,138050,6,0,B|416:105|432:160|432:160|420:208|368:228|320:196,1,240.000009155274,0|0,0:0|0:0,0:0:0:0:
256,56,139175,1,0,0:0:0:0:
76,44,139550,2,0,B|97:105|80:160|80:160|92:208|144:228|192:196,1,240.000009155274,0|0,0:0|0:0,0:0:0:0:
256,56,140675,2,0,L|256:128,1,60.0000022888184,0|0,0:0|0:0,0:0:0:0:
200,213,141050,6,0,B|181:260|181:260|194:308|194:308|123:296|123:296|95:328|59:336,1,240.000009155274,0|0,0:0|0:0,0:0:0:0:
256,264,142175,1,0,0:0:0:0:
312,213,142550,2,0,B|331:260|331:260|318:308|318:308|389:296|389:296|417:328|453:336,1,240.000009155274,0|0,0:0|0:0,0:0:0:0:
237,320,143675,6,0,L|256:264,1,60.0000022888184,0|0,0:0|0:0,0:0:0:0:
328,48,144050,6,0,B|404:108|404:108|416:180|464:240,1,240.000009155274,0|0,0:0|0:0,0:0:0:0:
256,172,145175,1,0,0:0:0:0:
184,48,145550,2,0,B|108:108|108:108|96:180|48:240,1,240.000009155274,0|0,0:0|0:0,0:0:0:0:
256,172,146675,1,0,0:0:0:0:
376,232,147050,6,0,B|358:281|296:297|296:297|314:339|314:339|351:353|351:353|377:354|401:321,1,240.000009155274,0|0,0:0|0:0,0:0:0:0:
442,207,148175,2,0,P|418:175|394:163,1,60.0000022888184
203,236,148550,2,0,P|253:289|307:294,1,120.000004577637,0|0,0:0|0:0,0:0:0:0:
148,84,149300,5,0,0:0:0:0:
104,284,149487,1,0,0:0:0:0:
348,120,149675,1,0,0:0:0:0:
325,105,149768,1,0,0:0:0:0:
303,91,149862,1,0,0:0:0:0:
280,76,149956,1,0,0:0:0:0:
257,61,150050,5,0,0:0:0:0:
256,220,150425,1,0,0:0:0:0:
376,92,150800,5,0,0:0:0:0:
452,232,151175,1,0,0:0:0:0:
136,92,151550,5,0,0:0:0:0:
60,232,151925,1,0,0:0:0:0:
388,328,152300,6,0,P|320:284|336:192,1,176.000005371094,0|0,0:0|0:0,0:0:0:0:
384,252,152862,2,0,P|332:268|288:260,1,88.000002685547,0|0,0:0|0:0,0:0:0:0:
56,136,153425,5,0,0:0:0:0:
420,68,153800,1,0,0:0:0:0:
112,316,154175,1,0,0:0:0:0:
184,44,154550,1,0,0:0:0:0:
428,240,154925,1,0,0:0:0:0:
68,208,155300,1,0,0:0:0:0:
336,88,155675,2,0,B|376:112|376:112|400:148,1,88.000002685547,0|0,0:0|0:0,0:0:0:0:
428,240,156050,5,0,0:0:0:0:
320,168,156237,1,0,0:0:0:0:
352,304,156425,1,0,0:0:0:0:
398,146,156612,1,0,0:0:0:0:
232,228,156800,1,0,0:0:0:0:
472,288,156987,1,0,0:0:0:0:
216,40,157175,1,0,0:0:0:0:
136,340,157362,1,0,0:0:0:0:
313,157,157550,5,0,0:0:0:0:
353,141,157643,1,0,0:0:0:0:
397,145,157737,1,0,0:0:0:0:
188,240,157925,5,0,0:0:0:0:
156,209,158018,1,0,0:0:0:0:
142,168,158112,1,0,0:0:0:0:
388,248,158300,6,0,L|444:252,2,44.0000013427735,0|0|0,0:0|0:0|0:0,0:0:0:0:
188,240,158675,5,0,0:0:0:0:
161,241,158768,1,0,0:0:0:0:
136,249,158862,1,0,0:0:0:0:
115,264,158956,1,0,0:0:0:0:
100,288,159050,6,0,P|151:164|37:233,2,352.000010742188,4|0|0,0:0|0:0|0:0,0:0:0:0:
41,89,160925,2,0,P|131:77|224:127,1,176.000005371094,0|0,0:0|0:0,0:0:0:0:
392,224,161487,2,0,P|352:200|328:160,1,88.000002685547,0|0,0:0|0:0,0:0:0:0:
376,84,161862,2,0,L|396:52,2,22.0000006713867,0|0|0,0:0|0:0|0:0,0:0:0:0:
142,205,162050,6,0,P|161:148|216:106,1,120.000004577637,0|0,0:0|0:0,0:0:0:0:
232,276,162425,2,0,P|187:315|118:326,1,120.000004577637,0|0,0:0|0:0,0:0:0:0:
72,136,162800,6,0,P|148:48|264:20,1,240.000009155274,4|0,0:0|0:0,0:0:0:0:
344,168,163362,1,0,0:0:0:0:
460,44,163550,2,0,L|444:164,1,120.000004577637,0|0,0:0|0:0,0:0:0:0:
356,308,163925,2,0,P|280:332|232:324,1,120.000004577637,0|0,0:0|0:0,0:0:0:0:
172,136,164300,6,0,B|232:120|232:120|292:128|292:128|316:176|284:216|232:220,1,240.000009155274,4|0,0:0|0:0,0:0:0:0:
80,196,164862,1,0,0:0:0:0:
168,56,165050,2,0,B|229:40|229:40|304:48,1,120.000004577637,0|0,0:0|0:0,0:0:0:0:
376,188,165425,2,0,P|349:246|300:284,1,120.000004577637,0|0,0:0|0:0,0:0:0:0:
168,56,165800,6,0,B|128:100|140:160|140:160|115:214|115:214|108:292,1,240.000009155274,4|0,0:0|0:0,0:0:0:0:
216,124,166362,1,0,0:0:0:0:
460,184,166550,2,0,L|344:212,1,120.000004577637,0|0,0:0|0:0,0:0:0:0:
108,282,166925,2,0,B|144:300|144:300|228:308,1,120.000004577637,0|0,0:0|0:0,0:0:0:0:
215,114,167300,6,0,P|107:178|107:281,1,240.000009155274,4|0,0:0|0:0,0:0:0:0:
256,204,167862,1,0,0:0:0:0:
76,36,168050,2,0,P|64:96|92:156,1,120.000004577637,0|0,0:0|0:0,0:0:0:0:
332,136,168425,2,0,P|285:96|219:91,1,120.000004577637,0|0,0:0|0:0,0:0:0:0:
304,304,168800,6,0,B|348:319|348:319|396:308|396:308|428:264|428:264|392:228|336:232,1,240.000009155274,4|0,0:0|0:0,0:0:0:0:
196,304,169362,1,0,0:0:0:0:
44,128,169550,2,0,L|76:244,1,120.000004577637,0|0,0:0|0:0,0:0:0:0:
236,60,169925,2,0,L|208:180,1,120.000004577637,0|0,0:0|0:0,0:0:0:0:
364,328,170300,6,0,B|424:292|424:292|448:248|448:248|448:168|408:128,1,240.000009155274,4|0,0:0|0:0,0:0:0:0:
276,40,170862,1,0,0:0:0:0:
48,200,171050,2,0,B|88:252|88:252|152:280,1,120.000004577637,0|0,0:0|0:0,0:0:0:0:
236,124,171425,2,0,B|180:144|180:144|132:196,1,120.000004577637,0|0,0:0|0:0,0:0:0:0:
308,188,171800,6,0,B|360:152|368:80|368:80|312:48|312:48|248:48,1,240.000009155274,4|0,0:0|0:0,0:0:0:0:
100,80,172362,1,0,0:0:0:0:
164,272,172550,2,0,P|109:244|57:194,1,120.000004577637,0|0,0:0|0:0,0:0:0:0:
421,223,172925,2,0,P|366:197|307:187,1,120.000004577637,0|0,0:0|0:0,0:0:0:0:
40,340,173300,6,0,B|104:328|104:328|152:356|200:340|200:340|248:356|296:348,1,240.000009155274,4|0,0:0|0:0,0:0:0:0:
432,296,173862,1,0,0:0:0:0:
200,48,174050,2,0,P|140:112|128:156,1,120.000004577637,0|0,0:0|0:0,0:0:0:0:
252,276,174425,2,0,P|312:212|324:168,1,120.000004577637,0|0,0:0|0:0,0:0:0:0:
36,76,174800,6,0,P|16:176|80:296,1,240.000009155274,4|0,0:0|0:0,0:0:0:0:
256,120,175362,1,0,0:0:0:0:
104,192,175550,2,0,B|140:216|140:216|232:232,1,120.000004577637,0|0,0:0|0:0,0:0:0:0:
416,52,175925,2,0,L|404:176,1,120.000004577637,0|0,0:0|0:0,0:0:0:0:
116,84,176300,6,0,B|104:192|104:192|132:336,1,240.000009155274,4|0,0:0|0:0,0:0:0:0:
256,208,176862,1,0,0:0:0:0:
352,348,177050,2,0,P|400:304|420:244,1,120.000004577637,0|0,0:0|0:0,0:0:0:0:
152,236,177425,2,0,P|104:192|84:132,1,120.000004577637,0|0,0:0|0:0,0:0:0:0:
304,55,177800,6,0,P|384:131|418:269,1,240.000009155274,4|0,0:0|0:0,0:0:0:0:
256,152,178362,1,0,0:0:0:0:
360,336,178550,2,0,B|304:328|304:328|238:295,1,120.000004577637,0|0,0:0|0:0,0:0:0:0:
40,312,178925,2,0,L|136:240,1,120.000004577637,0|0,0:0|0:0,0:0:0:0:
400,56,179300,6,0,B|450:99|450:99|504:124,1,120.000004577637,0|0,0:0|0:0,0:0:0:0:
112,56,179675,2,0,B|61:99|61:99|8:124,1,120.000004577637,0|0,0:0|0:0,0:0:0:0:
344,196,180050,2,0,P|392:256|440:264,1,120.000004577637,0|0,0:0|0:0,0:0:0:0:
256,128,180425,2,0,P|200:148|164:200,1,120.000004577637,0|0,0:0|0:0,0:0:0:0:
4,240,180800,6,0,B|72:300|72:300|228:328,1,240.000009155274,4|0,0:0|0:0,0:0:0:0:
388,308,181362,1,0,0:0:0:0:
140,112,181550,2,0,B|105:170|105:170|100:232,1,120.000004577637,0|0,0:0|0:0,0:0:0:0:
372,112,181925,2,0,B|406:170|406:170|412:232,1,120.000004577637,0|0,0:0|0:0,0:0:0:0:
215,223,182300,6,0,P|252:135|294:221,1,240.000009155274,4|0,0:0|0:0,0:0:0:0:
256,92,182862,1,0,0:0:0:0:
416,136,183050,6,0,P|435:191|416:247,1,120.000004577637,0|0,0:0|0:0,0:0:0:0:
95,246,183425,2,0,P|76:191|96:135,1,120.000004577637,0|0,0:0|0:0,0:0:0:0:
256,68,183800,2,0,B|280:104|272:148|272:148|256:192|256:192|264:240|264:240|251:269|256:304,1,240.000009155274,4|0,0:0|0:0,0:0:0:0:
180,124,184362,1,0,0:0:0:0:
344,200,184550,6,0,L|416:220,1,60.0000022888184,8|0,0:0|0:0,0:0:0:0:
168,200,184925,2,0,L|111:215,1,60.0000022888184
256,300,185300,6,0,L|256:340,14,25.9999988098145
256,208,186050,6,0,L|256:80,1,120.000004577637,2|0,0:0|0:0,0:0:0:0:
400,72,186425,2,0,P|440:120|456:180,1,120.000004577637,0|0,0:0|0:0,0:0:0:0:
116,304,186800,2,0,P|64:192|92:80,1,240.000009155274,4|0,0:0|0:0,0:0:0:0:
256,12,187362,1,0,0:0:0:0:
360,240,187550,6,0,L|477:262,1,120.000004577637,0|0,0:0|0:0,0:0:0:0:
244,100,187925,2,0,B|183:121|183:121|140:160,1,120.000004577637,0|0,0:0|0:0,0:0:0:0:
20,292,188300,2,0,B|40:336|80:344|80:344|135:329|135:329|181:346|244:340,1,240.000009155274,4|0,0:0|0:0,0:0:0:0:
96,248,188862,1,0,0:0:0:0:
384,304,189050,6,0,P|416:252|420:184,1,120.000004577637,0|0,0:0|0:0,0:0:0:0:
276,88,189425,2,0,P|244:140|240:208,1,120.000004577637,0|0,0:0|0:0,0:0:0:0:
376,80,189800,2,0,B|332:64|332:64|280:64|280:64|208:40|136:72,1,240.000009155274,4|0,0:0|0:0,0:0:0:0:
40,216,190362,1,0,0:0:0:0:
320,144,190550,6,0,P|376:184|400:240,1,120.000004577637,0|0,0:0|0:0,0:0:0:0:
114,228,190925,2,0,P|142:176|192:144,1,120.000004577637,0|0,0:0|0:0,0:0:0:0:
372,300,191300,2,0,P|256:332|132:288,1,240.000009155274,4|0,0:0|0:0,0:0:0:0:
256,216,191862,1,0,0:0:0:0:
120,52,192050,6,0,L|104:176,1,120.000004577637,0|0,0:0|0:0,0:0:0:0:
292,109,192425,2,0,L|312:229,1,120.000004577637,0|0,0:0|0:0,0:0:0:0:
446,127,192800,2,0,B|471:105|463:77|463:77|411:84|369:69|369:69|327:76|290:110,1,240.000009155274,4|0,0:0|0:0,0:0:0:0:
192,260,193362,1,0,0:0:0:0:
487,234,193550,6,0,P|479:173|437:120,1,120.000004577637,0|0,0:0|0:0,0:0:0:0:
275,67,193925,2,0,P|214:74|161:116,1,120.000004577637,0|0,0:0|0:0,0:0:0:0:
136,292,194300,2,0,B|164:316|200:312|200:312|221:339|256:352|256:352|300:308|280:248,1,240.000009155274,4|0,0:0|0:0,0:0:0:0:
184,192,194862,1,0,0:0:0:0:
56,268,195050,2,0,P|80:336|116:364,1,120.000004577637
284,138,195425,2,0,P|214:157|184:191,1,120.000004577637
416,300,195800,6,0,P|444:200|380:76,1,240.000009155274,4|0,0:0|0:0,0:0:0:0:
232,60,196362,1,0,0:0:0:0:
276,248,196550,2,0,P|328:216|352:160,1,120.000004577637
183,191,196925,2,0,P|176:249|204:302,1,120.000004577637
200,76,197300,6,0,B|112:148|112:148|80:280,1,240.000009155274,4|0,0:0|0:0,0:0:0:0:
220,348,197862,1,0,0:0:0:0:
328,236,198050,2,0,B|329:170|329:170|301:106,1,120.000004577637,0|0,0:0|0:0,0:0:0:0:
116,144,198425,2,0,B|164:189|164:189|219:215,1,120.000004577637,0|0,0:0|0:0,0:0:0:0:
452,336,198800,6,0,B|456:284|436:248|436:248|444:169|444:169|424:80,1,240.000009155274,4|0,0:0|0:0,0:0:0:0:
360,308,199362,1,0,0:0:0:0:
288,80,199550,2,0,P|220:48|164:56,1,120.000004577637
124,276,199925,2,0,P|186:234|207:181,1,120.000004577637,0|0,0:0|0:0,0:0:0:0:
66,95,200300,6,0,B|32:127|32:127|28:171|28:171|40:219|80:267|132:279,1,240.000009155274,4|0,0:0|0:0,0:0:0:0:
324,192,200862,1,0,0:0:0:0:
176,32,201050,2,0,P|144:89|156:160,1,120.000004577637,2|0,0:0|0:0,0:0:0:0:
301,295,201425,2,0,P|366:287|417:237,1,120.000004577637
254,101,201800,6,0,P|188:108|137:158,1,120.000004577637,4|0,0:0|0:0,0:0:0:0:
356,196,202175,2,0,P|396:144|397:73,1,120.000004577637
208,192,202550,2,0,P|167:243|166:314,1,120.000004577637,2|0,0:0|0:0,0:0:0:0:
356,196,202925,2,0,L|480:208,1,120.000004577637
156,196,203300,2,0,L|32:208,1,120.000004577637,4|0,0:0|0:0,0:0:0:0:
256,260,203675,1,0,0:0:0:0:
256,44,203862,1,0,0:0:0:0:
416,272,204050,6,0,B|392:308|392:308|312:332,1,120.000004577637,8|0,0:0|0:0,0:0:0:0:
96,276,204425,1,0,0:0:0:0:
256,132,204612,1,0,0:0:0:0:
60,52,204800,6,0,B|66:112|66:112|50:160|50:160|72:196|72:196|62:240|96:276,1,240.000009155274,4|0,0:0|0:0,0:0:0:0:
256,324,205362,1,0,0:0:0:0:
471,39,205550,6,0,B|315:79|315:79|247:139,1,240.000009155274,8|0,0:0|0:0,0:0:0:0:
416,268,206112,1,0,0:0:0:0:
105,161,206300,6,0,B|73:217|73:217|97:269,1,120.000004577637,4|0,0:0|0:0,0:0:0:0:
416,268,206675,2,0,B|439:217|439:217|407:161,1,120.000004577637,0|0,0:0|0:0,0:0:0:0:
176,216,207050,6,0,P|240:172|260:92,1,160,2|0,0:0|0:0,0:0:0:0:
128,52,207800,1,0,0:0:0:0:
128,52,208550,6,0,P|76:96|56:156,1,120.000004577637,0|0,0:0|0:0,0:0:0:0:
60,264,209300,6,0,B|96:268|128:256|128:256|204:268|204:268|256:252|316:264,1,240.000009155274,0|0,0:0|0:0,0:0:0:0:
376,288,210425,2,0,P|352:324|304:344,1,80,0|0,0:0|0:0,0:0:0:0:
240,340,211175,1,2,0:0:0:0:
116,168,213050,6,0,B|48:164|16:220|16:220|76:256|76:256|140:256,1,240,0|0,0:0|0:0,0:0:0:0:
368,156,216050,5,4,0:0:0:0:
383,78,216800,2,0,P|368:122|368:161,1,80,0|2,0:0|0:0,0:0:0:0:
368,156,217925,6,0,B|400:172|400:216|400:216|356:240|356:240|320:224|280:224|280:224|256:192,1,240,0|2,0:0|0:0,0:0:0:0:
