osu file format v14

[General]
AudioFilename: audio.mp3
AudioLeadIn: 0
PreviewTime: 89856
Countdown: 0
SampleSet: Soft
StackLeniency: 0.7
Mode: 0
LetterboxInBreaks: 0
WidescreenStoryboard: 1

[Editor]
Bookmarks: 196994
DistanceSpacing: 1.3
BeatDivisor: 7
GridSize: 4
TimelineZoom: 1.4

[Metadata]
Title:Da Bei Zhou
TitleUnicode:大悲咒
Artist:Sound Music
ArtistUnicode:新韻傳音
Creator:Firika
Version:Insane
Source:
Tags:xin yun chuan yin 新韵传音 Daloubot -Claris- yorita yoshino yorita_yoshino Gust [Kamiya] oiso 佛 Buddhism Sutra 福至心靈 Great Compassion Mantra Verses Sanskrit other
BeatmapID:2609792
BeatmapSetID:1056223

[Difficulty]
HPDrainRate:5
CircleSize:6
OverallDifficulty:6
ApproachRate:7
SliderMultiplier:1.4
SliderTickRate:1

[Events]
//Background and Video events
0,0,"BG2334.jpg",0,0
//Break Periods
//Storyboard Layer 0 (Background)
//Storyboard Layer 1 (Fail)
//Storyboard Layer 2 (Pass)
//Storyboard Layer 3 (Foreground)
//Storyboard Layer 4 (Overlay)
//Storyboard Sound Samples

[TimingPoints]
106,681.044267877412,4,2,2,30,1,0
21899,679.501698754247,4,2,2,30,1,0
27335,681.431005110733,4,2,2,50,1,0
175886,679.501698754247,4,2,2,50,1,0
179963,683.371298405467,4,2,2,50,1,0
188163,681.431005110733,4,2,2,50,1,0
190888,680.272108843537,4,2,2,50,1,0
201092,708.382526564345,4,2,2,30,1,0
201446,724.63768115942,4,2,2,30,1,0
201808,679.501698754247,4,2,2,30,1,0

[Colours]
Combo1 : 220,78,81
Combo2 : 228,179,27
Combo3 : 149,219,79
Combo4 : 239,216,143

[HitObjects]
109,188,21899,6,0,P|136:151|200:168,1,105,4|2,1:3|1:2,0:0:0:0:
237,200,22578,1,2,1:2:0:0:
366,149,22918,1,2,1:2:0:0:
436,269,23258,2,0,P|452:239|450:205,1,70,2|0,3:2|3:2,0:0:0:0:
439,187,23767,1,2,0:0:0:0:
428,169,23937,2,0,L|358:158,1,70,2|2,0:0|1:2,0:0:0:0:
491,111,24617,5,2,3:0:0:0:
333,17,24956,1,2,0:0:0:0:
314,26,25126,1,2,1:2:0:0:
295,35,25296,2,0,L|283:112,1,70,2|2,1:2|1:2,0:0:0:0:
144,102,25976,2,0,L|156:179,1,70,2|0,3:0|3:0,0:0:0:0:
173,182,26485,1,2,0:0:0:0:
192,193,26655,2,0,L|180:270,1,70,2|0,0:0|1:0,0:0:0:0:
26,327,27335,6,0,P|64:309|94:315,1,70,6|2,0:3|0:0,0:0:0:0:
161,270,27846,1,0,1:0:0:0:
181,262,28016,2,0,P|199:286|198:338,1,70,10|0,1:2|1:0,0:0:0:0:
328,312,28697,2,0,L|419:300,1,70,10|0,0:0|3:0,0:0:0:0:
414,290,29208,1,2,0:0:0:0:
431,278,29379,2,0,L|423:349,1,70,10|0,0:0|3:0,0:0:0:0:
321,205,30060,6,0,L|252:213,1,70,6|2,0:3|0:0,0:0:0:0:
174,180,30571,1,0,1:0:0:0:
158,165,30742,2,0,P|151:129|179:93,1,70,10|2,1:2|1:2,0:0:0:0:
292,45,31423,1,10,0:0:0:0:
255,127,31764,1,2,3:2:0:0:
188,21,32105,1,10,0:0:0:0:
236,135,32445,1,2,3:2:0:0:
311,37,32786,6,0,B|350:25|367:64|412:51,1,105,6|0,0:3|1:0,0:0:0:0:
471,12,33467,2,0,P|483:44|476:78,1,70,10|0,1:2|1:0,0:0:0:0:
393,205,34149,5,4,1:3:0:0:
316,156,34490,1,2,3:2:0:0:
419,123,34830,2,0,L|410:197,1,70,10|0,0:0|3:0,0:0:0:0:
312,247,35512,5,6,0:3:0:0:
389,296,35852,2,0,L|394:337,1,35,2|0,0:0|1:0,0:0:0:0:
340,373,36193,2,0,P|305:358|271:357,1,70,10|2,1:2|1:2,0:0:0:0:
197,320,36875,2,0,L|125:333,1,70,10|0,0:0|3:0,0:0:0:0:
26,236,37556,5,4,1:3:0:0:
47,147,37897,1,2,3:2:0:0:
213,117,38237,1,2,0:3:0:0:
194,206,38578,2,0,L|185:248,1,35,2|0,0:0|1:0,0:0:0:0:
124,98,38919,5,4,1:3:0:0:
290,68,39260,1,0,1:0:0:0:
194,206,39600,1,10,1:2:0:0:
47,147,39941,1,2,3:2:0:0:
213,117,40282,1,10,0:0:0:0:
194,206,40622,1,2,3:2:0:0:
175,295,40963,5,6,0:3:0:0:
87,226,41304,2,0,L|50:218,1,35,2|0,0:0|1:0,0:0:0:0:
194,206,41645,1,10,1:2:0:0:
171,316,41985,1,2,1:2:0:0:
278,281,42326,6,0,P|316:287|344:304,1,70,4|2,1:3|3:2,0:0:0:0:
431,281,43007,1,10,0:0:0:0:
497,371,43348,1,0,3:0:0:0:
431,281,43689,5,6,0:3:0:0:
342,302,44030,2,0,L|329:254,1,35,2|0,0:0|1:0,0:0:0:0:
409,192,44370,2,0,P|454:193|490:213,1,70,8|0,1:2|1:0,0:0:0:0:
346,81,45052,5,4,1:3:0:0:
433,105,45392,1,2,3:2:0:0:
409,192,45733,1,10,0:0:0:0:
322,168,46074,1,2,3:2:0:0:
259,57,46415,6,0,L|181:69,1,70,6|2,0:3|0:0,0:0:0:0:
123,130,46926,1,0,1:0:0:0:
103,123,47096,1,10,1:2:0:0:
60,20,47437,1,2,1:2:0:0:
189,67,47777,1,10,0:0:0:0:
151,200,48118,1,2,3:2:0:0:
22,153,48459,2,0,P|48:134|95:135,1,70,10|0,0:0|3:0,0:0:0:0:
239,179,49140,6,0,P|239:214|228:247,1,70,6|2,0:3|0:0,0:0:0:0:
166,304,49651,1,0,1:0:0:0:
173,324,49822,1,10,1:2:0:0:
251,368,50162,1,2,1:2:0:0:
306,292,50503,1,10,0:0:0:0:
395,276,50844,1,2,3:2:0:0:
465,369,51185,2,0,P|481:338|480:303,1,70,10|0,0:0|3:0,0:0:0:0:
339,211,51866,6,0,L|408:199,1,70,6|2,0:3|0:0,0:0:0:0:
466,138,52377,1,0,1:0:0:0:
473,118,52547,1,10,1:2:0:0:
440,33,52888,1,2,1:2:0:0:
345,92,53229,2,0,B|279:102|274:46|212:70,1,140,10|10,0:0|0:0,0:0:0:0:
137,124,54251,1,0,3:0:0:0:
29,59,54592,5,6,0:3:0:0:
137,124,54932,1,2,0:0:0:0:
134,145,55103,1,0,1:0:0:0:
131,166,55273,1,10,1:2:0:0:
51,245,55614,1,2,1:2:0:0:
88,327,55955,5,4,1:3:0:0:
225,356,56295,1,2,3:2:0:0:
300,305,56636,1,10,0:0:0:0:
225,356,56977,1,2,3:2:0:0:
198,206,57317,1,2,0:3:0:0:
373,245,57658,1,2,0:0:0:0:
387,259,57829,1,0,1:0:0:0:
402,273,57999,2,0,L|393:351,1,70,10|2,1:2|1:2,0:0:0:0:
485,188,58680,5,4,1:3:0:0:
359,231,59021,1,2,3:2:0:0:
394,117,59362,2,0,P|441:111|485:130,1,70,10|0,0:0|3:0,0:0:0:0:
359,231,60043,6,0,P|324:237|290:230,1,70,6|2,0:3|0:0,0:0:0:0:
219,186,60554,1,0,1:0:0:0:
208,168,60725,2,0,L|221:53,1,105,10|2,1:2|0:0,0:0:0:0:
256,21,61406,1,10,0:0:0:0:
130,51,61747,1,2,3:2:0:0:
62,161,62087,1,10,0:0:0:0:
41,72,62428,1,2,3:2:0:0:
191,133,62769,6,0,L|183:201,1,70,6|2,0:3|0:0,0:0:0:0:
118,256,63280,1,0,1:0:0:0:
122,277,63450,1,8,1:2:0:0:
136,366,63791,1,2,1:2:0:0:
225,352,64132,5,4,1:3:0:0:
275,242,64472,1,2,3:2:0:0:
364,256,64813,1,10,0:0:0:0:
350,345,65154,1,2,3:2:0:0:
275,242,65495,5,6,0:3:0:0:
378,167,65835,2,0,L|405:144,1,35,2|0,0:0|1:0,0:0:0:0:
289,153,66176,1,10,1:2:0:0:
364,256,66517,1,2,1:2:0:0:
466,181,66857,2,0,P|476:147|470:113,1,70,10|0,0:0|3:0,0:0:0:0:
366,20,67539,1,10,0:0:0:0:
275,32,67880,1,2,3:2:0:0:
220,161,68220,5,6,0:3:0:0:
311,149,68561,1,2,0:0:0:0:
317,129,68731,1,0,1:0:0:0:
323,109,68902,2,0,P|314:69|290:48,1,70,10|0,1:2|1:0,0:0:0:0:
198,46,69583,5,4,1:3:0:0:
109,63,69924,1,2,3:2:0:0:
215,135,70265,1,10,0:0:0:0:
126,152,70605,1,2,3:2:0:0:
258,214,70946,5,6,0:3:0:0:
114,242,71287,2,0,L|68:234,1,35,2|0,0:0|1:0,0:0:0:0:
215,135,71628,1,10,1:2:0:0:
195,280,71968,1,2,1:2:0:0:
191,301,72139,1,2,1:2:0:0:
187,322,72309,1,10,0:0:0:0:
258,214,72650,1,2,3:2:0:0:
342,187,72990,1,10,0:0:0:0:
460,286,73331,1,2,3:2:0:0:
316,339,73672,5,6,0:3:0:0:
353,221,74013,2,0,L|342:187,1,35,2|0,0:0|1:0,0:0:0:0:
276,127,74353,1,10,1:2:0:0:
312,8,74694,1,2,1:2:0:0:
415,104,75035,1,10,0:0:0:0:
276,127,75375,1,2,3:2:0:0:
188,70,75716,2,0,L|118:62,1,70,10|0,0:0|3:0,0:0:0:0:
6,146,76398,6,0,L|76:154,1,70,6|2,0:3|0:0,0:0:0:0:
141,207,76909,1,0,1:0:0:0:
162,203,77079,1,10,1:2:0:0:
212,127,77420,1,2,1:2:0:0:
305,243,77760,1,10,0:0:0:0:
300,152,78101,1,2,3:2:0:0:
162,203,78442,1,10,1:2:0:0:
219,273,78783,1,0,3:0:0:0:
300,152,79123,6,0,L|387:138,1,70,6|2,0:3|0:0,0:0:0:0:
438,92,79634,1,0,1:0:0:0:
458,99,79805,1,10,1:2:0:0:
495,181,80145,1,2,1:2:0:0:
462,303,80486,2,0,L|390:294,1,70,10|0,0:0|3:0,0:0:0:0:
314,325,80997,1,2,0:0:0:0:
295,334,81168,1,10,0:0:0:0:
312,230,81508,1,2,3:2:0:0:
191,317,81849,6,0,P|179:285|184:243,1,70,6|2,0:3|0:0,0:0:0:0:
204,154,82360,1,0,1:0:0:0:
194,135,82530,2,0,L|114:150,1,70,10|2,1:2|1:2,0:0:0:0:
306,230,83212,5,4,1:3:0:0:
159,219,83553,1,2,3:2:0:0:
194,135,83893,1,10,0:0:0:0:
229,278,84234,1,2,3:2:0:0:
285,142,84575,5,6,0:3:0:0:
306,230,84915,2,0,L|316:274,1,35,2|0,0:0|1:0,0:0:0:0:
373,121,85256,1,10,1:2:0:0:
394,209,85597,1,2,1:2:0:0:
461,100,85938,5,4,1:3:0:0:
306,230,86278,1,2,3:2:0:0:
482,188,86619,1,10,0:0:0:0:
285,142,86960,1,2,3:2:0:0:
503,276,87300,5,6,0:3:0:0:
461,100,87641,2,0,L|453:133,1,35,2|0,0:0|1:0,0:0:0:0:
415,297,87982,1,10,1:2:0:0:
373,121,88323,1,0,1:0:0:0:
327,318,88663,5,4,1:3:0:0:
394,209,89004,1,2,3:2:0:0:
285,142,89345,2,0,L|208:159,1,70,10|0,0:0|3:0,0:0:0:0:
75,242,90026,5,6,0:3:0:0:
40,121,90367,2,0,L|30:83,1,35,2|0,0:0|1:0,0:0:0:0:
158,218,90708,1,10,1:2:0:0:
123,97,91048,1,0,1:0:0:0:
75,242,91389,2,0,P|122:221|153:234,1,70,10|0,0:0|3:0,0:0:0:0:
158,218,91900,1,2,0:0:0:0:
178,212,92070,2,0,L|188:139,1,70,10|0,0:0|3:0,0:0:0:0:
259,22,92752,5,6,0:3:0:0:
289,123,93093,2,0,L|331:133,1,35,2|0,0:0|1:0,0:0:0:0:
421,50,93433,1,10,1:2:0:0:
391,151,93774,1,2,1:2:0:0:
452,232,94115,5,4,1:3:0:0:
339,199,94455,1,2,3:2:0:0:
504,184,94796,1,10,0:0:0:0:
450,347,95137,1,2,3:2:0:0:
337,314,95478,6,0,L|264:325,1,70,6|2,0:3|0:0,0:0:0:0:
195,367,95989,1,0,1:0:0:0:
176,358,96159,2,0,P|165:307|179:270,1,70,10|0,1:2|1:0,0:0:0:0:
239,185,96840,1,10,0:0:0:0:
92,231,97181,1,2,3:2:0:0:
32,97,97522,1,10,0:0:0:0:
115,112,97863,1,2,3:2:0:0:
240,41,98203,6,0,P|282:35|322:43,1,70,6|2,0:3|0:0,0:0:0:0:
379,86,98714,1,0,1:0:0:0:
386,106,98885,1,10,1:2:0:0:
239,185,99225,1,2,1:2:0:0:
309,38,99566,1,10,0:0:0:0:
393,126,99907,1,2,3:2:0:0:
489,85,100248,2,0,P|498:119|493:153,1,70,10|0,0:0|3:0,0:0:0:0:
310,255,100929,5,6,0:3:0:0:
418,227,101270,2,0,L|461:240,1,35,2|0,0:0|1:0,0:0:0:0:
498,300,101610,2,0,P|489:341|454:358,1,70,10|0,1:2|1:0,0:0:0:0:
447,361,102122,1,2,0:0:0:0:
427,367,102292,2,0,P|365:346|346:347,1,70,10|0,0:0|3:0,0:0:0:0:
227,319,102973,1,10,0:0:0:0:
310,255,103314,1,2,3:2:0:0:
155,317,103655,5,6,0:3:0:0:
195,183,103995,2,0,L|208:140,1,35,2|0,0:0|1:0,0:0:0:0:
61,167,104336,1,10,1:2:0:0:
91,347,104677,1,2,1:2:0:0:
76,257,105018,1,10,0:0:0:0:
91,347,105358,2,0,L|129:340,1,35,2|2,3:2|0:0,0:0:0:0:
193,299,105699,2,0,P|248:302|273:316,1,70,10|0,0:0|3:0,0:0:0:0:
477,322,106380,5,6,0:3:0:0:
400,371,106721,2,0,P|384:358|363:355,1,35,2|0,0:0|1:0,0:0:0:0:
351,294,107062,2,0,P|350:260|366:213,1,70,10|0,1:2|1:0,0:0:0:0:
469,100,107743,5,4,1:3:0:0:
442,187,108084,1,2,3:2:0:0:
333,138,108425,1,10,0:0:0:0:
360,225,108766,1,2,3:2:0:0:
249,101,109106,1,2,0:3:0:0:
205,262,109447,2,0,L|169:275,1,35,2|0,0:0|1:0,0:0:0:0:
63,174,109788,1,10,1:2:0:0:
107,335,110128,1,2,1:2:0:0:
293,241,110469,5,4,1:3:0:0:
266,328,110810,1,2,3:2:0:0:
354,307,111151,2,0,P|372:344|370:378,1,70,10|0,0:0|3:0,0:0:0:0:
470,240,111832,5,6,0:3:0:0:
381,220,112173,1,2,0:0:0:0:
372,201,112343,1,0,1:0:0:0:
363,182,112513,1,10,1:2:0:0:
386,94,112854,1,2,1:2:0:0:
258,33,113195,1,10,0:0:0:0:
276,143,113536,1,2,3:2:0:0:
156,167,113876,1,10,0:0:0:0:
174,57,114217,1,2,3:2:0:0:
276,143,114558,6,0,P|281:184|255:231,1,70,6|2,0:3|0:0,0:0:0:0:
215,273,115069,1,0,1:0:0:0:
195,279,115239,2,0,L|119:269,1,70,10|0,1:2|1:0,0:0:0:0:
14,159,115921,5,4,1:3:0:0:
95,119,116261,1,2,3:2:0:0:
135,200,116602,2,0,L|125:269,1,70,10|0,0:0|3:0,0:0:0:0:
200,345,117283,5,6,0:3:0:0:
305,242,117624,2,0,L|314:200,1,35,2|0,0:0|1:0,0:0:0:0:
346,323,117965,1,10,1:2:0:0:
215,256,118306,1,2,1:2:0:0:
325,137,118646,6,0,P|371:128|413:137,1,70,4|2,1:3|3:2,0:0:0:0:
459,249,119328,2,0,L|469:180,1,70,10|0,0:0|3:0,0:0:0:0:
346,323,120009,5,6,0:3:0:0:
215,256,120350,2,0,L|190:213,1,35,2|0,0:0|1:0,0:0:0:0:
200,345,120691,1,10,1:2:0:0:
305,242,121031,1,2,1:2:0:0:
163,162,121372,2,0,L|93:173,1,70,10|2,0:0|3:2,0:0:0:0:
230,100,122053,2,0,L|243:23,1,70,10|0,0:0|3:0,0:0:0:0:
379,155,122735,5,6,0:3:0:0:
279,172,123076,2,0,L|272:137,1,35,2|0,0:0|1:0,0:0:0:0:
344,60,123416,1,10,1:2:0:0:
444,77,123757,1,2,1:2:0:0:
469,204,124098,2,0,P|453:242|415:256,1,70,10|2,0:0|3:2,0:0:0:0:
342,346,124779,2,0,P|326:308|288:294,1,70,10|0,0:0|3:0,0:0:0:0:
220,275,125290,1,2,0:0:0:0:
200,281,125461,5,6,0:3:0:0:
167,381,125801,2,0,P|147:365|134:365,1,35,2|0,0:0|1:0,0:0:0:0:
28,358,126142,1,10,1:2:0:0:
61,258,126483,1,2,1:2:0:0:
94,158,126823,1,10,0:0:0:0:
178,84,127164,2,0,L|186:120,1,35,2|2,3:2|0:0,0:0:0:0:
277,175,127505,2,0,P|319:155|352:166,1,70,10|0,0:0|3:0,0:0:0:0:
94,158,128186,5,6,0:3:0:0:
178,84,128527,2,0,L|186:120,1,35,2|0,0:0|1:0,0:0:0:0:
277,175,128868,2,0,B|230:156|226:203|176:188,1,105,10|2,1:2|0:0,0:0:0:0:
94,156,129549,6,0,P|87:191|96:224,1,70,4|0,1:3|3:0,0:0:0:0:
164,275,130060,1,2,0:0:0:0:
185,273,130231,1,10,0:0:0:0:
277,175,130571,1,2,3:2:0:0:
97,225,130912,5,6,0:3:0:0:
206,271,131253,2,0,L|228:245,1,35,2|0,0:0|1:0,0:0:0:0:
276,175,131593,2,0,P|311:178|340:197,1,70,10|0,1:2|1:0,0:0:0:0:
426,275,132275,5,4,1:3:0:0:
344,293,132616,1,2,3:2:0:0:
401,195,132956,1,10,0:0:0:0:
483,212,133297,1,2,3:2:0:0:
401,356,133638,1,2,0:3:0:0:
344,293,133978,2,0,L|355:250,1,35,2|0,0:0|1:0,0:0:0:0:
483,212,134319,1,10,1:2:0:0:
508,292,134660,1,2,1:2:0:0:
401,356,135001,6,0,P|419:337|470:349,1,70,4|0,1:3|3:0,0:0:0:0:
286,264,135682,2,0,L|213:271,1,70,10|0,0:0|3:0,0:0:0:0:
61,372,136363,6,0,P|94:376|119:354,1,70,6|2,0:3|0:0,0:0:0:0:
156,278,136875,1,0,1:0:0:0:
153,257,137045,1,10,1:2:0:0:
57,217,137386,1,2,1:2:0:0:
193,161,137726,1,10,0:0:0:0:
153,257,138067,1,2,3:2:0:0:
57,217,138408,1,10,0:0:0:0:
97,121,138748,1,2,3:2:0:0:
33,71,139089,5,6,0:3:0:0:
134,57,139430,2,0,L|172:36,1,35,2|0,0:0|1:0,0:0:0:0:
235,43,139771,2,0,L|330:62,1,70,10|0,1:2|1:0,0:0:0:0:
406,179,140452,5,4,1:3:0:0:
487,198,140793,1,2,3:2:0:0:
508,116,141133,2,0,P|505:82|481:39,1,70,10|0,0:0|3:0,0:0:0:0:
376,14,141815,5,6,0:3:0:0:
362,115,142156,2,0,L|341:153,1,35,2|0,0:0|1:0,0:0:0:0:
348,216,142496,2,0,L|367:311,1,70,10|0,1:2|1:0,0:0:0:0:
258,188,143178,5,4,1:3:0:0:
174,197,143518,1,2,3:2:0:0:
120,284,143859,1,10,0:0:0:0:
204,293,144200,1,2,3:2:0:0:
222,282,144370,1,2,0:0:0:0:
240,271,144541,1,2,0:3:0:0:
258,188,144881,2,0,L|282:161,1,35,2|0,0:0|1:0,0:0:0:0:
276,105,145222,2,0,L|263:37,1,70,10|0,1:2|1:0,0:0:0:0:
97,9,145903,5,4,1:3:0:0:
22,47,146244,1,2,3:2:0:0:
119,144,146585,1,10,0:0:0:0:
157,69,146926,1,2,3:2:0:0:
35,130,147266,5,6,0:3:0:0:
61,228,147607,2,0,L|45:271,1,35,2|0,0:0|1:0,0:0:0:0:
25,327,147948,1,10,1:2:0:0:
150,304,148289,1,2,1:2:0:0:
255,377,148629,1,10,0:0:0:0:
239,288,148970,1,2,3:2:0:0:
223,199,149311,2,0,L|233:129,1,70,10|0,0:0|3:0,0:0:0:0:
300,6,149992,5,6,0:3:0:0:
370,64,150333,2,0,L|362:104,1,35,2|0,0:0|1:0,0:0:0:0:
310,203,150674,1,10,1:2:0:0:
439,179,151014,1,2,1:2:0:0:
418,319,151355,1,10,0:0:0:0:
329,304,151696,1,2,3:2:0:0:
239,288,152036,2,0,L|166:304,1,70,10|0,0:0|3:0,0:0:0:0:
46,366,152718,5,6,0:3:0:0:
27,277,153059,2,0,L|41:236,1,35,2|0,0:0|1:0,0:0:0:0:
132,234,153399,1,10,1:2:0:0:
151,145,153740,1,2,1:2:0:0:
95,28,154081,2,0,P|71:70|79:98,1,70,10|2,0:0|3:2,0:0:0:0:
131,152,154592,1,2,0:0:0:0:
151,145,154762,1,10,0:0:0:0:
271,108,155103,1,2,3:2:0:0:
208,198,155444,5,6,0:3:0:0:
342,239,155784,2,0,L|354:198,1,35,2|0,0:0|1:0,0:0:0:0:
417,165,156125,2,0,L|410:95,1,70,10|0,1:2|1:0,0:0:0:0:
257,18,156806,5,4,1:3:0:0:
271,108,157147,1,2,3:2:0:0:
208,198,157488,1,10,0:0:0:0:
222,288,157829,1,2,3:2:0:0:
323,364,158169,5,6,0:3:0:0:
396,310,158510,2,0,L|435:315,1,35,2|0,0:0|1:0,0:0:0:0:
469,256,158851,2,0,L|398:245,1,70,10|0,1:2|1:0,0:0:0:0:
222,288,159532,1,10,0:0:0:0:
208,198,159873,1,2,3:2:0:0:
271,108,160214,1,10,0:0:0:0:
257,18,160554,1,2,3:2:0:0:
208,198,160895,5,6,0:3:0:0:
47,151,161236,2,0,L|1:158,1,35,2|0,0:0|1:0,0:0:0:0:
123,47,161576,1,10,1:2:0:0:
137,137,161917,1,2,1:2:0:0:
28,226,162258,5,4,1:3:0:0:
118,212,162599,1,2,3:2:0:0:
208,198,162939,2,0,L|200:282,1,70,10|0,0:0|3:0,0:0:0:0:
368,336,163621,6,0,P|341:356|294:339,1,70,6|2,0:3|0:0,0:0:0:0:
272,274,164132,1,0,1:0:0:0:
281,255,164302,1,10,1:2:0:0:
409,233,164643,1,2,1:2:0:0:
484,271,164984,1,10,0:0:0:0:
506,154,165324,1,2,3:2:0:0:
431,116,165665,1,10,0:0:0:0:
303,138,166006,1,2,3:2:0:0:
198,63,166346,5,6,0:3:0:0:
213,153,166687,2,0,L|201:204,1,35,2|0,0:0|1:0,0:0:0:0:
228,243,167028,2,0,L|208:332,1,70,10|0,1:2|1:0,0:0:0:0:
47,376,167709,5,4,1:3:0:0:
33,285,168050,1,2,3:2:0:0:
154,220,168391,1,10,0:0:0:0:
128,320,168731,1,2,3:2:0:0:
19,194,169072,5,6,0:3:0:0:
103,160,169413,2,0,L|107:126,1,35,2|0,0:0|1:0,0:0:0:0:
59,65,169754,2,0,P|91:49|125:50,1,70,10|0,1:2|1:0,0:0:0:0:
248,17,170435,1,10,0:0:0:0:
270,105,170776,1,2,3:2:0:0:
292,193,171116,2,0,L|279:265,1,70,10|0,0:0|3:0,0:0:0:0:
154,340,171798,5,6,0:3:0:0:
133,251,172139,2,0,L|92:243,1,35,2|0,0:0|1:0,0:0:0:0:
245,347,172479,1,10,1:2:0:0:
280,262,172820,1,2,1:2:0:0:
211,203,173161,1,10,0:0:0:0:
154,340,173501,1,2,3:2:0:0:
245,347,173842,1,10,0:0:0:0:
280,262,174183,1,2,3:2:0:0:
211,203,174524,5,6,0:3:0:0:
133,251,174864,2,0,L|92:243,1,35,2|0,0:0|1:0,0:0:0:0:
55,299,175205,2,0,L|134:315,1,70,10|0,1:2|1:0,0:0:0:0:
20,180,175886,5,4,1:3:0:0:
43,92,176225,1,2,3:2:0:0:
131,115,176565,1,10,0:0:0:0:
169,197,176905,1,2,3:2:0:0:
257,174,177245,2,0,L|268:99,1,70,2|2,0:3|0:0,0:0:0:0:
320,39,177754,1,0,1:0:0:0:
340,32,177924,1,10,1:2:0:0:
460,70,178264,1,2,1:2:0:0:
388,143,178604,5,4,1:3:0:0:
268,105,178943,1,2,3:2:0:0:
148,67,179283,2,0,L|55:82,1,70,10|0,0:0|3:0,0:0:0:0:
23,207,179963,6,0,L|116:222,1,70,6|2,0:3|0:0,0:0:0:0:
156,273,180475,1,0,1:0:0:0:
176,267,180646,1,10,1:2:0:0:
218,148,180988,1,0,1:0:0:0:
305,122,181329,2,0,P|310:156|298:189,1,70,10|0,0:0|3:0,0:0:0:0:
151,39,182013,5,4,1:3:0:0:
239,60,182354,1,2,3:2:0:0:
299,190,182696,1,2,0:3:0:0:
387,169,183038,2,0,L|394:129,1,35,2|0,0:0|1:0,0:0:0:0:
446,89,183379,1,10,1:2:0:0:
486,223,183721,1,2,1:2:0:0:
357,298,184063,6,0,P|344:330|344:365,1,70,4|0,1:3|3:0,0:0:0:0:
188,283,184746,2,0,P|220:270|255:270,1,70,10|0,0:0|3:0,0:0:0:0:
398,241,185429,5,6,0:3:0:0:
315,203,185771,2,0,L|303:163,1,35,2|0,0:0|1:0,0:0:0:0:
250,127,186113,1,8,1:2:0:0:
131,163,186455,1,0,1:0:0:0:
68,63,186796,1,10,0:0:0:0:
196,85,187138,1,2,3:2:0:0:
67,241,187480,1,10,0:0:0:0:
23,120,187821,1,2,3:2:0:0:
223,153,188163,5,6,0:3:0:0:
139,252,188503,2,0,L|150:300,1,35,2|0,0:0|1:0,0:0:0:0:
165,361,188844,1,10,1:2:0:0:
274,335,189185,1,2,1:2:0:0:
428,297,189525,1,10,0:0:0:0:
332,239,189866,1,2,3:2:0:0:
236,181,190207,2,0,L|166:196,1,70,10|0,0:0|3:0,0:0:0:0:
300,86,190888,6,0,P|334:84|371:111,1,70,6|2,0:3|0:0,0:0:0:0:
438,142,191398,1,0,1:0:0:0:
445,162,191568,2,0,L|431:271,1,105,10|2,1:2|0:0,0:0:0:0:
387,319,192248,6,0,P|359:297|314:298,1,70,4|0,1:3|3:0,0:0:0:0:
306,302,192758,1,2,0:0:0:0:
287,309,192928,2,0,P|243:313|217:304,1,70,10|0,0:0|3:0,0:0:0:0:
110,193,193609,6,0,P|142:207|156:238,1,70,6|2,0:3|0:0,0:0:0:0:
143,322,194119,1,0,1:0:0:0:
131,339,194289,1,10,1:2:0:0:
29,364,194629,1,2,1:2:0:0:
4,262,194969,5,4,1:3:0:0:
110,193,195309,1,2,3:2:0:0:
33,66,195649,1,10,0:0:0:0:
9,169,195990,1,2,3:2:0:0:
135,91,196330,5,6,0:3:0:0:
239,106,196670,2,0,L|296:93,1,35,2|0,0:0|1:0,0:0:0:0:
343,121,197010,2,0,L|332:200,1,70,10|0,1:2|1:0,0:0:0:0:
394,303,197690,1,8,0:0:0:0:
482,283,198030,1,0,3:0:0:0:
462,195,198370,2,0,P|418:178|379:184,1,70,8|0,0:0|3:0,0:0:0:0:
254,90,199051,6,0,B|260:132|260:132|239:179|239:179|244:224,1,140,4|8,0:1|1:2,0:0:0:0:
258,314,200071,1,0,1:0:0:0:
333,190,200411,6,0,P|380:189|419:211,2,70,8|0|8,0:1|3:0|0:0,0:0:0:0:
177,288,201446,5,0,1:0:0:0:
258,314,201808,1,2,0:3:0:0:
