osu file format v14

[General]
AudioFilename: audio.mp3
AudioLeadIn: 0
PreviewTime: 89856
Countdown: 0
SampleSet: Soft
StackLeniency: 0
Mode: 0
LetterboxInBreaks: 0
WidescreenStoryboard: 1

[Editor]
Bookmarks: 69578,75711,79118,80481,81844,90021,92747,96495,100924,102968,106375,111827,117278,122730,128181,132270,136358,140447,143173,145898,149987,152713,156801,159527,163616,167704,177926,179970,196994
DistanceSpacing: 1.4
BeatDivisor: 4
GridSize: 4
TimelineZoom: 1.8

[Metadata]
Title:Da Bei Zhou
TitleUnicode:大悲咒
Artist:Sound Music
ArtistUnicode:新韻傳音
Creator:Firika
Version:Gust's Clear Mind
Source:
Tags:xin yun chuan yin 新韵传音 Daloubot -Claris- yorita yoshino yorita_yoshino Gust [Kamiya] oiso 佛 Buddhism Sutra 福至心靈 Great Compassion Mantra Verses Sanskrit other
BeatmapID:2609791
BeatmapSetID:1056223

[Difficulty]
HPDrainRate:7
CircleSize:7
OverallDifficulty:7
ApproachRate:7
SliderMultiplier:1.2
SliderTickRate:1

[Events]
//Background and Video events
0,0,"BG2334.jpg",0,0
//Break Periods
//Storyboard Layer 0 (Background)
//Storyboard Layer 1 (Fail)
//Storyboard Layer 2 (Pass)
//Storyboard Layer 3 (Foreground)
//Storyboard Layer 4 (Overlay)
//Storyboard Sound Samples

[TimingPoints]
106,681.044267877412,4,2,2,30,1,0
21899,679.501698754247,4,2,2,30,1,0
27335,681.431005110733,4,2,2,50,1,0
47266,-100,3,2,2,5,0,0
47437,-100,3,2,2,50,0,0
47607,-100,3,2,2,5,0,0
47777,-100,3,2,2,50,0,0
47948,-100,3,2,2,5,0,0
48118,-100,3,2,2,50,0,0
48289,-100,3,2,2,5,0,0
48459,-100,3,2,2,50,0,0
49992,-100,3,2,2,5,0,0
50162,-100,3,2,2,50,0,0
50333,-100,3,2,2,5,0,0
50503,-100,3,2,2,50,0,0
50674,-100,3,2,2,5,0,0
50844,-100,3,2,2,50,0,0
51014,-100,3,2,2,5,0,0
51185,-100,3,2,2,50,0,0
100077,-100,6,2,2,5,0,0
100248,-100,6,2,2,50,0,0
100418,-100,6,2,2,5,0,0
100588,-100,6,2,2,50,0,0
112684,-100,6,2,2,5,0,0
112854,-100,6,2,2,50,0,0
113024,-100,6,2,2,5,0,0
113195,-100,6,2,2,50,0,0
126994,-100,4,2,2,5,0,0
127164,-100,4,2,2,50,0,0
127335,-100,4,2,2,5,0,0
127505,-100,4,2,2,50,0,0
128357,-100,6,2,2,5,0,0
128527,-100,6,2,2,50,0,0
131082,-100,6,2,2,5,0,0
131253,-100,6,2,2,50,0,0
131764,-100,6,2,2,5,0,0
131934,-100,6,2,2,50,0,0
132445,-100,6,2,2,5,0,0
132616,-100,6,2,2,50,0,0
132786,-100,6,2,2,5,0,0
132956,-100,6,2,2,50,0,0
133127,-100,6,2,2,5,0,0
133297,-100,6,2,2,50,0,0
175886,679.501698754247,4,2,2,50,1,0
179963,683.371298405467,4,2,2,50,1,0
182867,-100,4,2,2,5,0,0
183038,-100,4,2,2,50,0,0
188163,681.431005110733,4,2,2,50,1,0
190888,680.272108843537,4,2,2,50,1,0
201092,708.382526564345,4,2,2,30,1,0
201446,724.63768115942,4,2,2,30,1,0
201808,679.501698754247,4,2,2,30,1,0

[Colours]
Combo1 : 220,78,81
Combo2 : 228,179,27
Combo3 : 149,219,79
Combo4 : 239,216,143

[HitObjects]
83,112,27335,6,0,P|102:90|98:61,1,60,6|2,0:3|0:0,0:0:0:0:
89,53,27846,1,0,1:0:0:0:
163,79,28016,5,10,1:2:0:0:
180,76,28357,1,0,1:0:0:0:
197,73,28697,2,0,L|256:78,1,60,10|0,0:0|3:0,0:0:0:0:
419,11,29379,6,0,P|402:48|360:39,1,90,10|2,0:0|0:0,0:0:0:0:
355,31,30060,2,0,L|296:36,1,60,6|2,0:3|0:0,0:0:0:0:
287,31,30571,5,0,1:0:0:0:
328,100,30742,2,0,P|314:143|291:155,2,60,10|2|10,1:2|1:2|0:0,0:0:0:0:
484,36,31764,5,2,3:2:0:0:
496,88,32105,1,10,0:0:0:0:
460,164,32445,1,2,3:2:0:0:
500,272,32786,6,0,P|460:272|440:312,1,90,6|0,0:3|1:0,0:0:0:0:
444,320,33467,2,0,L|376:328,1,60,10|0,1:2|1:0,0:0:0:0:
292,248,34149,2,0,L|351:240,2,60,4|2|10,1:3|3:2|0:0,0:0:0:0:
256,200,35171,1,0,3:0:0:0:
60,364,35512,6,0,L|120:357,1,60,6|2,0:3|0:0,0:0:0:0:
128,364,36023,1,0,1:0:0:0:
176,328,36193,5,10,1:2:0:0:
110,350,36534,1,2,1:2:0:0:
264,336,36875,1,10,0:0:0:0:
323,375,37215,1,0,3:0:0:0:
466,363,37556,5,4,1:3:0:0:
511,307,37897,1,2,3:2:0:0:
428,320,38237,1,2,0:3:0:0:
473,225,38578,1,2,0:0:0:0:
450,272,38748,1,0,1:0:0:0:
428,320,38919,5,4,1:3:0:0:
334,342,39260,1,0,1:0:0:0:
219,307,39600,1,10,1:2:0:0:
124,192,39941,1,2,3:2:0:0:
219,77,40282,1,10,0:0:0:0:
334,42,40622,1,2,3:2:0:0:
428,64,40963,5,6,0:3:0:0:
473,158,41304,1,2,0:0:0:0:
450,111,41474,1,0,1:0:0:0:
428,64,41645,1,10,1:2:0:0:
511,77,41985,1,2,1:2:0:0:
466,21,42326,6,0,P|438:8|409:10,2,60,4|2|10,1:3|3:2|0:0,0:0:0:0:
466,21,43348,1,0,3:0:0:0:
408,192,43689,5,6,0:3:0:0:
338,240,44030,1,2,0:0:0:0:
321,192,44200,1,0,1:0:0:0:
338,143,44370,1,8,1:2:0:0:
256,96,44711,1,0,1:0:0:0:
104,192,45052,5,4,1:3:0:0:
173,240,45392,5,2,3:2:0:0:
190,192,45733,5,10,0:0:0:0:
173,143,46074,5,2,3:2:0:0:
256,96,46415,5,6,0:3:0:0:
48,36,46926,5,0,1:0:0:0:
48,36,47096,2,0,L|96:24,1,30,10|0,1:2|0:0,0:0:0:0:
149,52,47437,2,0,L|120:60,1,30,2|0,1:2|0:0,0:0:0:0:
44,100,47777,2,0,L|92:88,1,30,10|0,0:0|0:0,0:0:0:0:
145,116,48118,2,0,L|115:123,1,30,2|0,3:2|0:0,0:0:0:0:
40,164,48459,2,0,P|68:180|104:164,1,60,10|0,0:0|3:0,0:0:0:0:
256,60,49140,6,0,P|227:54|202:69,1,60,6|2,0:3|0:0,0:0:0:0:
200,78,49651,1,0,1:0:0:0:
312,41,49822,2,0,L|308:12,1,30,10|0,1:2|0:0,0:0:0:0:
344,121,50162,2,0,L|339:91,1,30,2|0,1:2|0:0,0:0:0:0:
375,51,50503,2,0,L|371:22,1,30,10|0,0:0|0:0,0:0:0:0:
405,129,50844,2,0,L|400:100,1,30,2|0,3:2|0:0,0:0:0:0:
438,61,51185,2,0,P|472:64|496:84,1,60,10|0,0:0|3:0,0:0:0:0:
425,233,51866,5,6,0:3:0:0:
445,329,52207,1,2,0:0:0:0:
435,281,52377,1,0,1:0:0:0:
425,233,52547,1,10,1:2:0:0:
352,299,52888,5,2,1:2:0:0:
389,266,53229,5,10,0:0:0:0:
425,233,53570,5,0,3:0:0:0:
445,329,53910,1,10,0:0:0:0:
445,329,54251,1,0,3:0:0:0:
196,192,54592,5,6,0:3:0:0:
196,192,54932,1,2,0:0:0:0:
165,230,55103,1,0,1:0:0:0:
135,269,55273,2,0,P|108:252|72:256,1,60,10|2,1:2|1:2,0:0:0:0:
14,338,55955,6,0,P|12:308|28:283,1,60,4|2,1:3|3:2,0:0:0:0:
135,269,56636,1,10,0:0:0:0:
231,178,56977,1,2,3:2:0:0:
327,87,57317,1,2,0:3:0:0:
426,78,57658,1,2,0:0:0:0:
376,83,57829,1,0,1:0:0:0:
327,87,57999,5,10,1:2:0:0:
406,124,58340,1,2,1:2:0:0:
399,38,58680,5,4,1:3:0:0:
327,87,59021,1,2,3:2:0:0:
365,161,59362,1,10,0:0:0:0:
327,87,59702,1,0,3:0:0:0:
162,142,60043,5,6,0:3:0:0:
115,150,60384,2,0,P|86:172|80:180,1,30,2|0,0:0|1:0,0:0:0:0:
14,103,60725,2,0,P|32:127|42:156,2,60,10|0|10,1:2|1:0|0:0,0:0:0:0:
4,192,61747,5,2,3:2:0:0:
90,167,62087,1,10,0:0:0:0:
148,76,62428,1,2,3:2:0:0:
256,0,62769,1,6,0:3:0:0:
364,76,63110,1,2,0:0:0:0:
422,167,63450,1,8,1:2:0:0:
508,192,63791,1,2,1:2:0:0:
487,106,64132,5,4,1:3:0:0:
434,116,64472,1,2,3:2:0:0:
308,47,64813,1,10,0:0:0:0:
344,87,65154,1,2,3:2:0:0:
347,231,65495,1,6,0:3:0:0:
364,180,65835,5,2,0:0:0:0:
347,231,66006,1,0,1:0:0:0:
330,282,66176,1,10,1:2:0:0:
330,282,66517,1,2,1:2:0:0:
330,282,66857,1,10,0:0:0:0:
388,360,67198,5,0,3:0:0:0:
256,344,67539,2,0,P|224:364|188:360,1,60,10|2,0:0|3:2,0:0:0:0:
144,288,68220,2,0,P|176:268|212:272,1,60,6|2,0:3|0:0,0:0:0:0:
206,270,68731,1,0,1:0:0:0:
299,224,68902,5,10,1:2:0:0:
315,231,69243,1,0,1:0:0:0:
331,238,69583,2,0,B|349:245|349:245|390:230,1,60,4|2,1:3|3:2,0:0:0:0:
454,139,70265,2,0,B|438:151|438:151|432:192,1,60,10|2,0:0|3:2,0:0:0:0:
477,294,70946,2,0,B|474:274|474:274|442:248,1,60,6|2,0:3|0:0,0:0:0:0:
387,231,71457,1,0,1:0:0:0:
432,190,71628,1,10,1:2:0:0:
312,72,71968,5,2,1:2:0:0:
371,87,72139,1,2,1:2:0:0:
331,128,72309,1,10,0:0:0:0:
313,125,72650,5,2,3:2:0:0:
199,125,72990,1,10,0:0:0:0:
181,128,73331,1,2,3:2:0:0:
77,175,73672,1,6,0:3:0:0:
61,186,74013,5,2,0:0:0:0:
77,175,74183,1,0,1:0:0:0:
94,169,74353,1,10,1:2:0:0:
153,163,74694,1,2,1:2:0:0:
231,192,75035,1,10,0:0:0:0:
338,190,75375,1,2,3:2:0:0:
458,122,75716,5,10,0:0:0:0:
458,122,76057,1,0,3:0:0:0:
458,122,76398,2,0,P|422:112|414:83,1,60,6|2,0:3|0:0,0:0:0:0:
448,44,76909,1,0,1:0:0:0:
448,44,77079,2,0,P|484:54|492:83,2,60,10|2|10,1:2|1:2|0:0,0:0:0:0:
357,98,78101,1,2,3:2:0:0:
256,16,78442,1,10,1:2:0:0:
155,98,78783,1,0,3:0:0:0:
64,44,79123,6,0,P|28:54|20:83,1,60,6|2,0:3|0:0,0:0:0:0:
23,81,79634,1,0,1:0:0:0:
26,89,79805,1,10,1:2:0:0:
117,143,80145,1,2,1:2:0:0:
218,61,80486,6,0,L|210:-4,2,60,10|0|10,0:0|3:0|0:0,0:0:0:0:
333,129,81508,1,2,3:2:0:0:
462,25,81849,2,0,L|454:84,1,60,6|2,0:3|0:0,0:0:0:0:
453,93,82360,1,0,1:0:0:0:
492,129,82530,6,0,P|456:128|440:165,1,60,10|2,1:2|1:2,0:0:0:0:
347,225,83212,2,0,P|368:244|397:240,2,60,4|2|10,1:3|3:2|0:0,0:0:0:0:
256,192,84234,1,2,3:2:0:0:
184,284,84575,5,6,0:3:0:0:
240,264,84915,1,2,0:0:0:0:
256,252,85086,1,0,1:0:0:0:
272,264,85256,1,10,1:2:0:0:
328,284,85597,1,2,1:2:0:0:
172,192,85938,5,4,1:3:0:0:
116,212,86278,1,2,3:2:0:0:
340,192,86619,1,10,0:0:0:0:
396,212,86960,1,2,3:2:0:0:
119,69,87300,5,6,0:3:0:0:
204,116,87641,1,2,0:0:0:0:
256,88,87812,1,0,1:0:0:0:
308,116,87982,1,10,1:2:0:0:
393,69,88323,1,0,1:0:0:0:
440,154,88663,5,4,1:3:0:0:
355,201,89004,1,2,3:2:0:0:
308,116,89345,1,10,0:0:0:0:
374,135,89685,1,0,3:0:0:0:
444,70,90026,6,0,P|487:83|508:110,1,60,6|2,0:3|0:0,0:0:0:0:
477,149,90537,1,0,1:0:0:0:
477,149,90708,2,0,P|434:136|413:109,1,60,10|0,1:2|1:0,0:0:0:0:
345,53,91389,5,10,0:0:0:0:
348,70,91730,1,0,3:0:0:0:
343,87,92070,1,10,0:0:0:0:
328,97,92411,1,0,3:0:0:0:
195,90,92752,6,0,P|152:103|131:130,1,60,6|2,0:3|0:0,0:0:0:0:
172,191,93263,1,0,1:0:0:0:
172,191,93433,2,0,P|215:178|236:151,1,60,10|2,1:2|1:2,0:0:0:0:
144,48,94115,5,4,1:3:0:0:
225,168,94455,1,2,3:2:0:0:
197,25,94796,1,10,0:0:0:0:
172,191,95137,1,2,3:2:0:0:
84,292,95478,6,0,L|24:299,1,60,6|2,0:3|0:0,0:0:0:0:
18,300,95989,1,0,1:0:0:0:
123,324,96159,2,0,B|136:295|136:295|128:268,1,60,10|0,1:2|1:0,0:0:0:0:
368,94,96840,5,10,0:0:0:0:
297,169,97181,1,2,3:2:0:0:
315,71,97522,1,10,0:0:0:0:
350,192,97863,1,2,3:2:0:0:
427,258,98203,6,0,P|468:267|480:286,1,60,6|2,0:3|0:0,0:0:0:0:
479,288,98714,1,0,1:0:0:0:
378,267,98885,2,0,P|345:293|343:316,2,60,10|2|10,1:2|1:2|0:0,0:0:0:0:
378,267,99907,6,0,P|368:248|344:232,1,30,2|0,3:2|0:0,0:0:0:0:
427,258,100248,2,0,P|427:236|441:211,1,30,10|0,0:0|0:0,0:0:0:0:
388,192,100588,1,0,3:0:0:0:
436,64,100929,6,0,L|508:72,1,60,6|2,0:3|0:0,0:0:0:0:
398,30,101440,1,0,1:0:0:0:
371,72,101610,2,0,L|303:98,2,60,10|0|10,1:2|1:0|0:0,0:0:0:0:
396,21,102633,1,0,3:0:0:0:
256,124,102973,5,10,0:0:0:0:
281,73,103314,1,2,3:2:0:0:
141,176,103655,5,6,0:3:0:0:
166,125,103995,1,2,0:0:0:0:
137,116,104166,1,0,1:0:0:0:
110,129,104336,1,10,1:2:0:0:
141,176,104677,1,2,1:2:0:0:
256,124,105018,5,10,0:0:0:0:
371,176,105358,1,2,3:2:0:0:
386,153,105699,1,10,0:0:0:0:
402,129,106040,1,0,3:0:0:0:
372,228,106380,6,0,P|332:212|320:180,2,60,6|2|10,0:3|0:0|1:2,0:0:0:0:
372,228,107403,1,0,1:0:0:0:
146,320,107743,2,0,P|174:312|194:291,1,60,4|2,1:3|3:2,0:0:0:0:
168,239,108425,2,0,P|139:246|119:267,1,60,10|2,0:0|3:2,0:0:0:0:
13,147,109106,6,0,P|33:168|62:176,1,60,2|2,3:0|0:0,0:0:0:0:
88,123,109617,1,0,1:0:0:0:
88,123,109788,2,0,P|68:101|39:94,1,60,10|2,1:2|1:2,0:0:0:0:
136,20,110469,1,4,1:3:0:0:
211,115,110810,1,2,3:2:0:0:
116,190,111151,1,10,0:0:0:0:
40,95,111491,1,0,3:0:0:0:
227,15,111832,6,0,P|255:25|284:16,1,60,6|2,0:3|0:0,0:0:0:0:
283,16,112343,1,0,1:0:0:0:
319,86,112513,2,0,P|303:92|292:101,1,30,10|0,1:2|0:0,0:0:0:0:
193,86,112854,2,0,P|209:92|220:101,1,30,0|0,1:2|0:0,0:0:0:0:
140,192,113195,6,0,P|137:163|164:154,1,60,10|2,0:0|3:2,0:0:0:0:
372,192,113876,2,0,P|374:163|347:154,1,60,10|2,0:0|3:2,0:0:0:0:
300,312,114558,6,0,B|316:336|316:336|309:374,1,60,6|2,0:3|0:0,0:0:0:0:
201,366,115069,1,0,1:0:0:0:
201,366,115239,2,0,B|196:336|196:336|212:312,1,60,10|0,1:2|1:0,0:0:0:0:
372,192,115921,2,0,P|344:216|320:220,1,60,4|2,1:3|3:2,0:0:0:0:
140,192,116602,2,0,P|168:216|192:220,1,60,10|0,0:0|3:0,0:0:0:0:
140,140,117283,6,0,P|104:148|92:184,1,60,6|2,0:3|0:0,0:0:0:0:
94,174,117794,1,0,1:0:0:0:
140,140,117965,2,0,P|175:128|203:154,1,60,10|2,1:2|1:2,0:0:0:0:
193,138,118646,5,4,1:3:0:0:
251,121,118987,1,2,3:2:0:0:
269,179,119328,1,10,0:0:0:0:
212,197,119668,1,0,3:0:0:0:
445,69,120009,6,0,P|481:77|493:113,1,60,6|2,0:3|0:0,0:0:0:0:
491,103,120520,1,0,1:0:0:0:
445,69,120691,2,0,P|409:57|381:83,1,60,10|2,1:2|1:2,0:0:0:0:
391,67,121372,5,10,0:0:0:0:
311,41,121713,1,2,3:2:0:0:
285,121,122053,1,10,0:0:0:0:
365,147,122394,1,0,3:0:0:0:
448,130,122735,6,0,P|486:145|498:169,1,60,6|2,0:3|0:0,0:0:0:0:
495,223,123246,1,0,1:0:0:0:
495,223,123416,2,0,P|476:246|448:254,1,60,10|2,1:2|1:2,0:0:0:0:
324,96,124098,2,0,P|303:133|298:155,1,60,10|2,0:0|3:2,0:0:0:0:
324,288,124779,2,0,P|303:251|298:229,1,60,10|0,0:0|3:0,0:0:0:0:
103,80,125461,5,6,0:3:0:0:
160,148,125801,1,2,0:0:0:0:
132,192,125972,1,0,1:0:0:0:
160,236,126142,1,10,1:2:0:0:
103,304,126483,1,2,1:2:0:0:
0,148,126823,6,0,P|36:164|44:176,1,30,10|0,0:0|0:0,0:0:0:0:
0,236,127164,2,0,P|36:220|44:208,1,30,2|0,3:2|0:0,0:0:0:0:
76,192,127505,1,10,0:0:0:0:
76,192,127846,1,0,3:0:0:0:
512,148,128186,6,0,P|476:164|468:176,1,30,6|0,0:3|0:0,0:0:0:0:
512,236,128527,2,0,P|476:220|468:208,1,30,2|0,0:0|1:0,0:0:0:0:
436,192,128868,1,10,1:2:0:0:
436,192,129208,1,0,1:0:0:0:
342,116,129549,6,0,P|363:64|419:71,1,120,4|10,1:3|0:0,0:0:0:0:
406,142,130571,1,2,3:2:0:0:
270,125,130912,6,0,L|224:131,1,30,6|0,0:3|0:0,0:0:0:0:
189,109,131253,2,0,L|143:115,1,30,2|0,0:0|1:0,0:0:0:0:
108,93,131593,2,0,L|62:99,1,30,10|0,1:2|0:0,0:0:0:0:
24,105,131934,1,0,1:0:0:0:
146,284,132275,6,0,L|192:278,1,30,4|0,1:3|0:0,0:0:0:0:
227,300,132616,2,0,L|273:294,1,30,2|0,3:2|0:0,0:0:0:0:
308,316,132956,2,0,L|354:310,1,30,10|0,0:0|0:0,0:0:0:0:
392,304,133297,1,2,3:2:0:0:
348,204,133638,6,0,P|367:158|388:146,1,60,2|2,0:3|0:0,0:0:0:0:
382,149,134149,1,0,1:0:0:0:
314,98,134319,5,10,1:2:0:0:
296,99,134660,1,2,1:2:0:0:
279,92,135001,1,4,1:3:0:0:
192,15,135341,1,0,3:0:0:0:
139,2,135682,1,10,0:0:0:0:
92,29,136023,1,0,3:0:0:0:
50,134,136363,6,0,P|86:163|88:198,1,60,6|2,0:3|0:0,0:0:0:0:
146,183,136875,1,0,1:0:0:0:
146,183,137045,2,0,P|165:161|194:154,1,60,10|2,1:2|1:2,0:0:0:0:
313,166,137726,1,10,0:0:0:0:
358,204,138067,1,2,3:2:0:0:
474,199,138408,1,10,0:0:0:0:
512,154,138748,1,2,3:2:0:0:
507,38,139089,5,6,0:3:0:0:
462,0,139430,1,2,0:0:0:0:
462,0,139600,1,0,1:0:0:0:
462,0,139771,1,10,1:2:0:0:
507,38,140111,1,0,1:0:0:0:
308,50,140452,5,4,1:3:0:0:
346,5,140793,1,2,3:2:0:0:
323,96,141133,2,0,P|290:96|259:46,1,90,10|2,0:0|0:0,0:0:0:0:
216,10,141815,2,0,L|151:24,2,60,6|2|10,0:3|0:0|1:2,0:0:0:0:
258,52,142837,1,0,1:0:0:0:
148,192,143178,5,4,1:3:0:0:
94,164,143518,1,2,3:2:0:0:
202,220,143859,5,10,0:0:0:0:
202,220,144200,1,2,3:2:0:0:
148,192,144370,1,2,0:0:0:0:
94,164,144541,1,2,0:3:0:0:
331,289,144881,5,2,0:0:0:0:
385,261,145052,1,0,1:0:0:0:
439,233,145222,1,10,1:2:0:0:
439,233,145563,1,0,1:0:0:0:
207,371,145903,5,4,1:3:0:0:
174,306,146244,1,2,3:2:0:0:
214,245,146585,1,10,0:0:0:0:
174,306,146926,1,2,3:2:0:0:
101,302,147266,5,6,0:3:0:0:
174,306,147607,1,2,0:0:0:0:
174,306,147777,1,0,1:0:0:0:
174,306,147948,1,10,1:2:0:0:
256,276,148289,1,2,1:2:0:0:
320,192,148629,1,10,0:0:0:0:
443,217,148970,1,2,3:2:0:0:
504,107,149311,1,10,0:0:0:0:
419,16,149651,1,0,3:0:0:0:
304,68,149992,6,0,P|264:75|232:70,1,60,6|2,0:3|0:0,0:0:0:0:
183,58,150503,1,0,1:0:0:0:
183,58,150674,2,0,P|149:34|130:8,1,60,10|2,1:2|1:2,0:0:0:0:
107,92,151355,1,10,0:0:0:0:
34,92,151696,1,2,3:2:0:0:
12,160,152036,1,10,0:0:0:0:
71,204,152377,1,0,3:0:0:0:
129,160,152718,6,0,P|169:153|201:158,1,60,6|2,0:3|0:0,0:0:0:0:
250,170,153229,1,0,1:0:0:0:
250,170,153399,2,0,P|284:194|303:220,1,60,10|2,1:2|1:2,0:0:0:0:
312,271,154081,6,0,P|345:278|344:208,1,120,10|10,0:0|0:0,0:0:0:0:
353,212,155103,1,2,3:2:0:0:
252,328,155444,5,6,0:3:0:0:
180,344,155784,1,2,0:0:0:0:
148,344,155955,1,0,1:0:0:0:
120,336,156125,1,10,1:2:0:0:
60,296,156466,1,0,1:0:0:0:
164,232,156806,5,4,1:3:0:0:
184,164,157147,1,2,3:2:0:0:
136,113,157488,1,10,0:0:0:0:
116,181,157829,1,2,3:2:0:0:
232,215,158169,5,6,0:3:0:0:
303,211,158510,1,2,0:0:0:0:
331,205,158680,1,0,1:0:0:0:
358,192,158851,1,10,1:2:0:0:
413,146,159191,1,0,1:0:0:0:
413,146,159532,6,0,P|446:164|471:160,2,60,10|2|10,0:0|3:2|0:0,0:0:0:0:
412,85,160554,1,2,3:2:0:0:
360,116,160895,2,0,P|327:96|318:72,1,60,6|2,0:3|0:0,0:0:0:0:
320,67,161406,1,0,1:0:0:0:
322,58,161576,1,10,1:2:0:0:
256,8,161917,1,2,1:2:0:0:
152,52,162258,5,4,1:3:0:0:
154,69,162599,1,2,3:2:0:0:
156,86,162939,1,10,0:0:0:0:
85,131,163280,1,0,3:0:0:0:
170,239,163621,6,0,P|140:243|122:265,1,60,6|2,0:3|0:0,0:0:0:0:
121,265,164132,1,0,1:0:0:0:
121,265,164302,2,0,P|93:255|67:267,2,60,10|2|10,1:2|1:2|0:0,0:0:0:0:
113,336,165324,1,2,3:2:0:0:
142,338,165665,1,10,0:0:0:0:
166,322,166006,1,2,3:2:0:0:
256,240,166346,5,6,0:3:0:0:
255,312,166687,1,2,0:0:0:0:
225,309,166857,1,0,1:0:0:0:
203,289,167028,1,10,1:2:0:0:
256,240,167369,1,0,1:0:0:0:
360,208,167709,5,4,1:3:0:0:
460,252,168050,1,2,3:2:0:0:
504,308,168391,1,10,0:0:0:0:
433,318,168731,1,2,3:2:0:0:
389,262,169072,6,0,P|360:280|364:316,1,60,6|2,0:3|0:0,0:0:0:0:
357,303,169583,1,0,1:0:0:0:
357,303,169754,1,10,1:2:0:0:
256,232,170094,1,0,1:0:0:0:
154,303,170435,6,0,P|148:275|123:262,2,60,10|2|10,0:0|3:2|0:0,0:0:0:0:
256,252,171457,1,0,3:0:0:0:
160,144,171798,6,0,L|92:152,1,60,6|2,0:3|0:0,0:0:0:0:
64,104,172309,1,0,1:0:0:0:
64,104,172479,2,0,L|123:96,1,60,10|2,1:2|1:2,0:0:0:0:
208,164,173161,5,10,0:0:0:0:
208,164,173501,1,2,3:2:0:0:
324,140,173842,1,10,0:0:0:0:
324,140,174183,1,2,3:2:0:0:
400,32,174524,1,6,0:3:0:0:
400,32,174864,1,2,0:0:0:0:
429,35,175035,1,0,1:0:0:0:
459,38,175205,1,10,1:2:0:0:
512,160,175546,5,0,1:0:0:0:
512,160,175886,1,4,1:3:0:0:
483,151,176225,1,2,3:2:0:0:
454,155,176565,1,10,0:0:0:0:
429,171,176905,1,2,3:2:0:0:
413,197,177245,2,0,L|352:192,1,60,2|2,0:3|0:0,0:0:0:0:
296,121,177754,5,0,1:0:0:0:
304,129,177924,1,10,1:2:0:0:
275,138,178264,1,2,1:2:0:0:
246,134,178604,1,4,1:3:0:0:
221,118,178943,1,2,3:2:0:0:
205,92,179283,2,0,L|143:97,1,60,10|0,0:0|3:0,0:0:0:0:
16,212,179963,6,0,P|48:224|68:252,1,60,6|2,0:3|0:0,0:0:0:0:
68,252,180475,1,0,1:0:0:0:
132,192,180646,1,10,1:2:0:0:
148,200,180988,1,0,1:0:0:0:
164,208,181329,1,10,0:0:0:0:
256,172,181671,5,0,3:0:0:0:
348,208,182013,1,4,1:3:0:0:
364,200,182354,1,2,3:2:0:0:
380,192,182696,2,0,L|420:204,1,30,2|0,0:3|0:0,0:0:0:0:
454,215,183038,2,0,L|494:227,2,30,2|0|10,0:0|1:0|1:2,0:0:0:0:
417,270,183721,1,2,1:2:0:0:
445,145,184063,6,0,P|406:145|417:73,2,120,4|10|6,1:3|0:0|0:3,0:0:0:0:
471,84,185771,1,2,0:0:0:0:
471,84,185942,1,0,1:0:0:0:
471,84,186113,1,8,1:2:0:0:
471,84,186455,1,0,1:0:0:0:
282,5,186796,5,10,0:0:0:0:
210,10,187138,1,2,3:2:0:0:
113,57,187480,1,10,0:0:0:0:
41,52,187821,1,2,3:2:0:0:
131,108,188163,5,6,0:3:0:0:
27,119,188503,1,2,0:0:0:0:
27,119,188674,1,0,1:0:0:0:
27,119,188844,1,10,1:2:0:0:
113,57,189185,1,2,1:2:0:0:
219,72,189525,1,10,0:0:0:0:
281,158,189866,1,2,3:2:0:0:
266,264,190207,1,10,0:0:0:0:
180,326,190548,1,0,3:0:0:0:
74,311,190888,6,0,P|103:279|140:273,1,60,6|2,0:3|0:0,0:0:0:0:
88,228,191398,1,0,1:0:0:0:
88,228,191568,2,0,P|129:214|164:228,2,60,10|0|4,1:2|1:0|1:3,0:0:0:0:
195,182,192588,2,0,P|170:165|141:163,2,60,0|10|0,3:0|0:0|3:0,0:0:0:0:
228,284,193609,6,0,P|220:328|276:280,1,180,6|2,0:3|1:2,0:0:0:0:
438,311,194969,6,0,P|420:286|394:273,1,60,4|2,1:3|3:2,0:0:0:0:
424,228,195649,2,0,P|382:214|347:228,1,60,10|2,0:0|3:2,0:0:0:0:
371,163,196330,2,0,P|341:165|316:180,1,60,6|2,0:3|0:0,0:0:0:0:
195,182,197010,38,0,P|228:12|312:184,1,480,10|8,1:2|1:2,0:0:0:0:
256,108,200071,1,0,1:0:0:0:
256,108,200411,1,8,0:1:0:0:
256,108,200751,1,0,3:0:0:0:
256,108,201092,1,8,0:0:0:0:
256,108,201446,5,0,1:0:0:0:
256,108,201808,1,2,0:3:0:0:
