osu file format v14

[General]
AudioFilename: audio.mp3
AudioLeadIn: 0
PreviewTime: 85007
Countdown: 0
SampleSet: None
StackLeniency: 0.7
Mode: 0
LetterboxInBreaks: 0
WidescreenStoryboard: 0

[Editor]
Bookmarks: 211297
DistanceSpacing: 1.3
BeatDivisor: 4
GridSize: 32
TimelineZoom: 1.4

[Metadata]
Title:StarDust
TitleUnicode:StarDust
Artist:Sound Horizon
ArtistUnicode:Sound Horizon
Creator:Shirasaka Koume
Version:Stardust
Source:
Tags:Elysion 〜楽園幻想物語組曲〜 Rakuen Gensou Monogatari Kumikyoku サンホラ あらまり Aramary Revo
BeatmapID:1484477
BeatmapSetID:701386

[Difficulty]
HPDrainRate:5
CircleSize:4
OverallDifficulty:8
ApproachRate:8.5
SliderMultiplier:1.6
SliderTickRate:1

[Events]
//Background and Video events
0,0,"BG.jpg",0,0
//Break Periods
2,177910,194655
//Storyboard Layer 0 (Background)
//Storyboard Layer 1 (Fail)
//Storyboard Layer 2 (Pass)
//Storyboard Layer 3 (Foreground)
//Storyboard Sound Samples

[TimingPoints]
5654,483.870967741935,4,2,1,45,1,0
5654,-133.333333333333,4,2,1,45,0,0
21137,241.935483870968,4,1,1,75,1,0
21137,-100,4,1,1,75,0,0
36620,-133.333333333333,4,2,1,50,0,0
38556,-100,4,1,1,65,0,0
85007,-100,4,1,1,75,0,1
88153,-83.3333333333333,4,1,1,75,0,1
88878,-100,4,1,1,75,0,1
91903,-83.3333333333333,4,1,1,75,0,1
92749,-100,4,1,1,75,0,1
95895,-83.3333333333333,4,1,1,75,0,1
96620,-100,4,1,1,75,0,1
103637,-83.3333333333333,4,1,1,75,0,1
104362,-100,4,1,1,75,0,1
107387,-83.3333333333333,4,1,1,75,0,1
108233,-100,4,1,1,75,0,1
111378,-83.3333333333333,4,1,1,75,0,1
112104,-100,4,1,1,75,0,1
115975,-133.333333333333,4,2,1,60,0,0
146943,-100,4,1,1,75,0,0
162427,483.870967741935,4,2,1,45,1,0
195330,-100,4,1,1,65,0,0
195813,241.935483870968,4,1,1,70,1,0
195813,-100,4,1,1,75,0,1
198958,-83.3333333333333,4,1,1,75,0,1
199683,-100,4,1,1,75,0,1
202708,-83.3333333333333,4,1,1,75,0,1
203554,-100,4,1,1,75,0,1
206700,-83.3333333333333,4,1,1,75,0,1
207425,-100,4,1,1,75,0,1
210329,-100,4,1,1,70,0,0
211296,-83.3333333333333,4,1,1,70,0,1
226780,-100,4,1,1,70,0,0
257748,-100,4,2,1,55,0,0

[Colours]
Combo1 : 46,205,18
Combo2 : 255,91,91
Combo3 : 249,199,47
Combo4 : 47,159,208

[HitObjects]
67,209,5654,5,2,0:0:0:0:
124,266,5895,1,2,0:0:0:0:
203,245,6137,1,2,0:0:0:0:
222,164,6379,2,0,P|209:111|155:79,1,120.000004577637,2|2,0:0|0:0,0:0:0:0:
306,6,7105,2,0,L|295:79,1,60.0000022888184,2|0,0:0|0:0,0:0:0:0:
335,216,7589,2,0,B|362:181|362:181|420:175,2,90.0000034332277,2|2|2,0:0|0:0|0:0,0:0:0:0:
421,384,8799,5,2,0:0:0:0:
359,303,9041,1,2,0:0:0:0:
257,289,9283,1,2,0:0:0:0:
174,351,9524,5,2,0:0:0:0:
93,338,9766,1,2,0:0:0:0:
63,261,10008,1,2,0:0:0:0:
114,196,10250,2,0,P|173:186|221:225,1,120.000004577637,2|2,0:0|0:0,0:0:0:0:
305,106,10976,2,0,L|227:119,1,60.0000022888184,2|0,0:0|0:0,0:0:0:0:
350,276,11460,2,0,B|356:230|356:230|389:200,2,90.0000034332277,2|2|2,0:0|0:0|0:0,0:0:0:0:
448,84,12912,5,2,0:0:0:0:
444,61,13395,1,2,0:0:0:0:
256,192,13516,12,0,18718,0:0:0:0:
117,190,19202,6,0,P|121:107|183:156,1,180.000006866455,2|0,0:0|0:0,0:0:0:0:
116,269,20170,2,0,B|156:270|183:235|183:235|199:272|199:272|225:247|266:255,1,180.000006866455,2|0,0:0|0:0,0:0:0:0:
364,320,21137,6,0,P|338:281|339:237,1,80,6|0,0:3|0:3,0:3:0:0:
472,210,21378,2,0,P|498:249|497:293,1,80,8|0,0:3|0:3,0:3:0:0:
223,144,21620,2,0,L|394:163,1,160,2|2,0:3|0:3,0:3:0:0:
266,355,21983,6,0,L|95:374,1,160,2|2,0:3|0:3,0:3:0:0:
2,254,22346,1,8,0:3:0:0:
51,189,22467,1,2,0:3:0:0:
131,198,22588,2,0,P|148:242|143:278,1,80,2|0,0:3|0:3,0:3:0:0:
18,114,22830,2,0,P|15:74|31:38,1,80,8|0,0:3|0:3,0:3:0:0:
212,103,23072,6,0,L|126:92,1,80,6|0,0:3|0:3,0:3:0:0:
261,234,23314,2,0,L|347:223,1,80,8|0,0:3|0:3,0:3:0:0:
484,51,23556,2,0,P|409:69|393:154,1,160,2|2,0:3|0:3,0:3:0:0:
499,269,23919,6,0,B|468:300|426:287|426:287|382:275|353:306,1,160,6|2,0:3|0:3,0:3:0:0:
239,366,24282,1,8,0:3:0:0:
165,317,24403,1,2,0:3:0:0:
193,232,24524,2,0,L|279:245,1,80,2|0,0:3|0:3,0:3:0:0:
93,368,24766,2,0,P|75:327|84:283,1,80,8|0,0:3|0:3,0:3:0:0:
253,154,25007,6,0,L|339:167,1,80,6|0,0:3|0:3,0:3:0:0:
79,89,25249,2,0,L|-7:102,1,80,8|0,0:3|0:3,0:3:0:0:
136,178,25491,2,0,B|174:135|174:135|162:26,1,160,2|2,0:3|0:3,0:3:0:0:
52,192,25854,6,0,P|94:255|171:256,1,160,2|2,0:3|0:3,0:3:0:0:
310,187,26217,1,8,0:3:0:0:
390,224,26338,1,2,0:3:0:0:
374,310,26459,2,0,P|324:307|292:281,1,80,2|0,0:3|0:3,0:3:0:0:
439,141,26701,2,0,P|489:144|521:170,1,80,8|0,0:3|0:3,0:3:0:0:
218,235,26943,6,0,L|229:146,1,80,6|0,0:3|0:3,0:3:0:0:
296,12,27185,2,0,L|305:91,1,80,8|0,0:3|0:3,0:3:0:0:
60,164,27427,2,0,P|89:106|189:110,1,160,2|2,0:3|0:3,0:3:0:0:
360,285,27790,6,0,P|296:238|218:235,1,160,6|2,0:3|0:3,0:3:0:0:
73,335,28153,1,8,0:3:0:0:
156,369,28274,1,2,0:3:0:0:
226,314,28395,2,0,L|217:235,1,80,2|0,0:3|0:3,0:3:0:0:
60,164,28637,2,0,L|51:243,1,80,8|0,0:3|0:3,0:3:0:0:
124,89,28878,6,0,P|89:69|49:68,1,80,6|0,0:3|0:3,0:3:0:0:
205,223,29120,2,0,P|244:222|279:202,1,80,8|0,0:3|0:3,0:3:0:0:
250,0,29362,2,0,B|210:40|210:40|223:165,1,160,2|2,0:3|0:3,0:3:0:0:
376,264,29725,6,0,P|441:209|428:118,1,160,2|2,0:3|0:3,0:3:0:0:
205,223,30088,1,8,0:3:0:0:
164,303,30209,1,2,0:3:0:0:
212,378,30330,2,0,L|294:370,1,80,2|0,0:3|0:3,0:3:0:0:
115,227,30572,2,0,L|33:219,1,80,8|0,0:3|0:3,0:3:0:0:
243,147,30814,6,0,P|283:184|293:227,1,80,6|0,0:3|0:3,0:3:0:0:
133,100,31056,2,0,L|149:22,1,80,8|0,0:3|0:3,0:3:0:0:
359,251,31298,2,0,B|284:243|284:243|266:229|266:229|205:223,1,160,2|2,0:3|0:3,0:3:0:0:
368,84,31661,6,0,P|438:88|465:170,1,160,6|2,0:3|0:3,0:3:0:0:
350,358,32024,1,8,0:3:0:0:
266,331,32145,1,2,0:3:0:0:
247,244,32266,2,0,L|260:163,1,80,2|0,0:3|0:3,0:3:0:0:
449,251,32507,2,0,L|461:329,1,80,8|0,0:3|0:3,0:3:0:0:
186,384,32749,6,0,P|171:343|182:284,1,80,6|0,0:3|0:3,0:3:0:0:
340,168,32991,2,0,P|354:205|352:244,1,80,8|0,0:3|0:3,0:3:0:0:
63,237,33233,2,0,L|223:218,1,160,2|2,0:3|0:3,0:3:0:0:
424,137,33596,6,0,P|371:82|294:88,1,160,2|2,0:3|0:3,0:3:0:0:
187,301,33959,1,8,0:3:0:0:
243,370,34080,1,2,0:3:0:0:
330,356,34201,2,0,L|338:270,1,80,2|0,0:3|0:3,0:3:0:0:
105,184,34443,2,0,L|112:263,1,80,8|0,0:3|0:3,0:3:0:0:
221,89,34685,6,0,P|185:66|137:69,1,80,6|0,0:3|0:3,0:3:0:0:
0,222,34927,2,0,L|80:208,1,80,8|0,0:3|0:3,0:3:0:0:
311,153,35169,2,0,P|257:173|237:273,1,160,2|2,0:3|0:3,0:3:0:0:
439,379,35532,6,0,L|420:215,1,160,6|2,0:3|0:3,0:3:0:0:
305,40,35895,1,8,0:3:0:0:
216,27,36016,1,2,0:3:0:0:
180,109,36137,2,0,P|190:147|228:175,1,80,2|0,0:3|0:3,0:3:0:0:
345,103,36378,2,0,P|335:65|305:40,1,80,8|0,0:3|0:3,0:3:0:0:
123,209,36620,5,2,1:3:0:0:
208,310,36862,1,0,1:3:0:0:
208,310,36983,1,2,1:3:0:0:
208,310,37104,2,0,L|345:289,1,120.000004577637,8|0,1:0|1:3,0:3:0:0:
466,193,37467,1,2,1:3:0:0:
420,177,37588,2,0,P|393:190|375:213,2,60.0000022888184,0|2|0,1:3|1:3|1:3,0:3:0:0:
299,223,37951,1,2,1:3:0:0:
259,154,38072,2,0,L|273:30,1,120.000004577637,8|0,1:0|1:3,0:3:0:0:
23,176,38556,6,0,P|108:158|160:233,1,160,6|0,0:3|0:3,0:3:0:0:
71,348,38919,1,2,0:3:0:0:
71,348,39040,2,0,L|234:325,1,160,8|0,0:3|0:3,0:3:0:0:
316,189,39403,2,0,P|294:224|296:265,1,80,2|0,0:3|0:3,0:3:0:0:
391,359,39645,1,2,0:3:0:0:
512,139,39887,1,2,0:3:0:0:
512,139,40007,2,0,L|353:161,1,160,8|0,0:3|0:3,0:3:0:0:
137,104,40491,6,0,P|173:37|250:35,1,160,2|0,0:3|0:3,0:3:0:0:
347,118,40854,1,2,0:3:0:0:
347,118,40975,2,0,L|322:291,1,160,8|0,0:3|0:3,0:3:0:0:
226,366,41338,2,0,P|195:328|154:316,1,80,2|0,0:3|0:3,0:3:0:0:
80,384,41580,1,2,0:3:0:0:
0,169,41822,1,2,0:3:0:0:
0,169,41943,2,0,L|173:194,1,160,8|0,0:3|0:3,0:3:0:0:
360,257,42427,6,0,P|284:269|258:357,1,160,2|0,0:3|0:3,0:3:0:0:
454,368,42790,1,2,0:3:0:0:
454,368,42911,2,0,L|441:202,1,160,8|0,0:3|0:3,0:3:0:0:
314,81,43274,2,0,P|340:115|378:135,1,80,2|0,0:3|0:3,0:3:0:0:
505,84,43516,1,2,0:3:0:0:
224,0,43757,1,2,0:3:0:0:
224,0,43878,2,0,L|236:159,1,160,8|0,0:3|0:3,0:3:0:0:
50,305,44362,6,0,P|91:241|176:239,1,160,2|0,0:3|0:3,0:3:0:0:
275,357,44725,1,2,0:3:0:0:
275,357,44846,2,0,L|262:197,1,160,8|0,0:3|0:3,0:3:0:0:
398,115,45209,6,0,P|368:146|326:159,1,80,2|0,0:3|0:3,0:3:0:0:
159,56,45451,2,0,L|249:67,1,80,2|0,0:3|0:3,0:3:0:0:
423,202,45693,1,2,0:3:0:0:
478,131,45814,2,0,P|460:57|388:30,1,160,12|0,0:3|0:3,0:3:0:0:
175,181,46177,5,0,0:3:0:0:
175,181,46298,2,0,L|333:158,1,160,6|0,0:3|0:3,0:3:0:0:
485,285,46661,1,2,0:3:0:0:
485,285,46782,2,0,P|456:358|363:351,1,160,8|0,0:3|0:3,0:3:0:0:
240,256,47145,2,0,P|289:265|327:310,1,80,2|0,0:3|0:3,0:3:0:0:
158,364,47387,1,2,0:3:0:0:
84,145,47628,1,2,0:3:0:0:
84,145,47749,2,0,L|242:168,1,160,8|0,0:3|0:3,0:3:0:0:
463,41,48233,6,0,P|403:39|355:141,1,160,2|0,0:3|0:3,0:3:0:0:
463,243,48596,1,2,0:3:0:0:
463,243,48717,2,0,L|305:220,1,160,8|0,0:3|0:3,0:3:0:0:
155,264,49080,2,0,P|188:230|195:188,1,80,2|0,0:3|0:3,0:3:0:0:
119,114,49322,1,2,0:3:0:0:
28,367,49564,1,2,0:3:0:0:
28,367,49685,2,0,L|186:344,1,160,8|0,0:3|0:3,0:3:0:0:
200,84,50169,6,0,P|144:30|68:44,1,160,2|0,0:3|0:3,0:3:0:0:
0,127,50532,1,2,0:3:0:0:
0,127,50653,2,0,L|22:289,1,160,8|0,0:3|0:3,0:3:0:0:
117,344,51016,2,0,P|143:300|195:284,1,80,2|0,0:3|0:3,0:3:0:0:
250,384,51257,1,2,0:3:0:0:
358,157,51499,1,2,0:3:0:0:
358,157,51620,2,0,L|336:319,1,160,8|0,0:3|0:3,0:3:0:0:
333,79,52104,6,0,B|373:64|408:90|408:90|443:118|485:105,1,160,2|0,0:3|0:3,0:3:0:0:
290,0,52467,1,2,0:3:0:0:
290,0,52588,2,0,P|244:69|270:141,1,160,8|0,0:3|0:3,0:3:0:0:
428,206,52951,6,0,P|381:209|344:231,1,80,2|0,0:3|0:3,0:3:0:0:
230,291,53193,2,0,L|243:208,1,80,2|0,0:3|0:3,0:3:0:0:
193,60,53435,1,2,0:3:0:0:
119,10,53556,2,0,P|55:12|23:109,1,160,12|0,0:3|0:3,0:3:0:0:
129,195,53919,5,0,0:3:0:0:
129,195,54040,2,0,L|301:175,1,160,6|0,0:3|0:3,0:3:0:0:
413,280,54403,1,2,0:3:0:0:
413,280,54524,2,0,P|331:274|294:353,1,160,8|0,0:3|0:3,0:3:0:0:
493,242,54887,2,0,P|498:198|479:158,1,80,2|0,0:3|0:3,0:3:0:0:
397,106,55128,1,2,0:3:0:0:
199,350,55370,1,2,0:3:0:0:
199,350,55491,2,0,L|371:370,1,160,8|0,0:3|0:3,0:3:0:0:
141,173,55975,6,0,P|63:165|41:257,1,160,2|0,0:3|0:3,0:3:0:0:
247,274,56338,1,2,0:3:0:0:
247,274,56459,2,0,L|227:114,1,160,8|0,0:3|0:3,0:3:0:0:
327,45,56822,2,0,P|371:47|411:82,1,80,2|0,0:3|0:3,0:3:0:0:
436,149,57064,1,2,0:3:0:0:
203,0,57306,1,2,0:3:0:0:
203,0,57427,2,0,L|183:158,1,160,8|0,0:3|0:3,0:3:0:0:
339,316,57911,6,0,P|417:313|451:241,1,160,2|0,0:3|0:3,0:3:0:0:
385,134,58274,1,2,0:3:0:0:
385,134,58395,2,0,L|223:114,1,160,8|0,0:3|0:3,0:3:0:0:
114,176,58757,2,0,P|95:140|93:101,1,80,2|0,0:3|0:3,0:3:0:0:
223,17,58999,1,2,0:3:0:0:
158,255,59241,1,2,0:3:0:0:
158,255,59362,2,0,L|-4:275,1,160,8|0,0:3|0:3,0:3:0:0:
260,147,59846,6,0,P|345:142|370:215,1,160,2|0,0:3|0:3,0:3:0:0:
235,323,60209,1,2,0:3:0:0:
235,323,60330,2,0,L|79:292,1,160,8|0,0:3|0:3,0:3:0:0:
18,187,60693,6,0,P|20:137|49:104,1,80,2|0,0:3|0:3,0:3:0:0:
186,146,60935,2,0,P|184:196|155:229,1,80,2|0,0:3|0:3,0:3:0:0:
131,58,61177,1,2,0:3:0:0:
198,8,61298,2,0,P|276:19|294:122,1,160,12|0,0:3|0:3,0:3:0:0:
383,231,61661,5,0,0:3:0:0:
383,231,61782,2,0,L|398:55,1,160,6|0,0:3|0:3,0:3:0:0:
469,226,62145,1,2,0:3:0:0:
469,226,62266,2,0,P|443:298|348:305,1,160,8|0,0:3|0:3,0:3:0:0:
266,221,62628,2,0,P|218:227|185:256,1,80,2|0,0:3|0:3,0:3:0:0:
154,349,62870,1,2,0:3:0:0:
41,96,63112,1,2,0:3:0:0:
41,96,63233,2,0,L|56:272,1,160,8|0,0:3|0:3,0:3:0:0:
265,375,63717,6,0,P|333:343|336:267,1,160,2|0,0:3|0:3,0:3:0:0:
242,186,64080,1,2,0:3:0:0:
242,186,64201,2,0,L|72:210,1,160,8|0,0:3|0:3,0:3:0:0:
40,332,64564,2,0,P|66:369|121:377,1,80,2|0,0:3|0:3,0:3:0:0:
205,315,64806,1,2,0:3:0:0:
158,84,65048,1,2,0:3:0:0:
158,84,65169,2,0,L|-12:60,1,160,8|0,0:3|0:3,0:3:0:0:
325,221,65653,6,0,P|401:217|434:149,1,160,2|0,0:3|0:3,0:3:0:0:
230,26,66016,1,2,0:3:0:0:
230,26,66137,2,0,L|243:204,1,160,8|0,0:3|0:3,0:3:0:0:
288,318,66499,2,0,P|259:292|221:285,1,80,2|0,0:3|0:3,0:3:0:0:
133,363,66741,1,2,0:3:0:0:
0,230,66983,5,2,0:3:0:0:
49,259,67104,1,8,0:3:0:0:
117,253,67225,1,0,0:3:0:0:
179,200,67346,1,0,0:3:0:0:
203,105,67467,1,0,0:3:0:0:
124,14,67588,6,0,B|89:58|89:58|108:166,1,160,6|0,0:3|0:3,0:3:0:0:
236,293,67951,1,2,0:3:0:0:
236,293,68072,2,0,P|299:273|308:170,1,160,12|0,0:3|0:3,0:3:0:0:
261,58,68435,6,0,P|220:55|176:75,1,80,2|4,0:3|0:3,0:3:0:0:
414,199,68677,2,0,P|455:202|499:182,1,80,2|0,0:3|0:3,0:3:0:0:
326,18,68919,1,2,0:3:0:0:
232,131,69040,2,0,L|248:233,1,80,12|0,0:3|0:3,0:3:0:0:
453,40,69282,2,0,L|437:142,1,80,2|0,0:3|0:3,0:3:0:0:
325,309,69524,6,0,P|289:253|185:254,1,160,6|0,0:3|0:3,0:3:0:0:
34,317,69887,1,0,0:3:0:0:
109,360,70007,2,0,L|128:189,1,160,8|0,0:3|0:3,0:3:0:0:
73,83,70370,6,0,P|33:82|0:103,1,80,2|0,0:3|0:3,0:3:0:0:
155,88,70612,1,2,0:3:0:0:
160,53,70733,2,0,P|140:18|105:0,1,80,0|2,0:3|0:3,0:3:0:0:
229,113,70975,2,0,P|248:78|248:39,1,80,8|0,0:3|0:3,0:3:0:0:
211,202,71217,2,0,P|250:202|284:181,1,80,0|0,0:3|0:3,0:3:0:0:
429,59,71459,6,0,P|371:110|369:187,1,160,2|0,0:3|0:3,0:3:0:0:
496,342,71822,1,0,0:3:0:0:
512,255,71943,2,0,L|325:277,1,160,8|0,0:3|0:3,0:3:0:0:
213,369,72306,6,0,P|240:331|243:297,1,80,2|0,0:3|0:3,0:3:0:0:
48,291,72548,1,2,0:3:0:0:
76,312,72669,2,0,P|122:316|153:301,1,80,0|2,0:3|0:3,0:3:0:0:
56,164,72911,2,0,P|75:206|103:225,1,80,8|0,0:3|0:3,0:3:0:0:
174,72,73153,2,0,P|146:110|143:143,1,80,0|0,0:3|0:3,0:3:0:0:
398,159,73395,5,2,0:3:0:0:
437,92,73516,1,0,0:3:0:0:
408,20,73637,1,0,0:3:0:0:
334,0,73757,1,0,0:3:0:0:
272,46,73878,2,0,L|291:227,1,160,8|0,0:3|0:3,0:3:0:0:
181,380,74241,6,0,P|224:315|301:306,1,160,2|2,0:3|0:3,0:3:0:0:
426,290,74604,2,0,L|411:371,1,80,0|2,0:3|0:3,0:3:0:0:
432,187,74846,2,0,L|494:240,1,80,8|0,0:3|0:3,0:3:0:0:
345,130,75088,2,0,L|422:102,1,80,0|0,0:3|0:3,0:3:0:0:
241,3,75330,5,2,0:3:0:0:
249,80,75451,1,0,0:3:0:0:
206,145,75572,1,0,0:3:0:0:
130,166,75693,1,0,0:3:0:0:
59,133,75814,2,0,P|22:78|55:-8,1,160,8|0,0:3|0:3,0:3:0:0:
298,65,76177,6,0,L|274:233,1,160,2|2,0:3|0:3,0:3:0:0:
147,348,76540,2,0,P|171:316|209:301,1,80,0|2,0:3|0:3,0:3:0:0:
430,256,76782,2,0,P|392:225|334:224,1,80,12|0,0:3|0:3,0:3:0:0:
103,123,77024,2,0,P|149:118|181:129,1,80,0|0,0:3|0:3,0:3:0:0:
494,146,77266,5,4,0:3:0:0:
490,67,77387,1,0,0:3:0:0:
434,13,77507,1,0,0:3:0:0:
356,12,77628,1,2,0:3:0:0:
298,65,77749,2,0,L|316:236,1,160,8|0,0:3|0:3,0:3:0:0:
443,285,78112,6,0,P|493:269|519:232,1,80,2|0,0:3|0:3,0:3:0:0:
356,305,78354,1,2,0:3:0:0:
363,339,78475,2,0,P|401:374|446:378,1,80,0|2,0:3|0:3,0:3:0:0:
276,296,78717,2,0,P|264:347|283:388,1,80,8|0,0:3|0:3,0:3:0:0:
269,199,78959,2,0,P|219:214|192:252,1,80,0|0,0:3|0:3,0:3:0:0:
0,346,79201,5,2,0:3:0:0:
76,327,79322,1,0,0:3:0:0:
120,263,79443,1,0,0:3:0:0:
109,185,79564,1,2,0:3:0:0:
49,135,79685,2,0,P|-2:195|31:265,1,160,8|0,0:3|0:3,0:3:0:0:
190,310,80048,6,0,P|203:272|200:233,1,80,2|0,0:3|0:3,0:3:0:0:
290,227,80290,1,2,0:3:0:0:
277,194,80411,2,0,P|251:163|215:146,1,80,0|2,0:3|0:3,0:3:0:0:
219,60,80653,2,0,P|179:67|147:90,1,80,8|0,0:3|0:3,0:3:0:0:
73,43,80895,2,0,P|59:80|63:120,1,80,0|0,0:3|0:3,0:3:0:0:
83,332,81137,5,2,0:3:0:0:
90,254,81257,1,0,0:3:0:0:
144,197,81378,1,0,0:3:0:0:
222,186,81499,1,2,0:3:0:0:
290,227,81620,2,0,P|364:225|406:149,1,160,8|0,0:3|0:3,0:3:0:0:
280,41,81983,6,0,L|123:68,1,160,2|2,0:3|0:3,0:3:0:0:
4,246,82346,2,0,P|39:216|75:207,1,80,0|2,0:3|0:3,0:3:0:0:
154,147,82588,2,0,P|192:159|222:186,1,80,12|0,0:3|0:3,0:3:0:0:
314,228,82830,2,0,P|322:266|314:305,1,80,0|0,0:3|0:3,0:3:0:0:
196,365,83072,6,0,L|378:332,1,160,6|0,0:3|0:3,0:3:0:0:
475,161,83435,1,2,0:3:0:0:
511,253,83556,2,8,L|329:220,1,160,8|8,0:3|0:3,0:3:0:0:
273,33,83919,1,2,0:3:0:0:
237,125,84040,1,2,0:3:0:0:
69,257,84524,5,6,0:0:0:0:
99,251,84645,1,0,0:3:0:0:
129,245,84766,1,0,0:3:0:0:
159,239,84887,1,0,0:3:0:0:
240,288,85007,6,0,P|256:328|249:376,1,80,6|0,0:3|0:3,0:3:0:0:
28,293,85249,2,0,L|42:205,1,80,8|0,0:3|0:3,0:3:0:0:
177,28,85491,2,0,L|189:107,1,80,2|0,0:3|0:3,0:3:0:0:
378,321,85733,1,8,0:3:0:0:
360,240,85854,6,0,P|304:189|204:204,1,160,2|2,0:3|0:3,0:3:0:0:
300,296,86217,1,8,0:3:0:0:
378,321,86338,1,2,0:3:0:0:
438,266,86459,2,0,L|428:178,1,80,2|0,0:3|0:3,0:3:0:0:
265,70,86701,2,0,L|255:149,1,80,8|0,0:3|0:3,0:3:0:0:
90,325,86943,6,0,B|120:266|120:266|217:244,1,160,2|8,0:3|0:3,0:3:0:0:
356,119,87306,1,0,0:3:0:0:
255,150,87427,2,0,P|208:132|189:80,1,80,2|0,0:3|0:3,0:3:0:0:
99,28,87669,1,8,0:3:0:0:
61,144,87790,1,2,0:3:0:0:
61,144,88153,6,0,P|108:141|150:168,1,95.9999970703126,8|2,0:3|0:3,0:3:0:0:
255,150,88395,2,0,P|281:189|278:239,1,95.9999970703126,6|0,0:3|0:3,0:3:0:0:
346,321,88637,2,0,P|325:363|280:385,1,95.9999970703126,8|0,0:3|0:3,0:3:0:0:
73,302,88878,6,0,L|85:221,1,80,6|0,0:3|0:3,0:3:0:0:
288,59,89120,2,0,L|299:138,1,80,8|0,0:3|0:3,0:3:0:0:
154,365,89362,2,0,P|159:325|180:292,1,80,2|0,0:3|0:3,0:3:0:0:
456,235,89604,1,8,0:3:0:0:
397,298,89725,6,0,P|340:307|280:211,1,160,2|2,0:3|0:3,0:3:0:0:
436,0,90088,1,8,0:3:0:0:
477,76,90209,1,2,0:3:0:0:
431,149,90330,2,0,L|347:137,1,80,2|0,0:3|0:3,0:3:0:0:
127,49,90572,2,0,L|211:37,1,80,8|0,0:3|0:3,0:3:0:0:
238,245,90814,6,0,P|226:168|274:107,1,160,2|8,0:3|0:3,0:3:0:0:
327,286,91177,1,0,0:3:0:0:
246,342,91298,2,0,L|160:326,1,80,2|0,0:3|0:3,0:3:0:0:
364,174,91540,1,8,0:3:0:0:
448,207,91661,2,0,P|475:241|483:283,1,80,2|0,0:3|0:3,0:3:0:0:
164,111,91903,5,2,0:3:0:0:
164,111,92024,2,0,L|178:16,1,95.9999970703126,12|2,0:3|0:3,0:3:0:0:
364,174,92266,2,0,L|349:79,1,95.9999970703126,6|0,0:3|0:3,0:3:0:0:
90,278,92507,2,0,L|105:184,1,95.9999970703126,12|0,0:3|0:3,0:3:0:0:
435,327,92749,6,0,L|421:235,1,80,6|0,0:3|0:3,0:3:0:0:
250,76,92991,2,0,L|237:155,1,80,8|0,0:3|0:3,0:3:0:0:
509,224,93233,2,0,P|480:180|426:164,1,80,2|0,0:3|0:3,0:3:0:0:
203,307,93475,1,8,0:3:0:0:
268,369,93596,6,0,B|299:325|299:325|278:204,1,160,2|2,0:3|0:3,0:3:0:0:
99,38,93959,1,8,0:3:0:0:
31,98,94080,1,2,0:3:0:0:
48,186,94201,2,0,P|85:213|129:215,1,80,2|0,0:3|0:3,0:3:0:0:
352,154,94443,2,0,P|315:127|271:125,1,80,8|0,0:3|0:3,0:3:0:0:
44,330,94685,6,0,L|203:307,1,160,2|8,0:3|0:3,0:3:0:0:
369,241,95048,1,0,0:3:0:0:
352,154,95169,2,0,P|310:172|286:209,1,80,2|0,0:3|0:3,0:3:0:0:
359,365,95411,1,8,0:3:0:0:
471,312,95532,1,2,0:3:0:0:
471,312,95895,6,0,P|473:264|447:225,1,95.9999970703126,8|2,0:3|0:3,0:3:0:0:
413,101,96137,2,0,P|373:75|326:78,1,95.9999970703126,6|0,0:3|0:3,0:3:0:0:
201,45,96378,2,0,P|158:66|137:108,1,95.9999970703126,8|0,0:3|0:3,0:3:0:0:
23,287,96620,6,0,L|181:263,1,160,6|8,0:3|0:3,0:3:0:0:
346,191,96983,1,0,0:3:0:0:
413,253,97104,2,0,P|417:296|399:334,1,80,2|0,0:3|0:3,0:3:0:0:
279,129,97346,2,0,P|275:86|293:48,1,80,8|2,0:3|0:3,0:3:0:0:
512,174,97588,6,0,L|432:162,1,80,0|2,0:3|0:3,0:3:0:0:
246,292,97830,2,0,L|326:281,1,80,8|2,0:3|0:3,0:3:0:0:
289,52,98072,1,2,0:3:0:0:
222,3,98193,1,0,0:3:0:0:
145,37,98314,2,0,P|122:69|118:115,1,80,8|0,0:3|0:3,0:3:0:0:
326,281,98556,6,0,L|316:200,1,80,6|0,0:3|0:3,0:3:0:0:
111,244,98798,2,0,L|101:323,1,80,8|4,0:3|0:3,0:3:0:0:
414,384,99040,2,0,L|404:303,1,80,2|0,0:3|0:3,0:3:0:0:
199,141,99282,2,0,L|189:222,1,80,12|2,0:3|0:3,0:3:0:0:
494,169,99524,5,0,0:3:0:0:
484,91,99645,1,2,0:3:0:0:
423,42,99766,1,12,0:3:0:0:
346,50,99887,1,2,0:3:0:0:
295,110,100007,5,6,0:3:0:0:
231,182,100128,1,0,0:3:0:0:
135,174,100249,1,12,0:3:0:0:
86,91,100370,1,0,0:3:0:0:
124,2,100491,6,0,P|160:49|164:79,1,80,6|0,0:3|0:3,0:3:0:0:
1,226,100733,2,0,P|12:188|40:159,1,80,8|0,0:3|0:3,0:3:0:0:
245,278,100975,2,0,L|164:292,1,80,2|0,0:3|0:3,0:3:0:0:
295,110,101217,1,8,0:3:0:0:
388,158,101338,6,0,P|427:224|403:298,1,160,2|2,0:3|0:3,0:3:0:0:
164,362,101701,1,8,0:3:0:0:
94,290,101822,1,2,0:3:0:0:
121,193,101943,2,0,L|202:207,1,80,2|0,0:3|0:3,0:3:0:0:
19,345,102185,2,0,P|-3:299|1:267,1,80,8|0,0:3|0:3,0:3:0:0:
203,99,102427,6,0,L|42:125,1,160,2|8,0:3|0:3,0:3:0:0:
304,2,102790,1,0,0:3:0:0:
393,49,102911,2,0,P|408:94|400:138,1,80,2|0,0:3|0:3,0:3:0:0:
219,283,103153,1,8,0:3:0:0:
269,167,103274,1,2,0:3:0:0:
269,167,103637,6,0,P|332:181|355:217,1,95.9999970703126,8|2,0:3|0:3,0:3:0:0:
114,159,103878,2,0,P|157:111|200:109,1,95.9999970703126,6|0,0:3|0:3,0:3:0:0:
29,289,104120,2,0,P|9:227|29:189,1,95.9999970703126,8|0,0:3|0:3,0:3:0:0:
252,12,104362,6,0,L|265:115,1,80,6|0,0:3|0:3,0:3:0:0:
161,300,104604,2,0,L|171:220,1,80,8|0,0:3|0:3,0:3:0:0:
381,102,104846,2,0,P|420:106|461:137,1,80,2|0,0:3|0:3,0:3:0:0:
465,337,105088,1,8,0:3:0:0:
364,357,105209,6,0,L|389:178,1,160,2|2,0:3|0:3,0:3:0:0:
183,29,105572,1,8,0:3:0:0:
101,89,105693,1,2,0:3:0:0:
137,183,105814,2,0,P|176:207|221:206,1,80,2|0,0:3|0:3,0:3:0:0:
381,102,106056,2,0,P|342:78|297:79,1,80,8|0,0:3|0:3,0:3:0:0:
104,306,106298,6,0,L|277:278,1,160,2|8,0:3|0:3,0:3:0:0:
462,161,106661,1,0,0:3:0:0:
381,102,106782,2,0,P|353:133|343:184,1,80,2|0,0:3|0:3,0:3:0:0:
385,384,107024,1,8,0:3:0:0:
472,327,107145,2,0,L|458:238,1,80,2|0,0:3|0:3,0:3:0:0:
258,85,107387,5,2,0:3:0:0:
258,85,107507,2,0,L|353:73,1,95.9999970703126,12|2,0:3|0:3,0:3:0:0:
212,288,107749,2,0,L|307:299,1,95.9999970703126,6|0,0:3|0:3,0:3:0:0:
89,40,107991,2,0,L|185:29,1,95.9999970703126,12|0,0:3|0:3,0:3:0:0:
59,333,108233,6,0,L|139:343,1,80,6|0,0:3|0:3,0:3:0:0:
300,157,108475,2,0,L|220:166,1,80,8|0,0:3|0:3,0:3:0:0:
360,378,108717,2,0,P|399:313|371:229,1,160,2|8,0:3|0:3,0:3:0:0:
276,81,109080,6,0,B|317:67|351:93|351:93|390:123|426:106,1,160,2|2,0:3|0:3,0:3:0:0:
236,1,109443,1,8,0:3:0:0:
186,75,109564,1,2,0:3:0:0:
225,155,109685,2,0,L|314:167,1,80,2|0,0:3|0:3,0:3:0:0:
86,35,109927,2,0,L|-3:47,1,80,8|0,0:3|0:3,0:3:0:0:
69,260,110169,6,0,P|123:203|118:127,1,160,6|8,0:3|0:3,0:3:0:0:
0,323,110532,1,0,0:3:0:0:
89,351,110653,2,0,L|176:337,1,80,2|0,0:3|0:3,0:3:0:0:
331,154,110895,1,8,0:3:0:0:
242,182,111016,2,0,P|216:217|213:255,1,80,2|0,0:3|0:3,0:3:0:0:
442,366,111257,5,2,0:3:0:0:
442,366,111378,2,0,P|447:319|425:277,1,95.9999970703126,8|2,0:3|0:3,0:3:0:0:
489,166,111620,2,0,P|450:138|403:136,1,95.9999970703126,6|0,0:3|0:3,0:3:0:0:
338,26,111862,2,0,P|294:45|269:85,1,95.9999970703126,8|0,0:3|0:3,0:3:0:0:
119,252,112104,6,0,P|164:189|242:182,1,160,6|8,0:3|0:3,0:3:0:0:
99,344,112467,1,0,0:3:0:0:
29,281,112588,2,0,L|39:192,1,80,2|0,0:3|0:3,0:3:0:0:
190,13,112830,2,0,L|198:92,1,80,8|2,0:3|0:3,0:3:0:0:
282,267,113072,6,0,P|315:230|357:219,1,80,4|2,0:3|0:3,0:3:0:0:
374,336,113314,1,8,0:3:0:0:
287,357,113435,1,2,0:3:0:0:
207,316,113556,2,0,P|192:269|203:227,1,80,2|0,0:3|0:3,0:3:0:0:
364,49,113798,2,0,L|374:130,1,80,8|0,0:3|0:3,0:3:0:0:
487,381,114040,5,6,0:3:0:0:
494,293,114161,1,0,0:3:0:0:
439,225,114282,1,8,0:3:0:0:
352,214,114403,1,0,0:3:0:0:
282,267,114524,5,2,0:3:0:0:
224,354,114645,1,0,0:3:0:0:
123,327,114766,1,8,0:3:0:0:
117,224,114887,1,2,0:3:0:0:
214,187,115007,1,2,0:3:0:0:
214,187,115975,5,6,0:1:0:0:
59,4,116338,1,2,0:3:0:0:
59,4,116459,2,0,L|41:141,1,120.000004577637,8|0,0:3|0:0,0:0:0:0:
0,252,116943,5,2,0:3:0:0:
198,68,117306,1,2,0:3:0:0:
198,68,117427,2,0,L|216:205,1,120.000004577637,8|0,0:3|0:0,0:0:0:0:
285,353,117911,5,2,0:3:0:0:
85,251,118274,1,2,0:3:0:0:
85,251,118395,2,0,P|131:215|190:215,1,120.000004577637,8|0,0:3|0:0,0:0:0:0:
357,307,118878,5,2,0:3:0:0:
512,139,119241,1,2,0:3:0:0:
512,139,119362,2,0,P|465:103|406:103,1,120.000004577637,8|0,0:3|0:0,0:0:0:0:
217,238,119846,5,2,0:3:0:0:
295,11,120209,1,2,0:3:0:0:
295,11,120330,2,0,L|306:130,1,120.000004577637,8|0,0:3|0:0,0:0:0:0:
440,293,120814,5,2,0:3:0:0:
205,357,121177,1,2,0:3:0:0:
205,357,121298,2,0,L|216:237,1,120.000004577637,8|0,0:3|0:0,0:0:0:0:
351,83,121782,5,2,0:3:0:0:
136,17,122145,1,2,0:3:0:0:
136,17,122266,2,0,P|165:76|236:91,1,120.000004577637,8|0,0:3|0:0,0:0:0:0:
426,30,122749,5,2,0:3:0:0:
260,248,123112,1,2,0:3:0:0:
260,248,123233,2,0,P|289:189|360:174,1,120.000004577637,8|0,0:3|0:0,0:0:0:0:
487,347,123717,5,2,0:3:0:0:
298,131,124080,1,2,0:3:0:0:
298,131,124201,2,0,L|419:147,1,120.000004577637,8|0,0:3|0:0,0:0:0:0:
219,376,124685,5,2,0:3:0:0:
464,234,125048,1,2,0:3:0:0:
464,234,125169,2,0,L|343:250,1,120.000004577637,8|0,0:3|0:0,0:0:0:0:
151,135,125653,5,2,0:3:0:0:
30,329,126016,1,2,0:3:0:0:
30,328,126137,2,0,P|55:275|110:254,1,120.000004577637,8|0,0:3|0:0,0:0:0:0:
306,243,126620,5,2,0:3:0:0:
154,38,126983,1,2,0:3:0:0:
154,39,127104,2,0,P|179:91|234:112,1,120.000004577637,8|0,0:3|0:0,0:0:0:0:
418,30,127588,5,2,0:3:0:0:
269,212,127951,1,2,0:3:0:0:
269,212,128072,2,0,L|138:196,1,120.000004577637,8|0,0:3|0:0,0:0:0:0:
304,61,128556,5,2,0:3:0:0:
393,300,128919,1,2,0:3:0:0:
393,300,129040,2,0,L|524:284,1,120.000004577637,8|0,0:3|0:0,0:0:0:0:
241,134,129524,5,2,0:3:0:0:
71,352,129887,1,2,0:3:0:0:
71,352,130007,2,0,P|77:287|125:252,1,120.000004577637,8|0,0:3|0:0,0:0:0:0:
325,210,130491,5,2,0:3:0:0:
146,22,130854,1,2,0:3:0:0:
146,22,130975,2,0,P|152:87|200:122,1,120.000004577637,8|0,0:3|0:0,0:0:0:0:
363,80,131459,5,2,0:3:0:0:
283,283,131822,1,2,0:3:0:0:
283,283,131943,1,8,0:3:0:0:
414,234,132185,1,2,0:3:0:0:
98,135,132427,5,2,0:3:0:0:
178,338,132790,1,2,0:3:0:0:
178,338,132911,1,8,0:3:0:0:
47,289,133153,1,2,0:3:0:0:
208,64,133395,6,0,P|260:61|305:115,1,120.000004577637,2|0,0:0|0:0,0:0:0:0:
346,203,133757,2,0,L|328:18,1,180.000006866455,2|0,0:0|0:0,0:0:0:0:
92,280,134362,6,0,P|144:283|189:229,1,120.000004577637,2|0,0:0|0:0,0:0:0:0:
230,141,134725,2,0,L|212:326,1,180.000006866455,2|0,0:0|0:0,0:0:0:0:
450,384,135330,5,2,0:3:0:0:
346,203,135693,1,2,0:3:0:0:
346,203,135814,1,8,0:3:0:0:
451,278,136056,1,2,0:3:0:0:
172,191,136298,5,2,0:3:0:0:
276,10,136661,1,2,0:3:0:0:
276,10,136782,1,8,0:3:0:0:
171,85,137024,1,2,0:3:0:0:
443,141,137266,6,0,L|434:12,1,120.000004577637,2|0,0:0|0:0,0:0:0:0:
330,184,137628,2,0,P|413:160|480:214,1,180.000006866455,2|0,0:0|0:0,0:0:0:0:
137,238,138233,6,0,L|146:109,1,120.000004577637,2|0,0:0|0:0,0:0:0:0:
250,281,138596,2,0,P|166:257|99:311,1,180.000006866455,2|0,0:0|0:0,0:0:0:0:
367,375,139201,5,2,0:3:0:0:
302,200,139564,1,2,0:3:0:0:
302,200,139685,1,8,0:3:0:0:
485,330,139927,1,2,0:3:0:0:
211,246,140169,5,2,0:3:0:0:
276,71,140532,1,2,0:3:0:0:
276,71,140653,1,8,0:3:0:0:
93,201,140895,1,2,0:3:0:0:
353,102,141137,6,0,P|353:44|315:0,1,120.000004577637,2|0,0:0|0:0,0:0:0:0:
286,153,141499,2,0,L|470:131,1,180.000006866455,2|0,0:0|0:0,0:0:0:0:
130,201,142104,6,0,P|129:142|168:98,1,120.000004577637,2|0,0:0|0:0,0:0:0:0:
197,251,142467,2,0,L|13:229,1,180.000006866455,2|0,0:0|0:0,0:0:0:0:
267,362,143072,5,2,0:3:0:0:
331,156,143435,1,2,0:3:0:0:
331,156,143556,1,8,0:3:0:0:
159,285,143798,1,2,0:3:0:0:
391,230,144040,5,2,0:3:0:0:
327,24,144403,1,2,0:3:0:0:
327,24,144524,1,8,0:3:0:0:
499,153,144766,1,2,0:3:0:0:
236,237,145007,6,0,L|251:116,1,120.000004577637,2|0,0:0|0:0,0:0:0:0:
303,287,145370,2,0,P|222:317|157:261,1,180.000006866455,2|0,0:0|0:0,0:0:0:0:
428,99,145975,6,0,L|443:220,1,120.000004577637,2|0,0:0|0:0,0:0:0:0:
495,49,146338,2,0,P|414:18|349:74,1,180.000006866455,2|0,0:0|0:0,0:0:0:0:
181,290,146943,6,0,L|348:262,1,160,2|8,0:3|0:3,0:3:0:0:
185,381,147306,1,0,0:3:0:0:
104,340,147427,2,0,P|90:302|95:263,1,80,2|0,0:3|0:3,0:3:0:0:
214,75,147669,2,0,P|227:112|222:151,1,80,8|2,0:3|0:3,0:3:0:0:
15,244,147911,6,0,P|47:196|145:198,1,160,0|8,0:3|0:3,0:3:0:0:
291,363,148274,1,2,0:3:0:0:
366,315,148395,2,0,P|378:274|376:237,1,80,2|0,0:3|0:3,0:3:0:0:
222,151,148637,2,0,L|231:243,1,80,8|0,0:3|0:3,0:3:0:0:
478,153,148878,6,0,B|423:94|423:94|340:110,1,160,2|8,0:3|0:3,0:3:0:0:
294,261,149241,1,0,0:3:0:0:
366,315,149362,2,0,P|411:310|442:284,1,80,2|0,0:3|0:3,0:3:0:0:
233,71,149604,2,0,L|222:151,1,80,8|2,0:3|0:3,0:3:0:0:
82,355,149846,6,0,P|113:283|187:261,1,160,0|8,0:3|0:3,0:3:0:0:
437,289,150209,2,0,P|405:217|331:195,1,160,2|0,0:3|0:3,0:3:0:0:
97,137,150572,2,0,P|120:105|157:89,1,80,8|0,0:3|0:3,0:3:0:0:
346,35,150814,6,0,L|331:195,1,160,2|8,0:3|0:3,0:3:0:0:
333,384,151177,1,0,0:3:0:0:
419,363,151298,2,0,B|439:329|439:329|437:289,1,80,2|0,0:3|0:3,0:3:0:0:
241,255,151540,2,0,B|221:289|221:289|224:342,1,80,8|2,0:3|0:3,0:3:0:0:
240,147,151782,6,0,B|187:155|187:155|150:193|150:193|97:200,1,160,0|8,0:3|0:3,0:3:0:0:
0,126,152145,1,2,0:3:0:0:
59,71,152266,2,0,P|101:69|143:90,1,80,2|0,0:3|0:3,0:3:0:0:
241,255,152507,2,0,P|204:270|164:267,1,80,8|0,0:3|0:3,0:3:0:0:
329,31,152749,6,0,L|319:194,1,160,2|8,0:3|0:3,0:3:0:0:
418,312,153112,1,0,0:3:0:0:
490,259,153233,2,0,P|500:220|489:182,1,80,2|0,0:3|0:3,0:3:0:0:
332,275,153475,2,0,P|321:313|332:351,1,80,8|2,0:3|0:3,0:3:0:0:
404,99,153717,6,0,L|235:123,1,160,0|8,0:3|0:3,0:3:0:0:
88,226,154080,2,0,P|162:210|211:268,1,160,2|0,0:3|0:3,0:3:0:0:
283,357,154443,1,8,0:3:0:0:
394,339,154564,1,0,0:3:0:0:
433,233,154685,6,0,L|424:153,1,80,2|0,0:3|0:3,0:3:0:0:
273,22,154927,1,8,0:3:0:0:
199,80,155048,2,0,L|190:159,2,80,0|2|0,0:3|0:3|0:3,0:3:0:0:
349,195,155411,2,0,L|357:274,1,80,8|2,0:3|0:3,0:3:0:0:
150,375,155653,6,0,P|110:364|80:336,1,80,0|2,0:3|0:3,0:3:0:0:
153,185,155895,1,8,0:3:0:0:
248,246,156016,2,0,P|258:286|249:326,2,80,2|2|0,0:3|0:3|0:3,0:3:0:0:
88,226,156378,2,0,P|117:196|156:184,1,80,8|0,0:3|0:3,0:3:0:0:
282,62,156620,6,0,L|203:49,1,80,2|0,0:3|0:3,0:3:0:0:
323,196,156862,1,8,0:3:0:0:
415,181,156983,2,0,L|493:168,2,80,0|2|0,0:3|0:3|0:3,0:3:0:0:
250,323,157346,2,0,L|171:310,1,80,8|2,0:3|0:3,0:3:0:0:
19,176,157588,6,0,P|70:120|146:132,1,160,0|8,0:3|0:3,0:3:0:0:
250,323,157951,2,0,P|325:335|377:278,1,160,2|0,0:3|0:3,0:3:0:0:
393,63,158314,2,0,P|437:63|475:87,1,80,8|0,0:3|0:3,0:3:0:0:
282,94,158556,6,0,L|292:14,1,80,2|0,0:3|0:3,0:3:0:0:
454,207,158798,1,8,0:3:0:0:
492,285,158919,2,0,P|485:323|459:353,2,80,0|2|0,0:3|0:3|0:3,0:3:0:0:
336,166,159282,2,0,L|234:184,1,80,8|2,0:3|0:3,0:3:0:0:
126,324,159524,6,0,L|204:337,1,80,0|2,0:3|0:3,0:3:0:0:
127,181,159766,1,8,0:3:0:0:
44,199,159887,2,0,P|11:232|-2:274,2,80,2|2|0,0:3|0:3|0:3,0:3:0:0:
195,114,160249,2,0,P|204:72|192:25,1,80,8|0,0:3|0:3,0:3:0:0:
178,251,160491,6,0,L|266:238,1,80,2|0,0:3|0:3,0:3:0:0:
455,124,160733,1,8,0:3:0:0:
377,75,160854,2,0,P|336:85|306:116,2,80,0|2|0,0:3|0:3|0:3,0:3:0:0:
419,249,161217,2,0,P|387:213|384:165,1,80,8|2,0:3|0:3,0:3:0:0:
496,47,161459,5,2,0:3:0:0:
178,251,161943,1,2,0:3:0:0:
482,329,162427,6,0,B|475:321|432:339|432:339|406:315|414:270|414:270|370:280|370:280|238:156|299:34|385:-2|464:123|435:220|316:256|239:259|239:259|244:226|217:198|217:198|215:155|215:155|184:185|184:185|150:183|131:206|131:206|88:204|88:204|114:243|114:243|109:282|144:315|174:310,1,1120,2|0,0:0|0:0,0:0:0:0:
29,118,166297,6,0,B|90:122|138:35|138:35|150:110|150:110|110:172|110:172|122:247|122:247|138:177|197:137|313:156|320:272|288:318|227:342|227:342|173:341|189:288|189:288|215:229|323:233|360:277|349:334|349:334|385:312|429:334,1,1120,2|0,0:0|0:0,0:0:0:0:
417,104,170168,6,0,B|399:140|422:162|422:162|476:135|489:61|442:3|442:3|327:16|302:155|354:224|354:224|410:225|463:291|437:378|357:396|299:378|279:314|279:314|289:264|266:221|223:199|223:199|186:236|198:301|198:301|210:292|218:272,1,1120,2|0,0:0|0:0,0:0:0:0:
0,171,174039,6,0,B|29:121|87:119|87:119|85:63|129:26|129:26|179:36|204:92|204:92|256:71|305:101|305:101|309:160|264:195|264:195|300:237|286:293|286:293|234:314|183:282|183:282|151:333|95:333|95:333|57:298|75:229,1,960,2|0,0:0|0:0,0:0:0:0:
330,280,195330,5,4,0:0:0:0:
119,54,195814,6,0,P|96:86|90:125,1,80,6|0,0:3|0:3,0:3:0:0:
231,166,196054,2,0,P|253:133|259:94,1,80,8|0,0:3|0:3,0:3:0:0:
45,241,196296,2,0,L|125:257,1,80,2|0,0:3|0:3,0:3:0:0:
330,332,196538,1,8,0:3:0:0:
376,257,196659,6,0,P|325:241|244:310,1,160,6|2,0:3|0:3,0:3:0:0:
461,365,197022,1,8,0:3:0:0:
503,284,197143,1,2,0:3:0:0:
453,207,197264,2,0,P|424:179|386:167,1,80,2|0,0:3|0:3,0:3:0:0:
175,345,197506,2,0,P|203:372|241:384,1,80,8|0,0:3|0:3,0:3:0:0:
276,96,197748,6,0,L|289:255,1,160,6|8,0:3|0:3,0:3:0:0:
98,373,198111,1,0,0:3:0:0:
48,306,198232,2,0,P|62:262|102:232,1,80,2|0,0:3|0:3,0:3:0:0:
203,169,198474,1,8,0:3:0:0:
84,103,198595,1,2,0:3:0:0:
84,103,198958,6,0,P|127:84|179:106,1,95.9999970703126,8|2,0:3|0:3,0:3:0:0:
289,69,199200,2,0,P|326:96|333:152,1,95.9999970703126,6|0,0:3|0:3,0:3:0:0:
420,229,199442,2,0,P|414:275|369:309,1,95.9999970703126,8|0,0:3|0:3,0:3:0:0:
138,339,199683,6,0,L|151:252,1,80,6|0,0:3|0:3,0:3:0:0:
308,165,199925,2,0,L|319:244,1,80,8|0,0:3|0:3,0:3:0:0:
72,225,200167,2,0,P|101:189|142:174,1,80,2|0,0:3|0:3,0:3:0:0:
396,88,200409,1,8,0:3:0:0:
308,165,200530,6,0,B|292:60|292:60|326:12,1,160,6|2,0:3|0:3,0:3:0:0:
403,192,200893,1,8,0:3:0:0:
333,261,201014,1,2,0:3:0:0:
238,234,201135,2,0,P|214:189|218:148,1,80,6|0,0:3|0:3,0:3:0:0:
427,287,201377,2,0,P|424:326|403:359,1,80,8|0,0:3|0:3,0:3:0:0:
132,384,201619,6,0,L|146:217,1,160,6|8,0:3|0:3,0:3:0:0:
197,67,201982,1,0,0:3:0:0:
118,122,202103,2,0,P|77:111|51:82,1,80,2|0,0:3|0:3,0:3:0:0:
276,12,202345,1,8,0:3:0:0:
331,91,202466,2,0,L|320:188,1,80,2|0,0:3|0:3,0:3:0:0:
203,369,202708,5,2,0:3:0:0:
203,369,202829,2,0,L|192:273,1,95.9999970703126,12|2,0:3|0:3,0:3:0:0:
388,289,203071,2,0,L|398:193,1,95.9999970703126,6|0,0:3|0:3,0:3:0:0:
130,199,203313,2,0,L|119:103,1,95.9999970703126,12|0,0:3|0:3,0:3:0:0:
461,119,203554,6,0,L|470:39,1,80,6|0,0:3|0:3,0:3:0:0:
294,169,203796,2,0,P|299:212|331:246,1,80,8|0,0:3|0:3,0:3:0:0:
224,50,204038,2,0,L|139:64,1,80,2|0,0:3|0:3,0:3:0:0:
46,283,204280,1,8,0:3:0:0:
104,217,204401,6,0,P|86:151|-19:133,1,160,6|2,0:3|0:3,0:3:0:0:
58,375,204764,1,8,0:3:0:0:
143,355,204885,1,2,0:3:0:0:
228,335,205006,2,0,L|316:352,1,80,2|0,0:3|0:3,0:3:0:0:
404,175,205248,2,0,L|316:192,1,80,8|0,0:3|0:3,0:3:0:0:
466,253,205490,6,0,B|504:205|504:205|488:108,1,160,6|8,0:3|0:3,0:3:0:0:
344,12,205853,1,0,0:3:0:0:
252,57,205974,2,0,P|233:95|234:138,1,80,2|0,0:3|0:3,0:3:0:0:
208,270,206216,1,8,0:3:0:0:
340,219,206337,1,2,0:3:0:0:
340,219,206700,6,0,P|299:186|246:191,1,95.9999970703126,8|2,0:3|0:3,0:3:0:0:
190,98,206942,2,0,P|140:117|118:165,1,95.9999970703126,6|0,0:3|0:3,0:3:0:0:
10,167,207183,2,0,P|1:219|32:262,1,95.9999970703126,8|0,0:3|0:3,0:3:0:0:
225,344,207425,6,0,L|207:182,1,160,6|8,0:3|0:3,0:3:0:0:
365,67,207788,1,0,0:3:0:0:
437,117,207909,2,0,P|443:161|428:203,1,80,2|0,0:3|0:3,0:3:0:0:
282,100,208151,2,0,P|276:56|291:14,1,80,8|2,0:3|0:3,0:3:0:0:
497,247,208393,6,0,L|340:219,1,160,4|8,0:3|0:3,0:3:0:0:
168,246,208756,1,2,0:3:0:0:
108,182,208877,2,0,P|110:135|138:98,1,80,2|0,0:3|0:3,0:3:0:0:
228,310,209119,2,0,P|226:357|198:394,1,80,8|0,0:3|0:3,0:3:0:0:
3,277,209361,6,0,L|83:266,1,80,6|0,0:3|0:3,0:3:0:0:
272,173,209603,2,0,L|193:162,1,80,8|0,0:3|0:3,0:3:0:0:
17,167,209845,1,2,0:3:0:0:
10,80,209966,1,0,0:3:0:0:
65,12,210087,1,8,0:3:0:0:
151,0,210208,1,2,0:3:0:0:
222,50,210329,1,2,0:3:0:0:
396,310,211054,5,0,0:3:0:0:
396,310,211175,1,0,0:3:0:0:
396,310,211296,2,0,P|338:223|381:118,1,191.999994140625,6|8,0:3|0:3,0:3:0:0:
479,22,211659,1,0,0:3:0:0:
512,110,211780,2,0,L|411:94,1,95.9999970703126,2|0,0:3|0:3,0:3:0:0:
168,275,212022,2,0,L|269:259,1,95.9999970703126,8|2,0:3|0:3,0:3:0:0:
181,47,212264,6,0,P|91:34|42:111,1,191.999994140625,0|8,0:3|0:3,0:3:0:0:
201,169,212627,1,2,0:3:0:0:
284,121,212748,2,0,P|308:79|305:22,1,95.9999970703126,2|0,0:3|0:3,0:3:0:0:
106,146,212990,2,0,P|106:193|130:234,1,95.9999970703126,8|0,0:3|0:3,0:3:0:0:
426,244,213232,6,0,L|307:219,1,95.9999970703126,6|0,0:3|0:3,0:3:0:0:
208,377,213474,1,8,0:3:0:0:
277,306,213595,1,0,0:3:0:0:
230,218,213716,1,2,0:3:0:0:
131,235,213837,2,0,P|105:277|112:333,1,95.9999970703126,0|8,0:3|0:3,0:3:0:0:
284,121,214079,6,0,B|221:110|221:110|166:143|166:143|90:130,1,191.999994140625,2|2,0:3|0:3,0:3:0:0:
344,47,214442,2,0,P|375:81|371:151,1,95.9999970703126,8|2,0:3|0:3,0:3:0:0:
194,300,214683,2,0,P|198:253|230:218,1,95.9999970703126,6|0,0:3|0:3,0:3:0:0:
443,166,214925,1,8,0:3:0:0:
512,250,215046,1,0,0:3:0:0:
473,351,215167,6,0,L|279:326,1,191.999994140625,6|8,0:3|0:3,0:3:0:0:
148,201,215530,1,0,0:3:0:0:
63,247,215651,2,0,P|39:296|48:344,1,95.9999970703126,2|0,0:3|0:3,0:3:0:0:
233,155,215893,2,0,P|236:107|214:66,1,95.9999970703126,8|2,0:3|0:3,0:3:0:0:
0,79,216135,6,0,B|36:103|45:143|45:143|80:116|157:122,1,191.999994140625,0|8,0:3|0:3,0:3:0:0:
336,9,216498,1,2,0:3:0:0:
409,70,216619,2,0,L|394:167,1,95.9999970703126,2|0,0:3|0:3,0:3:0:0:
247,249,216861,2,0,L|233:155,1,95.9999970703126,8|0,0:3|0:3,0:3:0:0:
492,242,217103,6,0,P|470:329|381:334,1,191.999994140625,6|8,0:3|0:3,0:3:0:0:
232,154,217466,1,0,0:3:0:0:
131,140,217587,1,2,0:3:0:0:
68,220,217708,2,0,L|77:324,1,95.9999970703126,0|8,0:3|0:3,0:3:0:0:
316,136,217950,6,0,P|288:86|239:72,1,95.9999970703126,2|0,0:3|0:3,0:3:0:0:
297,244,218192,1,2,0:3:0:0:
401,206,218313,2,0,P|430:156|417:107,1,95.9999970703126,8|2,0:3|0:3,0:3:0:0:
178,11,218554,1,6,0:3:0:0:
84,18,218675,1,0,0:3:0:0:
17,83,218796,1,8,0:3:0:0:
8,177,218917,1,0,0:3:0:0:
61,254,219038,6,0,L|259:226,1,191.999994140625,6|8,0:3|0:3,0:3:0:0:
397,106,219401,1,0,0:3:0:0:
486,150,219522,2,0,B|499:195|499:195|478:239,1,95.9999970703126,2|0,0:3|0:3,0:3:0:0:
304,141,219764,2,0,B|290:95|290:95|311:51,1,95.9999970703126,8|2,0:3|0:3,0:3:0:0:
382,303,220006,6,0,P|286:304|251:223,1,191.999994140625,0|8,0:3|0:3,0:3:0:0:
401,202,220369,1,2,0:3:0:0:
479,270,220490,2,0,L|469:372,1,95.9999970703126,2|0,0:3|0:3,0:3:0:0:
250,226,220732,2,0,L|259:130,1,95.9999970703126,8|0,0:3|0:3,0:3:0:0:
101,0,220974,6,0,B|52:50|52:50|64:172,1,191.999994140625,6|8,0:3|0:3,0:3:0:0:
19,304,221337,1,0,0:3:0:0:
100,249,221458,1,2,0:3:0:0:
197,290,221579,2,0,P|215:336|214:383,1,95.9999970703126,0|8,0:3|0:3,0:3:0:0:
150,158,221821,6,0,P|149:110|167:65,1,95.9999970703126,2|0,0:3|0:3,0:3:0:0:
382,47,222063,1,2,0:3:0:0:
452,110,222183,2,0,P|469:154|469:202,1,95.9999970703126,8|2,0:3|0:3,0:3:0:0:
269,240,222425,2,0,P|298:202|340:179,1,95.9999970703126,6|0,0:3|0:3,0:3:0:0:
474,334,222667,2,0,P|426:327|385:302,1,95.9999970703126,8|0,0:3|0:3,0:3:0:0:
150,158,222909,6,0,L|351:181,1,191.999994140625,6|8,0:3|0:3,0:3:0:0:
159,269,223272,1,0,0:3:0:0:
75,213,223393,2,0,P|58:170|64:122,1,95.9999970703126,2|0,0:3|0:3,0:3:0:0:
228,0,223635,2,0,P|245:43|239:90,1,95.9999970703126,8|2,0:3|0:3,0:3:0:0:
316,283,223877,5,0,0:3:0:0:
293,194,223998,2,0,P|323:151|377:134,1,95.9999970703126,2|8,0:3|0:3,0:3:0:0:
404,307,224240,1,2,0:3:0:0:
339,371,224361,2,0,L|234:354,1,95.9999970703126,2|0,0:3|0:3,0:3:0:0:
75,213,224603,2,0,L|180:196,1,95.9999970703126,8|0,0:3|0:3,0:3:0:0:
450,125,224845,6,0,P|429:72|380:47,1,95.9999970703126,6|0,0:3|0:3,0:3:0:0:
243,238,225087,2,0,L|348:221,1,95.9999970703126,8|0,0:3|0:3,0:3:0:0:
148,18,225329,2,0,P|125:60|124:107,1,95.9999970703126,2|0,0:3|0:3,0:3:0:0:
200,348,225571,1,8,0:3:0:0:
126,255,225692,1,2,0:3:0:0:
8,272,225813,1,2,0:3:0:0:
282,68,226780,6,0,P|258:99|255:138,1,80,6|0,0:3|0:3,0:3:0:0:
400,187,227022,2,0,P|424:155|427:116,1,80,8|0,0:3|0:3,0:3:0:0:
169,2,227264,2,0,L|180:178,1,160,2|8,0:3|0:3,0:3:0:0:
251,243,227627,6,0,P|203:182|108:195,1,160,2|2,0:3|0:3,0:3:0:0:
6,273,227990,1,8,0:3:0:0:
62,344,228111,1,2,0:3:0:0:
151,331,228232,2,0,P|166:287|164:249,1,80,2|0,0:3|0:3,0:3:0:0:
77,54,228474,2,0,P|63:91|62:131,1,80,8|0,0:3|0:3,0:3:0:0:
280,271,228716,6,0,L|370:262,1,80,6|0,0:3|0:3,0:3:0:0:
480,99,228958,2,0,L|390:90,1,80,8|0,0:3|0:3,0:3:0:0:
238,5,229200,2,0,B|211:61|211:61|229:158,1,160,2|8,0:3|0:3,0:3:0:0:
438,296,229563,6,0,P|436:219|371:178,1,160,6|2,0:3|0:3,0:3:0:0:
142,277,229925,1,8,0:3:0:0:
195,345,230046,1,2,0:3:0:0:
281,332,230167,2,0,B|294:294|294:294|284:240,1,80,2|0,0:3|0:3,0:3:0:0:
128,116,230409,2,0,B|115:154|115:154|125:208,1,80,8|0,0:3|0:3,0:3:0:0:
329,78,230651,6,0,P|291:56|248:56,1,80,6|0,0:3|0:3,0:3:0:0:
22,193,230893,2,0,P|60:215|103:215,1,80,8|0,0:3|0:3,0:3:0:0:
156,0,231135,2,0,L|167:181,1,160,2|8,0:3|0:3,0:3:0:0:
365,275,231498,6,0,P|333:217|244:213,1,160,2|2,0:3|0:3,0:3:0:0:
148,323,231861,1,8,0:3:0:0:
211,384,231982,1,2,0:3:0:0:
295,360,232103,2,0,L|283:275,1,80,2|0,0:3|0:3,0:3:0:0:
92,169,232345,2,0,L|80:248,1,80,8|0,0:3|0:3,0:3:0:0:
167,81,232587,6,0,P|134:57|86:56,1,80,6|0,0:3|0:3,0:3:0:0:
246,211,232829,2,0,P|285:207|317:183,1,80,8|0,0:3|0:3,0:3:0:0:
431,10,233071,2,0,B|391:56|391:56|405:160,1,160,2|8,0:3|0:3,0:3:0:0:
488,329,233433,6,0,P|461:258|386:243,1,160,6|2,0:3|0:3,0:3:0:0:
200,377,233796,1,8,0:3:0:0:
142,310,233917,1,2,0:3:0:0:
170,225,234038,2,0,P|206:208|246:211,1,80,2|0,0:3|0:3,0:3:0:0:
363,349,234280,2,0,P|323:351|287:334,1,80,8|0,0:3|0:3,0:3:0:0:
63,162,234522,6,0,L|145:149,1,80,6|0,0:3|0:3,0:3:0:0:
387,71,234764,2,0,L|305:58,1,80,8|0,0:3|0:3,0:3:0:0:
64,0,235006,2,0,P|4:37|3:127,1,160,2|8,0:3|0:3,0:3:0:0:
252,257,235369,6,0,B|214:215|214:215|111:232,1,160,2|2,0:3|0:3,0:3:0:0:
246,356,235732,1,8,0:3:0:0:
329,318,235853,1,2,0:3:0:0:
360,232,235974,2,0,P|355:187|334:150,1,80,2|0,0:3|0:3,0:3:0:0:
183,299,236216,2,0,P|165:334|162:374,1,80,8|0,0:3|0:3,0:3:0:0:
78,183,236458,6,0,L|-21:199,1,80,6|0,0:3|0:3,0:3:0:0:
252,25,236700,2,0,L|351:41,1,80,8|0,0:3|0:3,0:3:0:0:
189,219,236942,2,0,B|156:179|156:179|178:64,1,160,2|8,0:3|0:3,0:3:0:0:
404,0,237304,6,0,P|477:17|484:92,1,160,6|2,0:3|0:3,0:3:0:0:
313,250,237667,1,8,0:3:0:0:
267,180,237788,1,2,0:3:0:0:
304,105,237909,2,0,P|348:106|383:124,1,80,2|0,0:3|0:3,0:3:0:0:
510,300,238151,2,0,P|473:316|434:316,1,80,8|0,0:3|0:3,0:3:0:0:
148,196,238393,6,0,L|235:184,1,80,6|0,0:3|0:3,0:3:0:0:
81,379,238635,2,0,P|61:339|61:298,1,80,8|0,0:3|0:3,0:3:0:0:
236,104,238877,2,0,P|283:122|298:234,1,160,2|8,0:3|0:3,0:3:0:0:
112,45,239240,6,0,B|166:53|166:53|206:19|206:19|258:26,1,160,2|2,0:3|0:3,0:3:0:0:
478,162,239603,1,8,0:3:0:0:
394,138,239724,1,2,0:3:0:0:
332,197,239845,2,0,P|328:253|340:282,1,80,2|0,0:3|0:3,0:3:0:0:
456,77,240087,2,0,P|462:37|452:0,1,80,8|0,0:3|0:3,0:3:0:0:
236,104,240329,6,0,L|241:189,1,80,6|0,0:3|0:3,0:3:0:0:
433,315,240571,2,0,L|437:235,1,80,8|0,0:3|0:3,0:3:0:0:
187,270,240813,2,0,P|204:344|276:372,1,160,2|8,0:3|0:3,0:3:0:0:
206,194,241175,6,0,B|165:182|132:211|132:211|98:244|51:226,1,160,6|2,0:3|0:3,0:3:0:0:
210,67,241538,1,8,0:3:0:0:
290,96,241659,1,2,0:3:0:0:
304,179,241780,2,0,L|291:269,1,80,2|0,0:3|0:3,0:3:0:0:
133,116,242022,2,0,L|121:36,1,80,8|0,0:3|0:3,0:3:0:0:
370,125,242264,6,0,P|392:163|391:201,1,80,6|0,0:3|0:3,0:3:0:0:
196,336,242506,2,0,P|196:296|217:262,1,80,8|0,0:3|0:3,0:3:0:0:
449,350,242748,2,0,L|292:325,1,160,2|8,0:3|0:3,0:3:0:0:
47,217,243111,6,0,P|81:169|176:173,1,160,2|2,0:3|0:3,0:3:0:0:
274,286,243474,1,8,0:3:0:0:
359,252,243595,1,2,0:3:0:0:
373,161,243716,2,0,P|380:120|364:80,1,80,2|0,0:3|0:3,0:3:0:0:
185,254,243958,2,0,P|178:295|194:335,1,80,8|0,0:3|0:3,0:3:0:0:
466,237,244200,6,0,L|455:158,1,80,6|0,0:3|0:3,0:3:0:0:
294,6,244442,2,0,L|282:85,1,80,8|0,0:3|0:3,0:3:0:0:
216,323,244683,2,0,P|261:261|339:261,1,160,2|8,0:3|0:3,0:3:0:0:
150,384,245046,6,0,B|117:331|117:331|147:215,1,160,6|2,0:3|0:3,0:3:0:0:
256,79,245409,1,8,0:3:0:0:
337,96,245530,1,2,0:3:0:0:
362,174,245651,2,0,P|321:202|284:199,1,80,2|0,0:3|0:3,0:3:0:0:
121,46,245893,2,0,P|162:18|199:21,1,80,8|0,0:3|0:3,0:3:0:0:
448,128,246135,6,0,L|438:225,1,80,6|0,0:3|0:3,0:3:0:0:
240,343,246377,2,0,L|231:263,1,80,8|0,0:3|0:3,0:3:0:0:
491,318,246619,2,0,P|427:333|353:278,1,160,2|8,0:3|0:3,0:3:0:0:
178,118,246982,6,0,L|337:96,1,160,2|2,0:3|0:3,0:3:0:0:
193,205,247345,1,8,0:3:0:0:
111,174,247466,1,2,0:3:0:0:
96,87,247587,2,0,P|103:43|127:6,1,80,2|0,0:3|0:3,0:3:0:0:
125,260,247829,2,0,L|22:247,1,80,8|0,0:3|0:3,0:3:0:0:
291,144,248071,6,0,P|310:178|315:218,1,80,6|0,0:3|0:3,0:3:0:0:
147,369,248313,2,0,P|167:334|198:310,1,80,8|0,0:3|0:3,0:3:0:0:
415,249,248554,2,0,B|344:315|344:315|271:301,1,160,2|8,0:3|0:3,0:3:0:0:
137,113,248917,6,0,P|216:114|291:144,1,160,6|2,0:3|0:3,0:3:0:0:
146,201,249280,1,8,0:3:0:0:
66,165,249401,1,2,0:3:0:0:
57,77,249522,2,0,P|60:32|81:-6,1,80,2|0,0:3|0:3,0:3:0:0:
226,147,249764,2,0,P|242:183|244:222,1,80,8|0,0:3|0:3,0:3:0:0:
11,281,250006,6,0,P|44:260|84:258,1,80,6|0,0:3|0:3,0:3:0:0:
243,375,250248,2,0,P|203:373|169:352,1,80,8|0,0:3|0:3,0:3:0:0:
66,165,250490,2,0,L|230:189,1,160,2|8,0:3|0:3,0:3:0:0:
345,313,250853,6,0,B|316:268|316:268|340:161,1,160,2|2,0:3|0:3,0:3:0:0:
460,75,251216,1,8,0:3:0:0:
512,139,251337,1,2,0:3:0:0:
481,216,251458,2,0,P|447:238|397:245,1,80,2|0,0:3|0:3,0:3:0:0:
271,104,251700,2,0,P|304:81|354:74,1,80,8|0,0:3|0:3,0:3:0:0:
146,201,251942,6,0,L|138:120,1,80,6|0,0:3|0:3,0:3:0:0:
316,268,252183,2,0,L|308:347,1,80,8|0,0:3|0:3,0:3:0:0:
68,384,252425,2,0,P|91:327|191:302,1,160,2|8,0:3|0:3,0:3:0:0:
362,184,252788,6,0,B|309:177|309:177|272:137|272:137|219:130,1,160,6|2,0:3|0:3,0:3:0:0:
34,72,253151,1,8,0:3:0:0:
89,9,253272,1,2,0:3:0:0:
172,25,253393,2,0,P|198:75|193:119,1,80,2|0,0:3|0:3,0:3:0:0:
46,223,253635,2,0,P|50:183|72:150,1,80,8|0,0:3|0:3,0:3:0:0:
179,298,253877,6,0,L|94:314,1,80,6|0,0:3|0:3,0:3:0:0:
220,130,254119,2,0,L|305:146,1,80,8|0,0:3|0:3,0:3:0:0:
361,366,254361,2,0,P|320:309|351:214,1,160,2|8,0:3|0:3,0:3:0:0:
488,85,254724,6,0,L|318:117,1,160,2|2,0:3|0:3,0:3:0:0:
70,213,255087,1,8,0:3:0:0:
105,294,255208,1,2,0:3:0:0:
192,304,255329,2,0,P|213:264|211:225,1,80,2|0,0:3|0:3,0:3:0:0:
148,47,255571,2,0,P|128:81|127:120,1,80,8|0,0:3|0:3,0:3:0:0:
308,223,255813,6,0,L|298:144,1,80,6|0,0:3|0:3,0:3:0:0:
192,304,256054,2,0,L|181:383,1,80,8|0,0:3|0:3,0:3:0:0:
422,299,256296,2,0,B|370:288|370:288|325:316|325:316|273:305,1,160,2|8,0:3|0:3,0:3:0:0:
138,161,256659,6,0,P|183:102|270:106,1,160,6|2,0:3|0:3,0:3:0:0:
426,204,257022,1,8,0:3:0:0:
350,142,257143,1,2,0:3:0:0:
390,52,257264,2,0,L|472:65,1,80,2|0,0:3|0:3,0:3:0:0:
268,189,257506,2,0,P|253:152|259:112,1,80,8|0,0:3|0:3,0:3:0:0:
375,344,257748,5,2,0:0:0:0:
197,280,257990,1,2,0:0:0:0:
378,227,258232,1,2,0:0:0:0:
263,377,258474,1,2,0:0:0:0:
263,377,258595,1,2,0:0:0:0:
268,189,258837,1,2,0:0:0:0:
268,189,258958,1,2,0:0:0:0:
375,344,259200,1,2,0:0:0:0:
197,280,259442,1,2,0:0:0:0:
256,192,259502,12,2,263917,0:1:0:0:
