osu file format v14

[General]
AudioFilename: Sound Horizon - .mp3
AudioLeadIn: 0
PreviewTime: 72215
Countdown: 0
SampleSet: Normal
StackLeniency: 0.7
Mode: 2
LetterboxInBreaks: 0
WidescreenStoryboard: 0

[Editor]
DistanceSpacing: 0.8
BeatDivisor: 4
GridSize: 8
TimelineZoom: 1

[Metadata]
Title:Raijin No Hidariude
TitleUnicode:Raijin No Hidariude
Artist:Sound Horizon
ArtistUnicode:Sound Horizon
Creator:Kyuare
Version:Insane
Source:
Tags:
BeatmapID:1562566
BeatmapSetID:740680

[Difficulty]
HPDrainRate:7
CircleSize:4
OverallDifficulty:9
ApproachRate:9
SliderMultiplier:2
SliderTickRate:1

[Events]
//Background and Video events
0,0,"Wallpaper-.jpg",0,0
//Break Periods
//Storyboard Layer 0 (Background)
//Storyboard Layer 1 (Fail)
//Storyboard Layer 2 (Pass)
//Storyboard Layer 3 (Foreground)
//Storyboard Sound Samples

[TimingPoints]
6024,348.837209302326,4,2,1,30,1,0
10820,-100,4,1,0,20,0,0
11518,-100,4,1,0,25,0,0
11605,-100,4,1,0,25,0,1
11649,-100,4,1,0,25,0,0
12913,-100,4,1,0,30,0,0
14308,-100,4,1,0,35,0,0
15704,-100,4,1,0,40,0,0
17099,-100,4,1,0,50,0,0
21460,-83.3333333333333,4,1,1,30,0,0
21721,-100,4,1,1,26,0,0
21983,-76.9230769230769,4,1,1,30,0,0
22244,-66.6666666666667,4,1,1,35,0,0
22680,-100,4,1,0,40,0,0
22768,-100,4,1,0,40,0,1
22811,-100,4,1,0,40,0,0
22855,-100,4,1,1,40,0,0
28262,-100,4,1,0,40,0,0
28436,-100,4,1,1,40,0,0
33146,-100,4,1,1,30,0,0
33233,-66.6666666666667,4,1,1,30,0,0
33407,-100,4,1,1,33,0,0
33582,-66.6666666666667,4,1,1,35,0,0
33756,-100,4,1,1,40,0,0
33887,-100,4,1,0,40,0,0
33930,-100,4,1,0,40,0,1
33974,-100,4,1,0,40,0,0
34018,-100,4,1,1,40,0,0
39425,-100,4,1,0,40,0,0
39599,-100,4,1,1,40,0,0
40472,-100,4,1,1,30,0,0
42215,-100,4,1,0,40,0,0
42390,-100,4,1,1,40,0,0
45006,-100,4,1,0,40,0,0
45180,-100,4,2,0,20,0,0
53378,-100,4,1,0,40,0,0
53465,-100,4,1,0,40,0,1
53509,-100,4,1,0,40,0,0
53553,-100,4,1,1,40,0,0
57564,-100,4,1,0,40,0,0
61925,-100,4,1,1,30,0,0
62884,-100,4,1,1,40,0,0
67070,-100,4,1,0,30,0,0
72215,-66.6666666666667,4,1,1,30,0,0
72477,-100,4,1,1,36,0,0
72651,-66.6666666666667,4,1,1,36,0,0
72826,-100,4,1,1,40,0,0
72957,-100,4,1,0,40,0,0
73000,-100,4,1,0,40,0,1
73044,-100,4,1,0,50,0,0
73087,-100,4,1,1,50,0,1
75704,-100,4,1,0,50,0,0
75878,-100,4,1,1,50,0,1
78494,-100,4,1,0,50,0,0
78669,-76.9230769230769,4,1,1,50,0,1
81285,-100,4,1,0,50,0,0
81460,-100,4,1,1,50,0,1
82768,-76.9230769230769,4,1,1,50,0,1
84076,-100,4,1,0,40,0,0
84163,-100,4,1,0,40,0,1
84207,-100,4,1,0,40,0,0
84250,-100,4,1,1,40,0,0
86605,-66.6666666666667,4,1,1,40,0,0
86867,-100,4,1,0,40,0,0
87041,-100,4,1,1,40,0,0
89657,-100,4,1,0,40,0,0
89832,-133.333333333333,4,1,1,40,0,0
92448,-100,4,1,0,40,0,0
92622,-100,4,1,1,40,0,0
95239,-100,4,1,0,50,0,0
95326,-100,4,1,0,50,0,1
95369,-100,4,1,0,50,0,0
95413,-76.9230769230769,4,1,1,50,0,1
100820,-100,4,1,0,50,0,0
100994,-76.9230769230769,4,1,1,50,0,1
105006,-100,4,1,0,50,0,0
105180,-100,4,1,1,50,0,0
105355,-100,4,1,0,50,0,0
105529,-100,4,1,1,50,0,0
105704,-100,4,1,0,50,0,0
105878,-66.6666666666667,4,1,1,50,0,0
106401,-100,4,1,0,50,0,0
106489,-100,4,1,0,50,0,1
106532,-100,4,1,0,50,0,0
106576,-76.9230769230769,4,1,1,50,0,1
112026,-100,4,1,0,60,0,0
112070,-100,4,1,0,60,0,1
112114,-100,4,1,0,60,0,0
112157,-76.9230769230769,4,1,1,60,0,1
116867,-100,4,1,1,50,0,0
117085,-66.6666666666667,4,1,1,45,0,0
117259,-100,4,1,1,40,0,0
117433,-66.6666666666667,4,1,1,35,0,0
117608,-83.3333333333333,4,1,1,30,0,0
118960,-90.9090909090909,4,1,1,26,0,0
120355,-100,4,1,1,20,0,0
121576,-117.647058823529,4,1,1,15,0,0
123146,-133.333333333333,4,2,0,30,0,0

[Colours]
Combo1 : 0,64,64
Combo2 : 206,214,63
Combo3 : 0,0,128
Combo4 : 200,0,200
Combo5 : 128,0,255
Combo6 : 234,174,36

[HitObjects]
376,176,6023,5,2,0:0:0:0:
280,176,6198,1,0,0:0:0:0:
328,112,6372,2,0,L|448:112,1,100,2|0,0:0|0:0,0:0:0:0:
376,40,6721,2,0,L|272:40,1,100,2|0,0:0|0:0,0:0:0:0:
176,40,7070,1,2,0:0:0:0:
176,96,7244,1,0,0:0:0:0:
296,96,7419,5,2,0:0:0:0:
144,184,7593,2,0,L|256:208,1,100,0|2,0:0|0:0,0:0:0:0:
128,264,7942,2,0,L|240:288,1,100,0|2,0:0|0:0,0:0:0:0:
288,288,8291,1,0,0:0:0:0:
392,240,8465,2,0,L|392:120,1,100
192,96,8814,6,0,L|304:96,1,100,2|0,0:0|0:0,0:0:0:0:
192,168,9163,2,0,L|304:192,1,100,2|0,0:0|0:0,0:0:0:0:
160,232,9512,2,0,L|264:288,1,100,2|0,0:0|0:0,0:0:0:0:
352,200,9861,1,2,0:0:0:0:
352,272,10035,1,0,0:0:0:0:
416,80,10210,6,0,L|312:80,1,100
192,80,10558,2,0,L|304:80,1,100
256,168,10907,1,0,0:0:0:0:
408,168,11082,1,0,0:0:0:0:
280,216,11256,1,0,0:0:0:0:
384,120,11430,1,0,0:0:0:0:
208,80,11605,6,0,L|312:80,1,100,4|0,0:0|0:0,0:0:0:0:
136,152,11954,2,0,L|248:152,1,100
208,216,12303,2,0,L|320:216,1,100
464,224,12651,1,0,0:0:0:0:
464,280,12826,1,0,0:0:0:0:
376,144,13000,5,4,0:0:0:0:
312,200,13175,1,0,0:0:0:0:
272,144,13349,2,0,L|160:144,1,100
336,96,13698,1,0,0:0:0:0:
168,40,13872,2,0,L|288:40,1,100
200,96,14221,1,0,0:0:0:0:
288,72,14396,6,0,L|184:72,1,100,4|0,0:0|0:0,0:0:0:0:
288,72,14744,2,0,L|392:72,1,100,0|0,0:0|0:0,0:0:0:0:
248,136,15093,2,0,L|376:136,1,100,0|0,0:0|0:0,0:0:0:0:
280,208,15442,1,0,0:0:0:0:
280,264,15617,1,0,0:0:0:0:
192,32,15791,5,4,0:0:0:0:
312,104,15965,2,0,L|208:104,1,100
280,168,16314,1,0,0:0:0:0:
336,168,16489,2,0,L|448:168,1,100
280,232,16837,1,0,0:0:0:0:
280,288,17012,1,0,0:0:0:0:
120,96,17186,5,0,0:0:0:0:
184,96,17274,1,0,0:0:0:0:
184,160,17361,2,0,L|312:160,1,100
384,232,17710,2,0,L|272:232,1,100,0|0,0:0|0:0,0:0:0:0:
224,232,17971,1,0,0:0:0:0:
224,296,18058,1,0,0:0:0:0:
352,152,18233,1,0,0:0:0:0:
416,152,18320,1,0,0:0:0:0:
416,88,18407,1,0,0:0:0:0:
224,80,18582,5,0,0:0:0:0:
160,80,18669,1,0,0:0:0:0:
160,144,18756,1,0,0:0:0:0:
288,144,18930,2,0,L|400:144,1,100
352,200,19279,1,0,0:0:0:0:
288,200,19367,1,0,0:0:0:0:
288,264,19454,1,0,0:0:0:0:
224,264,19628,1,0,0:0:0:0:
168,264,19715,1,0,0:0:0:0:
168,208,19803,1,0,0:0:0:0:
320,128,19977,5,0,0:0:0:0:
320,72,20064,1,0,0:0:0:0:
264,128,20151,1,0,0:0:0:0:
128,88,20326,2,0,L|232:88,1,100
168,144,20675,1,0,0:0:0:0:
168,208,20762,1,0,0:0:0:0:
232,208,20849,1,0,0:0:0:0:
336,208,21024,1,0,0:0:0:0:
392,208,21111,1,0,0:0:0:0:
392,272,21198,1,0,0:0:0:0:
376,128,21372,5,0,0:0:0:0:
312,128,21460,2,0,L|248:128,1,59.9999981689454
216,200,21634,1,0,0:0:0:0:
312,200,21721,2,0,L|256:200,1,50
216,248,21896,2,0,P|160:248|112:216,1,100
80,168,22157,6,0,L|152:168,3,64.9999970245363
264,168,22506,2,0,L|176:168,2,75.0000028610231,0|0|0,0:0|0:0|0:0,0:0:0:0:
352,224,22768,6,0,L|456:224,1,100
352,56,23117,1,8,0:0:0:0:
384,104,23291,2,0,L|280:104,1,100
216,104,23640,1,0,0:0:0:0:
296,168,23814,1,8,0:0:0:0:
344,168,23901,1,0,0:0:0:0:
416,104,23989,2,0,L|288:104,1,100
256,104,24337,1,0,0:0:0:0:
176,176,24512,2,0,L|72:176,1,100,8|0,0:0|0:0,0:0:0:0:
144,240,24861,5,0,0:0:0:0:
144,304,24948,1,0,0:0:0:0:
200,240,25035,2,0,L|312:240,1,100,0|8,0:0|0:0,0:0:0:0:
400,304,25384,2,0,L|288:304,1,100
352,248,25733,6,0,L|464:248,1,100,0|8,0:0|0:0,0:0:0:0:
448,192,26082,1,0,0:0:0:0:
320,256,26256,1,0,0:0:0:0:
320,192,26343,1,0,0:0:0:0:
392,192,26430,2,0,L|392:80,1,100,0|8,0:0|0:0,0:0:0:0:
344,88,26779,1,0,0:0:0:0:
344,88,26954,2,0,L|240:88,1,100
296,152,27303,2,0,L|184:152,1,100,8|0,0:0|0:0,0:0:0:0:
184,256,27651,5,0,0:0:0:0:
184,320,27739,1,0,0:0:0:0:
248,320,27826,2,0,L|352:320,1,100,0|8,0:0|0:0,0:0:0:0:
184,256,28175,1,2,0:0:0:0:
432,64,28349,5,0,0:0:0:0:
432,128,28436,1,0,0:0:0:0:
352,176,28524,2,0,L|224:176,1,100,0|8,0:0|0:0,0:0:0:0:
168,128,28872,1,0,0:0:0:0:
256,88,29047,2,0,L|376:88,1,100
256,152,29396,2,0,L|136:152,1,100,8|0,0:0|0:0,0:0:0:0:
256,232,29744,5,0,0:0:0:0:
352,280,29919,1,0,0:0:0:0:
424,176,30093,1,8,0:0:0:0:
256,232,30268,2,0,L|376:232,1,100
256,304,30617,2,0,L|144:304,1,100,0|8,0:0|0:0,0:0:0:0:
56,240,30965,6,0,L|176:240,1,100
224,240,31314,1,0,0:0:0:0:
168,176,31489,2,0,L|56:176,1,100,8|0,0:0|0:0,0:0:0:0:
120,120,31837,2,0,L|248:120,1,100
320,64,32186,2,0,L|208:64,1,100,8|0,0:0|0:0,0:0:0:0:
272,120,32535,5,0,0:0:0:0:
368,192,32710,1,0,0:0:0:0:
448,112,32884,1,8,0:0:0:0:
368,192,33058,2,0,L|232:192,1,100
320,240,33320,1,0,0:0:0:0:
264,240,33407,2,0,L|192:240,1,50
304,304,33582,2,0,L|216:304,1,75.0000028610231
176,304,33756,1,0,0:0:0:0:
128,240,33843,2,0,L|200:240,1,50
200,176,34279,1,0,0:0:0:0:
264,112,34628,6,0,L|464:112,1,200,8|0,0:0|0:0,0:0:0:0:
416,168,35151,2,0,L|216:168,1,200
312,224,35587,2,0,L|256:224,1,50,0|0,0:0|0:0,0:0:0:0:
192,224,35762,2,0,L|256:224,1,50
120,168,36024,6,0,L|248:168,1,100
288,104,36285,2,0,L|232:104,1,50
176,104,36460,2,0,L|240:104,1,50
360,160,36721,6,0,L|248:160,1,100,8|0,0:0|0:0,0:0:0:0:
192,224,37070,1,0,0:0:0:0:
264,280,37244,2,0,L|376:280,1,100,0|8,0:0|0:0,0:0:0:0:
440,224,37593,1,0,0:0:0:0:
360,224,37768,1,0,0:0:0:0:
360,224,37942,6,0,P|192:224|96:128,1,300
184,136,38640,2,0,L|288:136,1,100,0|8,0:0|0:0,0:0:0:0:
160,208,38989,1,0,0:0:0:0:
312,208,39163,2,0,L|208:208,1,100
352,280,39512,6,0,L|280:280,1,50,8|0,0:0|0:0,0:0:0:0:
232,280,39686,2,0,L|304:280,1,50
248,336,39861,1,0,0:0:0:0:
248,224,40035,1,0,0:0:0:0:
352,224,40210,1,8,0:0:0:0:
352,88,40558,5,0,0:0:0:0:
240,88,40733,2,0,L|176:88,1,50,0|0,0:0|0:0,0:0:0:0:
136,144,40907,1,8,0:0:0:0:
224,144,41082,2,0,L|336:144|328:144,1,100
272,208,41430,2,0,L|168:208,1,100,0|8,0:0|0:0,0:0:0:0:
240,280,41779,2,0,L|304:280,1,50
368,280,41954,2,0,L|304:280,1,50
272,208,42128,2,0,L|336:208,1,50
408,208,42303,6,0,L|352:208,1,50,8|0,0:0|0:0,0:0:0:0:
358,208,42477,1,0,0:0:0:0:
272,144,42651,2,0,L|160:144,1,100
224,208,43000,1,8,0:0:0:0:
104,256,43175,1,0,0:0:0:0:
104,256,43349,2,0,P|128:152|216:112,1,200,0|8,0:0|0:0,0:0:0:0:
224,192,44047,5,0,0:0:0:0:
320,264,44221,1,0,0:0:0:0:
320,192,44396,2,0,L|216:192,1,100,8|0,0:0|0:0,0:0:0:0:
384,192,44744,1,0,0:0:0:0:
448,128,44832,2,0,L|376:128,1,50
240,96,45093,6,0,L|352:96,1,100,8|0,0:0|0:0,0:0:0:0:
208,160,45442,2,0,L|320:160,1,100,2|0,0:0|0:0,0:0:0:0:
256,224,45791,1,2,0:0:0:0:
368,288,45965,2,0,L|248:288,1,100,0|2,0:0|0:0,0:0:0:0:
400,224,46314,6,0,L|288:224,1,100,0|2,0:0|0:0,0:0:0:0:
440,160,46663,2,0,L|328:160,1,100,0|2,0:0|0:0,0:0:0:0:
288,40,47012,2,0,L|400:40,1,100,0|2,0:0|0:0,0:0:0:0:
232,104,47361,6,0,L|352:104,1,100
264,168,47710,2,0,L|144:168,1,100
304,224,48058,1,0,0:0:0:0:
144,224,48233,1,2,0:0:0:0:
264,288,48407,2,0,L|152:288,1,100,0|2,0:0|0:0,0:0:0:0:
264,320,48756,2,0,L|400:320,1,100,0|2,0:0|0:0,0:0:0:0:
320,272,49105,1,0,0:0:0:0:
400,152,49279,5,2,0:0:0:0:
448,88,49367,2,0,L|96:88,1,350,0|2,0:0|0:0,0:0:0:0:
160,144,50064,1,0,0:0:0:0:
96,200,50151,2,0,L|504:200,1,400,2|2,0:0|0:0,0:0:0:0:
416,256,50936,1,0,0:0:0:0:
336,312,51024,6,0,L|232:312,1,100,2|0,0:0|0:0,0:0:0:0:
144,312,51285,2,0,L|216:312,1,50
304,256,51547,2,0,L|192:256,1,100,0|2,0:0|0:0,0:0:0:0:
352,192,51896,2,0,L|248:192,1,100,0|2,0:0|0:0,0:0:0:0:
128,192,52244,1,0,0:0:0:0:
240,144,52419,6,0,L|136:144,1,100,2|0,0:0|0:0,0:0:0:0:
272,88,52768,2,0,L|152:88,1,100
304,144,53117,1,2,0:0:0:0:
176,192,53291,1,2,0:0:0:0:
464,256,53465,5,0,0:0:0:0:
352,256,53640,1,0,0:0:0:0:
248,200,53814,2,0,L|360:200,1,100
392,144,54163,1,0,0:0:0:0:
256,144,54337,2,0,L|368:144,1,100
304,96,54686,1,0,0:0:0:0:
144,88,54861,5,0,0:0:0:0:
152,200,55035,2,0,L|272:200,1,100
208,264,55384,2,0,L|336:264,1,100,0|0,0:0|0:0,0:0:0:0:
264,200,55733,1,0,0:0:0:0:
264,144,55820,2,0,L|384:144,1,100
368,88,56082,1,0,0:0:0:0:
312,88,56256,6,0,L|200:88,1,100
312,152,56605,2,0,L|424:152,1,100
312,208,56954,2,0,L|208:208,1,100
216,272,57303,2,0,L|112:272,1,100
448,216,57651,5,0,0:0:0:0:
400,216,57739,2,0,L|336:216,1,50
152,144,58000,2,0,L|264:144,1,100
256,96,58262,1,0,0:0:0:0:
360,96,58349,2,0,L|256:96,1,100
416,160,58698,2,0,L|312:160,1,100,4|0,0:0|0:0,0:0:0:0:
144,288,59047,1,0,0:0:0:0:
200,288,59221,2,0,L|312:288,1,100
144,232,59570,1,0,0:0:0:0:
296,168,59744,5,0,0:0:0:0:
296,96,59919,2,0,L|168:96,1,100
296,32,60268,1,0,0:0:0:0:
232,32,60442,1,0,0:0:0:0:
176,32,60617,2,0,L|72:32,1,100,0|4,0:0|0:0,0:0:0:0:
200,96,60965,2,0,L|96:96,1,100
224,152,61314,2,0,L|120:152,1,100
232,256,61663,6,0,L|184:224,3,50,0|0|0|0,0:0|0:0|0:0|0:0,0:0:0:0:
288,256,62012,2,0,L|344:256,1,50
384,256,62186,2,0,L|448:256,1,50
112,136,62361,2,0,L|224:136,1,100
160,72,62710,2,0,L|272:72,1,100,0|8,0:0|0:0,0:0:0:0:
32,192,63058,5,8,0:0:0:0:
112,240,63233,2,0,L|224:240,1,100
264,168,63582,2,0,L|384:168,1,100,0|0,0:0|0:0,0:0:0:0:
216,112,63930,1,0,0:0:0:0:
384,112,64105,1,8,0:0:0:0:
256,64,64279,2,0,L|136:64,1,100
432,112,64628,6,0,L|320:112,1,100,8|8,0:0|0:0,0:0:0:0:
304,176,64977,2,0,L|184:176,1,100
240,240,65326,2,0,L|128:240,1,100
240,296,65675,1,8,0:0:0:0:
32,192,65849,6,0,L|152:192,1,100,8|0,0:0|0:0,0:0:0:0:
112,128,66198,2,0,L|232:128,1,100
168,72,66547,1,0,0:0:0:0:
344,72,66721,1,4,0:0:0:0:
216,136,66896,2,0,L|280:136,1,50
352,136,67070,2,0,L|288:136,1,50
272,184,67244,2,0,L|336:184,1,50
320,248,67419,6,0,L|424:248,1,100
344,304,67768,1,0,0:0:0:0:
208,304,67942,2,0,L|320:304,1,100
176,240,68291,2,0,L|280:240,1,100,0|0,0:0|0:0,0:0:0:0:
224,184,68640,5,0,0:0:0:0:
424,112,68989,1,0,0:0:0:0:
248,112,69337,2,0,L|136:112,1,100
248,176,69686,2,0,L|368:176,1,100,0|4,0:0|0:0,0:0:0:0:
192,240,70035,1,0,0:0:0:0:
288,240,70210,5,0,0:0:0:0:
192,288,70384,1,0,0:0:0:0:
120,144,70558,2,0,L|240:144,1,100
168,88,70907,1,0,0:0:0:0:
272,88,71082,1,0,0:0:0:0:
376,168,71256,6,0,L|264:168,1,100
280,224,71605,1,0,0:0:0:0:
440,288,71779,2,0,L|336:288,1,100
224,288,72128,1,0,0:0:0:0:
112,184,72303,6,0,L|192:184,1,75.0000028610231,0|0,0:0|0:0,0:0:0:0:
280,184,72477,2,0,L|200:184,1,50
144,128,72651,2,0,L|224:128,1,75.0000028610231
320,128,72826,2,0,L|248:128,1,50
192,72,73000,6,0,L|296:72,1,100,8|0,0:0|0:0,0:0:0:0:
368,72,73349,1,0,0:0:0:0:
320,248,73524,2,0,L|208:248,1,100,8|0,0:0|0:0,0:0:0:0:
376,304,73872,2,0,L|272:304,1,100,8|0,0:0|0:0,0:0:0:0:
472,248,74221,1,8,0:0:0:0:
176,192,74396,6,0,L|280:192,1,100,8|0,0:0|0:0,0:0:0:0:
440,128,74744,1,0,0:0:0:0:
352,72,74919,2,0,L|240:72,1,100,8|0,0:0|0:0,0:0:0:0:
104,120,75268,1,8,0:0:0:0:
280,192,75442,1,8,0:0:0:0:
352,72,75617,1,8,0:0:0:0:
160,72,75791,6,0,L|264:72,1,100,2|0,0:0|0:0,0:0:0:0:
120,152,76140,1,0,0:0:0:0:
224,152,76314,1,0,0:0:0:0:
96,224,76489,2,0,L|216:224,1,100,2|0,0:0|0:0,0:0:0:0:
144,288,76837,1,0,0:0:0:0:
232,288,77012,1,0,0:0:0:0:
304,224,77186,6,0,L|184:224,1,100,2|8,0:0|0:0,0:0:0:0:
376,168,77535,2,0,L|256:168,1,100,0|8,0:0|0:0,0:0:0:0:
184,112,77884,1,2,0:0:0:0:
272,112,78058,2,0,L|400:112,1,100,8|8,0:0|0:0,0:0:0:0:
472,112,78407,1,0,0:0:0:0:
368,48,78582,6,0,L|248:48,1,100,4|0,0:0|0:0,0:0:0:0:
200,48,78930,1,0,0:0:0:0:
336,160,79105,1,2,0:0:0:0:
392,256,79279,2,0,L|256:256,1,129.999994049073
184,192,79628,1,0,0:0:0:0:
384,112,79803,6,0,L|240:112,1,129.999994049073,0|8,0:0|0:0,0:0:0:0:
104,264,80151,1,0,0:0:0:0:
264,264,80326,2,0,L|128:264,1,129.999994049073,0|8,0:0|0:0,0:0:0:0:
264,136,80675,1,0,0:0:0:0:
440,48,80849,1,8,0:0:0:0:
312,144,81024,1,0,0:0:0:0:
184,192,81198,6,0,L|320:192,1,129.999994049073,8|8,0:0|0:0,0:0:0:0:
480,192,81547,1,0,0:0:0:0:
312,272,81721,2,0,L|200:272,1,100
304,328,82070,2,0,L|184:328,1,100,8|0,0:0|0:0,0:0:0:0:
96,264,82419,1,0,0:0:0:0:
96,208,82593,1,0,0:0:0:0:
336,120,82768,6,0,L|312:248,1,129.999994049073,8|0,0:0|0:0,0:0:0:0:
96,120,83117,1,0,0:0:0:0:
96,64,83291,1,0,0:0:0:0:
336,48,83465,2,0,L|304:184,1,129.999994049073,8|0,0:0|0:0,0:0:0:0:
416,176,83814,1,0,0:0:0:0:
176,168,83989,2,0,L|176:104,1,64.9999970245363
272,168,84163,6,0,L|208:168,1,50,8|0,0:0|0:0,0:0:0:0:
368,264,84861,1,0,0:0:0:0:
216,224,85384,2,0,L|152:224,1,50,8|0,0:0|0:0,0:0:0:0:
64,160,85558,6,0,L|184:160,1,100
136,96,85907,2,0,L|256:96,1,100
360,160,86256,1,8,0:0:0:0:
240,160,86430,1,0,0:0:0:0:
200,264,86605,1,8,0:0:0:0:
224,264,86692,1,0,0:0:0:0:
256,264,86779,1,0,0:0:0:0:
296,264,86867,1,0,0:0:0:0:
336,264,86954,1,0,0:0:0:0:
200,264,87128,6,0,L|88:264,1,100,0|8,0:0|0:0,0:0:0:0:
64,160,87477,1,0,0:0:0:0:
128,88,87651,2,0,L|248:88,1,100,0|8,0:0|0:0,0:0:0:0:
176,152,88000,1,0,0:0:0:0:
280,152,88175,2,0,P|416:152|392:184,1,300,0|8,0:0|0:0,0:0:0:0:
336,224,88872,2,0,L|216:224,1,100,2|0,0:0|0:0,0:0:0:0:
336,296,89221,2,0,L|448:296,1,100,8|0,0:0|0:0,0:0:0:0:
432,160,89570,6,0,L|320:160,1,100
232,192,89832,2,0,L|272:160,2,37.5000014305115,0|0|0,0:0|0:0|0:0,0:0:0:0:
96,96,90442,1,8,0:0:0:0:
248,168,90965,2,0,L|200:168,1,37.5000014305115
160,248,91140,6,0,L|240:248,1,75.0000028610231
352,144,91489,1,0,0:0:0:0:
200,88,91663,2,0,L|296:88,1,75.0000028610231
160,152,91925,2,0,L|224:152,1,37.5000014305115
272,152,92099,2,0,L|216:152,1,37.5000014305115
192,208,92274,2,0,L|248:208,1,37.5000014305115
304,208,92448,6,0,L|240:208,1,50
224,280,92710,2,0,L|336:280,1,100
400,208,93058,1,0,0:0:0:0:
272,152,93233,1,0,0:0:0:0:
216,72,93407,1,0,0:0:0:0:
376,72,93582,2,0,L|240:72,1,100
128,72,93930,5,0,0:0:0:0:
216,152,94105,2,0,L|328:152,1,100
272,200,94454,1,0,0:0:0:0:
184,200,94628,2,0,L|72:200,1,100
184,264,94977,2,0,L|288:264,1,100
480,88,95326,6,0,L|424:88,1,50,8|0,0:0|0:0,0:0:0:0:
368,88,95500,2,0,L|224:88,1,129.999994049073,0|0,0:0|0:0,0:0:0:0:
456,168,95849,1,8,0:0:0:0:
240,168,96024,2,0,L|384:168,1,129.999994049073,0|8,0:0|0:0,0:0:0:0:
160,144,96372,1,8,0:0:0:0:
336,144,96547,6,0,L|200:144,1,129.999994049073,0|8,0:0|0:0,0:0:0:0:
128,88,96896,1,0,0:0:0:0:
304,88,97070,2,0,L|168:88,1,129.999994049073,0|8,0:0|0:0,0:0:0:0:
256,144,97419,1,0,0:0:0:0:
88,208,97593,2,0,L|240:208,1,129.999994049073,8|0,0:0|0:0,0:0:0:0:
152,256,97942,1,8,0:0:0:0:
288,304,98117,6,0,B|240:248|240:248|248:192,1,129.999994049073,0|0,0:0|0:0,0:0:0:0:
384,264,98465,2,0,B|296:248|296:248|288:296,1,129.999994049073
160,176,98814,1,0,0:0:0:0:
424,160,98989,2,0,L|288:160,1,129.999994049073
248,88,99337,1,0,0:0:0:0:
424,128,99512,6,0,L|208:128,1,194.999991073609
64,192,99861,2,0,L|200:192,1,129.999994049073
218,192,100210,1,0,0:0:0:0:
160,256,100384,2,0,L|304:256,1,129.999994049073
208,192,100733,6,0,L|360:192,1,129.999994049073,0|8,0:0|0:0,0:0:0:0:
136,104,101082,1,0,0:0:0:0:
280,168,101256,1,0,0:0:0:0:
352,96,101430,2,0,L|216:96,1,129.999994049073,8|0,0:0|0:0,0:0:0:0:
400,208,101779,5,8,0:0:0:0:
280,288,101954,1,8,0:0:0:0:
200,208,102128,2,0,L|336:208,1,129.999994049073,8|8,0:0|0:0,0:0:0:0:
200,144,102477,1,0,0:0:0:0:
120,144,102651,1,0,0:0:0:0:
256,72,102826,2,0,L|400:72,1,129.999994049073,8|0,0:0|0:0,0:0:0:0:
280,224,103175,5,8,0:0:0:0:
384,144,103349,1,8,0:0:0:0:
200,144,103524,2,0,L|336:144,1,129.999994049073,8|2,0:0|0:0,0:0:0:0:
200,216,103872,1,0,0:0:0:0:
288,216,104047,1,0,0:0:0:0:
200,288,104221,2,0,L|336:288,1,129.999994049073
200,344,104570,2,0,L|56:344,1,129.999994049073,0|0,0:0|0:0,0:0:0:0:
296,288,104919,6,0,L|440:288,2,129.999994049073,0|4|0,0:0|0:0|0:0,0:0:0:0:
136,224,105442,2,0,L|8:224,2,100,0|4|0,0:0|0:0|0:0,0:0:0:0:
208,152,105965,1,0,0:0:0:0:
264,152,106053,2,0,L|352:152,1,75.0000028610231
440,208,106227,2,0,L|352:208,1,75.0000028610231
304,208,106401,1,0,0:0:0:0:
400,64,106489,6,0,L|272:64,1,100
480,112,106837,1,0,0:0:0:0:
296,144,107012,2,0,L|440:144,1,129.999994049073
256,112,107361,1,0,0:0:0:0:
112,168,107535,1,0,0:0:0:0:
296,256,107710,6,0,L|152:256,1,129.999994049073
344,296,108058,1,0,0:0:0:0:
160,328,108233,2,0,L|296:328,1,129.999994049073
296,192,108582,1,0,0:0:0:0:
120,192,108756,2,0,L|256:192,1,129.999994049073
408,136,109105,1,0,0:0:0:0:
256,312,109279,6,0,P|192:272|152:232,1,129.999994049073
336,144,109628,1,0,0:0:0:0:
224,144,109803,1,0,0:0:0:0:
344,232,109977,2,0,L|208:232,1,129.999994049073
392,288,110326,1,0,0:0:0:0:
248,288,110500,1,0,0:0:0:0:
88,216,110675,6,0,P|296:216|304:224,1,194.999991073609
144,256,111024,2,0,L|288:256,1,129.999994049073
400,152,111372,1,0,0:0:0:0:
288,208,111547,1,0,0:0:0:0:
200,112,111721,1,0,0:0:0:0:
400,152,111896,1,0,0:0:0:0:
336,104,111983,5,0,0:0:0:0:
232,104,112070,2,0,L|288:104,1,50
344,168,112244,2,0,L|208:168,1,129.999994049073
280,216,112593,1,0,0:0:0:0:
168,216,112768,1,0,0:0:0:0:
280,272,112942,2,0,L|416:272,1,129.999994049073
208,272,113291,1,0,0:0:0:0:
352,216,113465,5,0,0:0:0:0:
464,128,113640,2,0,L|312:128,1,129.999994049073
432,64,113989,1,0,0:0:0:0:
288,64,114163,1,0,0:0:0:0:
112,128,114337,1,0,0:0:0:0:
288,168,114512,1,0,0:0:0:0:
128,224,114686,6,0,L|272:224|264:224,1,129.999994049073
200,280,115035,1,0,0:0:0:0:
328,240,115210,1,0,0:0:0:0:
200,168,115384,2,0,L|352:168,1,129.999994049073
472,96,115733,2,0,L|328:96,1,129.999994049073
408,160,116082,1,0,0:0:0:0:
256,160,116256,5,0,0:0:0:0:
376,96,116430,1,0,0:0:0:0:
216,96,116605,1,0,0:0:0:0:
448,224,116779,2,0,L|296:224,1,129.999994049073,0|0,0:0|0:0,0:0:0:0:
240,224,117041,5,0,0:0:0:0:
152,168,117128,2,0,L|248:168,1,75.0000028610231
312,168,117303,2,0,L|248:168,1,50
208,120,117477,1,0,0:0:0:0:
272,120,117564,2,0,L|352:120,1,75.0000028610231
272,280,117826,5,0,0:0:0:0:
144,280,118000,1,0,0:0:0:0:
216,208,118175,1,0,0:0:0:0:
344,208,118349,1,0,0:0:0:0:
272,120,118524,1,0,0:0:0:0:
152,120,118698,2,0,L|288:120,1,119.999996337891
216,176,119047,2,0,L|336:176,1,110.000003356934
448,104,119396,5,0,0:0:0:0:
336,56,119570,1,0,0:0:0:0:
448,200,119744,2,0,L|312:200,1,110.000003356934
448,296,120093,1,0,0:0:0:0:
272,296,120268,2,0,L|384:296,1,110.000003356934
360,224,120617,1,0,0:0:0:0:
216,224,120791,5,0,0:0:0:0:
320,144,120965,2,0,L|200:144|208:144,1,100
384,72,121314,1,0,0:0:0:0:
248,72,121489,1,0,0:0:0:0:
64,144,121663,6,0,L|128:144,1,42.5000008106232
192,144,121837,2,0,L|144:144,1,42.5000008106232
120,208,122012,2,0,L|176:208,1,42.5000008106232
248,208,122186,2,0,L|200:208,1,42.5000008106232
176,272,122361,6,0,L|240:272,1,42.5000008106232
304,272,122535,2,0,L|240:272,1,42.5000008106232
224,328,122710,1,0,0:0:0:0:
160,328,122797,1,0,0:0:0:0:
104,328,122884,1,0,0:0:0:0:
136,272,122971,1,0,0:0:0:0:
200,160,123058,1,0,0:0:0:0:
304,80,123233,1,2,0:0:0:0:
112,80,123582,5,0,0:0:0:0:
320,160,123930,1,0,0:0:0:0:
224,256,124279,2,0,P|104:256|80:232,1,150.000005722046,2|0,0:0|0:0,0:0:0:0:
368,256,124977,1,2,0:0:0:0:
224,168,125326,1,0,0:0:0:0:
416,96,125675,1,2,0:0:0:0:
280,96,126024,5,0,0:0:0:0:
88,248,126372,2,0,L|144:248,1,37.5000014305115
176,248,126547,1,0,0:0:0:0:
288,176,126721,2,0,L|192:176,2,75.0000028610231,0|0|0,0:0|0:0|0:0,0:0:0:0:
440,240,127419,1,2,0:0:0:0:
296,104,127768,5,0,0:0:0:0:
152,184,128117,1,0,0:0:0:0:
360,256,128465,2,0,L|184:256,1,150.000005722046,0|2,0:0|0:0,0:0:0:0:
360,176,129163,1,0,0:0:0:0:
192,112,129512,5,0,0:0:0:0:
304,256,129948,1,0,0:0:0:0:
256,256,130122,1,0,0:0:0:0:
216,256,130210,1,0,0:0:0:0:
144,208,130297,2,0,P|184:152|272:96,1,150.000005722046
329,107,130994,1,0,0:0:0:0:
144,112,131343,1,0,0:0:0:0:
256,184,131692,6,0,L|416:184,1,150.000005722046
256,184,132477,1,0,0:0:0:0:
406,184,132826,1,0,0:0:0:0:
304,88,133175,2,0,L|136:88,1,150.000005722046
376,160,133960,1,0,0:0:0:0:
208,160,134396,1,0,0:0:0:0:
288,272,134832,6,0,L|112:272,1,150.000005722046
336,192,135617,1,0,0:0:0:0:
232,192,136053,1,0,0:0:0:0:
136,88,136489,1,0,0:0:0:0:
96,88,136547,1,0,0:0:0:0:
