osu file format v14

[General]
AudioFilename: audio.mp3
AudioLeadIn: 0
PreviewTime: 423
Countdown: 0
SampleSet: Soft
StackLeniency: 0.2
Mode: 0
LetterboxInBreaks: 0
WidescreenStoryboard: 0

[Editor]
Bookmarks: 163579,210792
DistanceSpacing: 1.1
BeatDivisor: 4
GridSize: 32
TimelineZoom: 2.3

[Metadata]
Title:Koibito o Uchiotoshita Hi
TitleUnicode:恋人を射ち堕とした日
Artist:Sound Horizon
ArtistUnicode:Sound Horizon
Creator:Yugu
Version:Shoot those Lovers!!!
Source:
Tags:Aramari Aramary Lost Revo Elysion-楽園への前奏曲- Rakuen e no Zensoukyoku Necho Reincarnation cqmasai japanese
BeatmapID:1949641
BeatmapSetID:933903

[Difficulty]
HPDrainRate:5
CircleSize:4.3
OverallDifficulty:8
ApproachRate:8
SliderMultiplier:1.8
SliderTickRate:2

[Events]
//Background and Video events
0,0,"72988720_p0.jpg",0,0
//Break Periods
//Storyboard Layer 0 (Background)
//Storyboard Layer 1 (Fail)
//Storyboard Layer 2 (Pass)
//Storyboard Layer 3 (Foreground)
//Storyboard Sound Samples

[TimingPoints]
1516,491.803278688525,4,2,1,60,1,0
18483,-100,4,2,2,60,0,0
19220,-83.3333333333333,4,2,2,75,0,0
34958,-125,4,2,1,40,0,0
65942,-100,4,2,1,60,0,0
66434,-90.9090909090909,4,2,1,60,0,0
67909,-125,4,2,1,60,0,0
68401,-71.4285714285714,4,2,2,80,0,1
84138,-125,4,2,1,60,0,0
145122,526.315789473684,4,2,1,60,1,0
145385,-125,4,2,1,50,0,0
145911,-125,4,2,1,50,0,0
146246,722.86,4,2,1,60,1,0
146426,-125,4,2,1,50,0,0
147380,967.741935483871,4,2,1,60,1,0
147842,491.803278688525,4,2,1,75,1,0
163579,-71.4285714285714,4,2,2,85,0,1
210792,-71.4285714285714,4,2,0,20,0,0
212760,652.173913043478,4,2,1,30,1,0

[Colours]
Combo1 : 176,184,160
Combo2 : 102,23,249
Combo3 : 244,187,108

[HitObjects]
110,100,2991,5,0,0:0:0:0:
110,100,3237,1,0,0:0:0:0:
110,100,3483,6,0,P|141:168|155:242,1,135,2|0,0:0|0:0,0:0:0:0:
153,226,3975,2,0,P|137:268|132:315,1,90,2|2,0:0|0:0,0:0:0:0:
256,368,4466,2,0,L|397:348,2,135,0|0|2,0:0|0:0|0:0,0:0:0:0:
313,277,5450,6,0,L|224:290,1,90,2|2,0:0|0:0,0:0:0:0:
344,190,5942,2,0,P|381:214|403:253,1,90,2|2,0:0|0:0,0:0:0:0:
403,257,6311,1,0,0:0:0:0:
403,261,6434,1,0,0:0:0:0:
313,277,6679,1,2,0:0:0:0:
255,207,6925,2,0,P|257:162|279:124,1,90,2|2,0:0|0:0,0:0:0:0:
357,29,7417,6,0,L|192:51,2,135,2|0|2,0:0|0:0|0:0,0:0:0:0:
423,144,8401,2,0,P|482:186|515:265,2,135,0|0|2,0:0|0:0|0:0,0:0:0:0:
279,124,9384,6,0,L|147:141,1,90,2|2,0:0|0:0,0:0:0:0:
100,76,9876,2,0,L|117:208,1,90,2|2,0:0|0:0,0:0:0:0:
52,255,10368,2,0,L|184:237,1,90,0|2,0:0|0:0,0:0:0:0:
231,303,10860,1,2,0:0:0:0:
231,303,11106,1,2,0:0:0:0:
231,303,11352,6,0,P|246:254|312:192,1,135,2|0,0:0|0:0,0:0:0:0:
304,195,11843,2,0,P|346:233|359:272,1,90,2|2,0:0|0:0,0:0:0:0:
435,354,12335,2,0,P|447:286|490:211,1,135
512,218,12827,1,2,0:0:0:0:
512,218,13073,1,2,0:0:0:0:
435,94,13319,6,0,P|394:115|345:118,1,90,2|2,0:0|0:0,0:0:0:0:
240,135,13811,2,0,P|278:160|305:200,1,90,2|2,0:0|0:0,0:0:0:0:
303,200,14179,1,0,0:0:0:0:
303,204,14302,1,0,0:0:0:0:
215,226,14548,1,2,0:0:0:0:
155,158,14794,2,0,L|146:62,1,90,2|2,0:0|0:0,0:0:0:0:
67,144,15286,6,0,L|54:9,2,135,2|0|2,0:0|0:0|0:0,0:0:0:0:
112,253,16270,2,0,P|50:279|-1:336,2,135,0|0|2,0:0|0:0|0:0,0:0:0:0:
237,293,17253,6,0,P|273:344|281:392,1,90,2|2,0:0|0:0,0:0:0:0:
375,244,17745,2,0,L|355:348,1,90,2|2,0:0|0:0,0:0:0:0:
358,332,18237,1,0,0:0:0:0:
291,214,18483,2,0,L|283:170,2,30,2|2|2,0:0|0:0|0:0,0:0:0:0:
296,237,18729,1,14,0:0:0:0:
337,109,18975,1,2,0:0:0:0:
198,179,19220,6,0,L|220:300,1,107.999996704102,6|2,0:0|0:0,0:0:0:0:
296,237,19712,1,8,0:0:0:0:
127,273,19958,1,0,0:0:0:0:
294,331,20204,1,2,0:3:0:0:
294,331,20327,1,2,0:3:0:0:
294,331,20450,2,0,L|282:394,1,53.9999983520508,2|0,0:0|0:0,0:0:0:0:
162,345,20696,2,0,P|104:320|59:317,1,107.999996704102,8|0,0:0|0:0,0:0:0:0:
22,169,21188,5,2,0:0:0:0:
212,220,21434,2,0,L|222:267,2,35.9999989013672,2|0|0,0:0|0:0|0:0,0:0:0:0:
191,197,21679,1,8,0:0:0:0:
191,197,21802,2,0,L|205:131,1,53.9999983520508
100,103,22048,1,2,0:3:0:0:
100,103,22171,2,0,L|114:168,2,53.9999983520508,2|2|2,0:3|0:3|0:0,0:0:0:0:
284,170,22663,1,8,0:0:0:0:
452,82,22909,1,0,0:0:0:0:
366,222,23155,6,0,P|359:292|374:340,1,107.999996704102,2|2,0:0|0:0,0:0:0:0:
281,380,23647,1,8,0:0:0:0:
455,274,23893,1,0,0:0:0:0:
362,141,24138,1,2,0:3:0:0:
362,141,24261,1,2,0:3:0:0:
362,141,24384,2,0,L|283:126,1,53.9999983520508,2|0,0:0|0:0,0:0:0:0:
227,73,24630,2,0,P|278:59|322:27,1,107.999996704102,8|0,0:0|0:0,0:0:0:0:
142,11,25122,5,2,0:0:0:0:
225,165,25368,1,2,0:0:0:0:
55,133,25614,1,8,0:0:0:0:
227,73,25860,1,0,0:0:0:0:
154,229,26106,1,2,0:3:0:0:
154,229,26229,1,2,0:3:0:0:
154,229,26352,2,0,L|159:298,1,53.9999983520508,2|0,0:0|0:0,0:0:0:0:
70,353,26597,2,0,L|73:299,1,53.9999983520508,8|0,0:0|0:0,0:0:0:0:
241,299,26843,2,0,L|246:368,1,53.9999983520508
372,368,27089,6,0,P|429:354|480:306,1,107.999996704102,6|2,0:0|0:0,0:0:0:0:
375,246,27581,1,8,0:0:0:0:
241,299,27827,1,0,0:0:0:0:
316,129,28073,1,2,0:3:0:0:
316,129,28196,1,2,0:3:0:0:
316,129,28319,2,0,P|338:151|356:181,1,53.9999983520508,2|0,0:0|0:0,0:0:0:0:
264,211,28565,2,0,L|143:192,1,107.999996704102,8|0,0:0|0:0,0:0:0:0:
76,30,29056,5,2,0:0:0:0:
71,171,29302,2,0,L|22:177,2,35.9999989013672,2|0|0,0:0|0:0|0:0,0:0:0:0:
103,200,29548,1,8,0:0:0:0:
103,200,29671,2,0,L|174:191,1,53.9999983520508
53,293,29917,1,2,0:3:0:0:
53,293,30040,2,0,L|-18:284,2,53.9999983520508,2|2|2,0:3|0:3|0:0,0:0:0:0:
176,384,30532,1,8,0:0:0:0:
238,185,30778,1,0,0:0:0:0:
325,317,31024,6,0,P|388:322|452:351,1,107.999996704102,2|2,0:0|0:0,0:0:0:0:
474,253,31516,1,8,0:0:0:0:
310,309,31761,1,0,0:0:0:0:
375,174,32007,1,2,0:3:0:0:
375,174,32130,1,2,0:3:0:0:
375,174,32253,2,0,L|388:100,1,53.9999983520508,2|0,0:0|0:0,0:0:0:0:
274,96,32499,2,0,L|296:224,1,107.999996704102,8|0,0:0|0:0,0:0:0:0:
102,274,32991,6,0,L|18:259,1,53.9999983520508,2|2,0:0|0:3,0:0:0:0:
159,346,33237,1,2,0:0:0:0:
195,186,33483,1,8,0:0:0:0:
276,321,33729,1,0,0:0:0:0:
102,274,33975,1,2,0:3:0:0:
102,274,34097,1,2,0:3:0:0:
102,274,34220,2,0,L|18:259,1,53.9999983520508,2|0,0:0|0:0,0:0:0:0:
73,92,34466,2,0,P|131:110|199:203,1,161.999995056153,12|0,0:0|0:0,0:0:0:0:
195,214,34958,5,2,0:0:0:0:
276,235,35204,1,0,0:0:0:0:
217,294,35450,1,0,0:0:0:0:
217,294,35696,6,0,L|242:368,1,72,2|0,0:0|0:0,0:0:0:0:
233,304,36065,2,0,L|258:378,1,72,2|0,0:0|0:0,0:0:0:0:
249,314,36434,2,0,L|274:388,1,72,2|0,0:0|0:0,0:0:0:0:
443,327,36925,5,0,0:0:0:0:
362,306,37171,1,0,0:0:0:0:
421,247,37417,1,0,0:0:0:0:
421,247,37663,6,0,L|396:173,1,72,2|0,0:0|0:0,0:0:0:0:
405,237,38032,2,0,L|380:163,1,72,2|0,0:0|0:0,0:0:0:0:
389,227,38401,2,0,L|364:153,1,72,2|0,0:0|0:0,0:0:0:0:
429,56,38893,5,0,0:0:0:0:
343,44,39138,1,0,0:0:0:0:
257,31,39384,1,0,0:0:0:0:
257,31,39630,6,0,B|245:66|264:108|264:108|283:147|267:201,1,144,2|2,0:0|0:0,0:0:0:0:
209,228,40368,2,0,L|162:213,2,36,2|2|2,0:0|0:0|0:0,0:0:0:0:
176,308,40860,5,0,0:0:0:0:
262,296,41105,1,0,0:0:0:0:
348,283,41351,1,0,0:0:0:0:
348,283,41597,1,2,0:0:0:0:
361,294,42089,5,0,0:0:0:0:
275,307,42335,1,0,0:0:0:0:
189,319,42580,1,0,0:0:0:0:
4,284,42827,5,0,0:0:0:0:
90,296,43072,1,0,0:0:0:0:
58,216,43319,1,0,0:0:0:0:
58,216,43565,6,0,P|58:166|84:121,1,72,2|0,0:0|0:0,0:0:0:0:
65,146,43934,2,0,P|65:196|39:241,1,72,2|0,0:0|0:0,0:0:0:0:
58,216,44302,2,0,P|58:166|84:121,1,72,2|0,0:0|0:0,0:0:0:0:
143,48,44794,5,0,0:0:0:0:
229,36,45039,1,0,0:0:0:0:
197,116,45286,1,0,0:0:0:0:
197,116,45532,6,0,P|197:166|223:211,1,72,2|0,0:0|0:0,0:0:0:0:
204,186,45901,2,0,P|204:136|178:91,1,72,2|0,0:0|0:0,0:0:0:0:
197,116,46270,2,0,P|197:166|223:211,1,72,2|0,0:0|0:0,0:0:0:0:
282,267,46761,5,0,0:0:0:0:
368,273,47007,1,0,0:0:0:0:
454,279,47253,1,0,0:0:0:0:
454,279,47499,1,2,0:0:0:0:
460,295,47991,5,0,0:0:0:0:
374,289,48237,1,0,0:0:0:0:
288,283,48483,1,0,0:0:0:0:
344,140,48729,5,0,0:0:0:0:
427,162,48975,1,0,0:0:0:0:
409,70,49220,5,2,0:0:0:0:
492,48,49466,1,2,0:0:0:0:
492,48,49712,5,0,0:0:0:0:
409,70,49958,1,0,0:0:0:0:
267,114,50204,5,2,0:0:0:0:
184,92,50450,1,2,0:0:0:0:
78,36,50696,6,0,L|95:136,1,72,2|2,0:0|0:3,0:0:0:0:
85,135,51065,1,2,0:3:0:0:
85,135,51188,1,2,0:3:0:0:
22,194,51434,1,2,0:3:0:0:
22,194,51556,1,2,0:3:0:0:
22,194,51679,6,0,L|39:294,1,72,2|2,0:3|0:3,0:0:0:0:
53,286,52048,1,2,0:3:0:0:
53,286,52171,1,2,0:3:0:0:
136,308,52417,1,2,0:3:0:0:
136,308,52540,1,2,0:3:0:0:
136,308,52663,6,0,L|225:293,1,72,2|2,0:3|0:3,0:0:0:0:
235,291,53032,1,2,0:3:0:0:
235,291,53155,1,2,0:3:0:0:
315,322,53401,2,0,L|327:376,1,36,2|2,0:3|0:3,0:0:0:0:
355,373,53647,6,0,L|338:298,1,72,2|2,0:3|0:3,0:0:0:0:
352,277,54016,1,2,0:3:0:0:
365,251,54138,2,0,L|348:176,1,72,2|2,0:3|0:3,0:0:0:0:
362,154,54507,1,2,0:3:0:0:
375,128,54630,6,0,L|445:112,1,72,2|2,0:3|0:3,0:0:0:0:
461,88,54999,1,2,0:3:0:0:
461,88,55122,1,2,0:3:0:0:
402,24,55368,1,2,0:3:0:0:
402,24,55491,1,2,0:3:0:0:
402,24,55614,6,0,L|331:8,1,72,2|2,0:3|0:3,0:0:0:0:
304,17,55983,1,2,0:3:0:0:
304,17,56106,1,2,0:3:0:0:
220,39,56352,1,2,0:3:0:0:
220,39,56475,1,2,0:3:0:0:
220,39,56597,6,0,P|219:83|230:124,1,72,2|2,0:3|0:3,0:0:0:0:
244,131,56966,1,2,0:3:0:0:
244,131,57089,1,2,0:3:0:0:
287,205,57335,1,2,0:3:0:0:
287,205,57458,1,2,0:3:0:0:
287,205,57581,6,0,P|288:249|277:290,1,72,2|2,0:3|0:3,0:0:0:0:
263,297,57949,1,2,0:3:0:0:
263,297,58072,1,2,0:3:0:0:
184,333,58319,2,0,P|180:357|180:378,1,36,2|2,0:3|0:3,0:0:0:0:
177,325,58565,6,0,L|83:309,1,72,2|2,0:3|0:3,0:0:0:0:
78,321,58934,1,2,0:3:0:0:
78,321,59056,1,2,0:3:0:0:
50,239,59302,1,2,0:3:0:0:
50,239,59425,1,2,0:3:0:0:
50,239,59548,6,0,L|62:168,1,72,2|2,0:3|0:3,0:0:0:0:
68,139,59917,1,2,0:3:0:0:
68,139,60040,1,2,0:3:0:0:
45,54,60286,1,2,0:3:0:0:
45,54,60409,1,2,0:3:0:0:
45,54,60532,6,0,P|95:56|135:84,1,72,2|2,0:3|0:3,0:0:0:0:
135,85,60901,1,2,0:3:0:0:
135,85,61024,1,2,0:3:0:0:
189,151,61270,2,0,L|185:207,1,36,2|2,0:3|0:3,0:0:0:0:
217,206,61516,6,0,L|222:134,1,72,2|2,0:3|0:3,0:0:0:0:
253,116,61884,1,2,0:3:0:0:
284,99,62007,2,0,L|289:27,1,72,2|2,0:3|0:3,0:0:0:0:
320,44,62376,1,2,0:3:0:0:
351,61,62499,6,0,L|422:66,1,72,2|2,0:3|0:3,0:0:0:0:
451,68,62868,1,2,0:3:0:0:
451,68,62991,1,2,0:3:0:0:
460,153,63237,1,2,0:3:0:0:
460,153,63360,1,2,0:3:0:0:
460,153,63483,6,0,L|388:147,1,72,2|2,0:3|0:3,0:0:0:0:
360,146,63852,1,2,0:3:0:0:
360,146,63975,1,2,0:3:0:0:
369,231,64220,1,2,0:3:0:0:
369,231,64343,1,2,0:3:0:0:
369,231,64466,6,0,L|440:236,1,72,2|2,0:3|0:3,0:0:0:0:
469,238,64835,1,2,0:3:0:0:
469,238,64958,1,2,0:3:0:0:
478,323,65204,6,0,L|420:318,1,36,2|2,0:3|0:3,0:0:0:0:
408,333,65450,2,0,P|359:345|325:368,1,72,2|2,0:3|0:3,0:0:0:0:
255,338,65819,1,2,0:3:0:0:
255,338,65942,6,0,L|244:231,1,90,6|10,0:0|0:1,0:0:0:0:
161,179,66311,1,10,0:1:0:0:
161,179,66434,6,0,L|46:168,1,99.0000030212403,2|2,0:3|0:3,0:0:0:0:
204,99,66802,1,2,0:3:0:0:
204,99,66925,2,0,L|319:88,1,99.0000030212403,8|2,0:0|0:3,0:0:0:0:
126,49,67294,1,2,0:3:0:0:
126,49,67417,2,0,L|122:0,1,49.5000015106202,2|2,0:3|0:3,0:0:0:0:
204,99,67663,2,0,L|199:148,1,49.5000015106202,2|2,0:3|0:3,0:0:0:0:
114,261,67909,6,0,L|124:369,1,108,14|0,0:0|0:0,0:0:0:0:
196,290,68401,6,0,P|195:228|150:180,1,125.999996154785,6|2,0:0|0:0,0:0:0:0:
41,334,68893,1,8,0:0:0:0:
196,290,69138,2,0,P|240:298|285:323,1,62.9999980773926,2|2,0:3|0:3,0:0:0:0:
295,383,69384,2,0,P|329:352|351:311,1,62.9999980773926,2|2,0:3|0:3,0:0:0:0:
307,226,69630,1,2,0:0:0:0:
442,376,69876,2,0,P|433:298|397:237,1,125.999996154785,8|0,0:0|0:0,0:0:0:0:
503,161,70368,6,0,L|369:173,1,125.999996154785,2|2,0:0|0:0,0:0:0:0:
196,81,70860,1,8,0:0:0:0:
357,19,71106,2,0,P|371:53|372:95,1,62.9999980773926,2|2,0:3|0:3,0:0:0:0:
275,130,71352,2,0,P|278:98|291:70,1,62.9999980773926,2|2,0:3|0:3,0:0:0:0:
377,172,71597,1,2,0:0:0:0:
204,202,71843,2,0,B|143:194|143:194|128:196|128:196|52:185,1,125.999996154785,8|0,0:0|0:0,0:0:0:0:
185,295,72335,6,0,B|246:287|246:287|261:289|261:289|337:278,1,125.999996154785,2|2,0:0|0:0,0:0:0:0:
265,374,72827,1,8,0:0:0:0:
100,283,73073,2,0,P|100:314|119:352,1,62.9999980773926,2|2,0:3|0:3,0:0:0:0:
247,286,73319,2,0,L|185:295,1,62.9999980773926,2|2,0:3|0:3,0:0:0:0:
25,237,73565,1,2,0:0:0:0:
136,101,73811,2,0,P|157:172|139:274,1,125.999996154785,8|0,0:0|0:0,0:0:0:0:
25,237,74302,5,2,0:0:0:0:
195,170,74548,1,2,0:0:0:0:
52,57,74794,1,8,0:0:0:0:
77,172,75040,2,0,P|96:198|109:245,1,62.9999980773926,2|2,0:3|0:3,0:0:0:0:
212,251,75286,2,0,P|198:280|164:315,1,62.9999980773926,2|2,0:3|0:3,0:0:0:0:
21,333,75532,1,2,0:0:0:0:
232,373,75778,2,0,P|277:315|302:243,1,125.999996154785,8|0,0:0|0:0,0:0:0:0:
338,128,76270,6,0,P|365:195|415:253,1,125.999996154785,2|2,0:0|0:0,0:0:0:0:
512,209,76761,1,8,0:0:0:0:
374,319,77007,2,0,L|386:391,1,62.9999980773926,2|2,0:3|0:3,0:0:0:0:
462,343,77253,2,0,L|474:271,1,62.9999980773926,2|2,0:3|0:3,0:0:0:0:
446,156,77499,1,2,0:0:0:0:
286,295,77745,2,0,L|265:170,1,125.999996154785,8|0,0:0|0:0,0:0:0:0:
120,295,78237,6,0,P|199:336|224:370,1,125.999996154785,2|2,0:0|0:0,0:0:0:0:
35,336,78729,1,8,0:0:0:0:
22,180,78975,2,0,P|35:209|40:240,1,62.9999980773926,2|2,0:3|0:3,0:0:0:0:
120,295,79220,2,0,P|125:264|138:236,1,62.9999980773926,2|2,0:3|0:3,0:0:0:0:
89,109,79466,1,2,0:0:0:0:
251,213,79712,2,0,L|111:201,1,125.999996154785,8|0,0:0|0:0,0:0:0:0:
7,19,80204,6,0,L|147:7,1,125.999996154785,2|2,0:0|0:0,0:0:0:0:
199,68,80573,1,0,0:0:0:0:
199,68,80696,2,0,L|339:56,1,125.999996154785,8|2,0:0|0:3,0:0:0:0:
404,95,81065,1,2,0:3:0:0:
404,95,81188,2,0,L|416:20,1,62.9999980773926,2|2,0:3|0:3,0:0:0:0:
490,99,81434,2,0,L|499:161,1,62.9999980773926,2|0,0:0|0:0,0:0:0:0:
454,235,81679,1,8,0:0:0:0:
304,151,81925,1,0,0:0:0:0:
376,309,82171,6,0,P|385:349|382:382,1,62.9999980773926,2|2,0:0|0:3,0:0:0:0:
285,323,82417,2,0,P|272:362|253:389,1,62.9999980773926,2|2,0:0|0:3,0:0:0:0:
199,289,82663,2,0,P|168:316|138:330,1,62.9999980773926,8|0,0:0|0:0,0:0:0:0:
107,218,82909,5,2,0:3:0:0:
98,208,83032,1,2,0:3:0:0:
83,195,83155,1,2,0:3:0:0:
59,184,83278,1,2,0:3:0:0:
28,176,83401,6,0,L|91:150,1,62.9999980773926,2|0,0:0|0:0,0:0:0:0:
174,175,83647,2,0,L|182:107,1,62.9999980773926,12|0,0:0|0:0,0:0:0:0:
246,48,83893,2,0,L|191:6,1,62.9999980773926
3,31,84138,6,0,P|-3:88|9:130,1,72,2|0,0:0|0:0,0:0:0:0:
28,176,84630,2,0,P|34:233|22:275,1,72,8|0,0:0|0:0,0:0:0:0:
89,301,85122,1,2,0:0:0:0:
89,301,85368,2,0,P|122:289|158:285,2,72,0|8|0,0:0|0:0|0:0,0:0:0:0:
215,348,86106,6,0,L|299:335,1,72,2|0,0:0|0:0,0:0:0:0:
305,260,86597,2,0,L|221:247,1,72,8|0,0:0|0:0,0:0:0:0:
215,172,87089,1,2,0:0:0:0:
215,172,87335,2,0,L|299:159,2,72,0|8|0,0:0|0:0|0:0,0:0:0:0:
291,78,88073,6,0,P|333:94|361:121,1,72,2|0,0:0|0:0,0:0:0:0:
444,133,88565,2,0,P|415:167|404:205,1,72,8|0,0:0|0:0,0:0:0:0:
359,256,89056,1,2,0:0:0:0:
359,256,89302,2,0,L|372:350,2,72,0|8|0,0:0|0:0|0:0,0:0:0:0:
252,331,90040,6,0,P|211:344|161:346,1,72,2|0,0:0|0:0,0:0:0:0:
125,290,90532,2,0,P|134:247|157:203,1,72,8|0,0:0|0:0,0:0:0:0:
224,200,91024,1,2,0:0:0:0:
224,200,91270,2,0,P|255:229|282:271,2,72,0|8|0,0:0|0:0|0:0,0:0:0:0:
140,106,92007,6,0,L|45:113,1,72,2|0,0:0|0:0,0:0:0:0:
187,42,92499,2,0,L|258:36,1,72,8|0,0:0|0:0,0:0:0:0:
140,106,92991,1,2,0:0:0:0:
140,106,93237,2,0,L|45:113,2,72,0|8|0,0:0|0:0|0:0,0:0:0:0:
224,200,93975,6,0,L|318:209,1,72,2|0,0:0|0:0,0:0:0:0:
166,254,94467,2,0,L|94:246,1,72,8|0,0:0|0:0,0:0:0:0:
224,200,94959,1,2,0:0:0:0:
224,200,95204,2,0,L|318:209,2,72,0|8|0,0:0|0:0|0:0,0:0:0:0:
254,307,95942,6,0,P|260:356|285:393,1,72,2|0,0:0|0:0,0:0:0:0:
330,289,96434,2,0,P|345:322|347:358,1,72,8|0,0:0|0:0,0:0:0:0:
254,307,96925,1,2,0:0:0:0:
254,307,97171,2,0,P|260:356|285:393,2,72,0|8|0,0:0|0:0|0:0,0:0:0:0:
153,255,97909,6,0,P|147:304|122:341,1,72,2|0,0:0|0:0,0:0:0:0:
76,237,98401,2,0,P|61:269|59:305,1,72,8|0,0:0|0:0,0:0:0:0:
153,255,98892,1,2,0:0:0:0:
153,255,99138,2,0,P|147:304|122:341,2,72,0|8|0,0:0|0:0|0:0,0:0:0:0:
50,148,99876,6,0,B|119:107|96:23|96:23|133:102|212:88,1,288,2|2,0:0|0:0,0:0:0:0:
283,56,101106,1,0,0:0:0:0:
210,89,101352,1,8,0:0:0:0:
283,56,101597,1,0,0:0:0:0:
316,160,101843,6,0,B|409:160|426:250|426:250|441:333|529:337,1,288,2|2,0:0|0:0,0:0:0:0:
510,256,103073,1,0,0:0:0:0:
512,335,103319,1,8,0:0:0:0:
510,256,103565,1,0,0:0:0:0:
371,339,103811,6,0,B|308:357|258:330|258:330|233:339|228:363|228:363|199:365|152:338|152:338|98:349,1,288,2|2,0:0|0:0,0:0:0:0:
32,366,105040,1,0,0:0:0:0:
109,346,105286,1,8,0:0:0:0:
32,366,105532,1,0,0:0:0:0:
1,257,105778,6,0,B|76:226|140:265|140:265|296:249,1,288,2|2,0:0|0:0,0:0:0:0:
302,173,107007,1,0,0:0:0:0:
282,250,107253,1,8,0:0:0:0:
302,173,107499,1,0,0:0:0:0:
197,120,107745,6,0,P|147:157|183:52,1,288,2|2,0:0|0:0,0:0:0:0:
242,55,108975,1,0,0:0:0:0:
314,24,109220,1,8,0:0:0:0:
392,34,109466,1,0,0:0:0:0:
466,105,109712,6,0,B|475:196|475:196|467:218|467:218|474:303|474:303|490:321|490:321|498:401,1,288,2|2,0:0|0:0,0:0:0:0:
419,363,110942,1,0,0:0:0:0:
340,350,111188,1,8,0:0:0:0:
261,337,111434,1,0,0:0:0:0:
174,265,111679,6,0,B|40:297|40:297|86:202|86:202|71:137,1,288,2|2,0:0|0:0,0:0:0:0:
52,82,112909,1,0,0:0:0:0:
128,59,113155,1,8,0:0:0:0:
151,135,113401,1,0,0:0:0:0:
286,218,113647,6,0,B|263:294|263:294|186:268|132:319|132:319|83:261,1,288,2|2,0:0|0:0,0:0:0:0:
13,240,114876,1,0,0:0:0:0:
3,161,115122,1,8,0:0:0:0:
70,118,115368,1,0,0:0:0:0:
192,29,115614,5,2,0:0:0:0:
192,29,115860,1,2,0:0:0:0:
192,29,116106,2,0,L|210:124,1,72,8|0,0:0|0:0,0:0:0:0:
351,155,116597,5,2,0:0:0:0:
351,155,116843,1,2,0:0:0:0:
351,155,117089,2,0,L|369:60,1,72,8|0,0:0|0:0,0:0:0:0:
254,186,117581,5,2,0:0:0:0:
254,186,117827,1,2,0:0:0:0:
254,186,118073,2,0,L|272:281,1,72,8|0,0:0|0:0,0:0:0:0:
416,299,118565,5,2,0:0:0:0:
416,299,118811,1,2,0:0:0:0:
416,299,119057,2,0,L|321:317,1,72,10|0,0:0|0:0,0:0:0:0:
203,336,119548,5,2,0:0:0:0:
203,336,119794,1,2,0:0:0:0:
203,336,120040,2,0,L|108:318,1,72,8|0,0:0|0:0,0:0:0:0:
0,370,120532,5,2,0:0:0:0:
0,370,120778,1,2,0:0:0:0:
0,370,121024,2,0,L|70:383,1,72,8|0,0:0|0:0,0:0:0:0:
84,250,121516,5,2,0:0:0:0:
84,250,121761,1,2,0:0:0:0:
84,250,122007,2,0,L|97:179,1,72,8|0,0:0|0:0,0:0:0:0:
80,47,122499,5,2,0:0:0:0:
80,47,122744,1,2,0:0:0:0:
80,47,122991,2,0,L|9:33,1,72,10|0,0:0|0:0,0:0:0:0:
190,116,123483,5,2,0:0:0:0:
190,116,123729,1,2,0:0:0:0:
190,116,123975,2,0,P|240:106|280:80,1,72,8|0,0:0|0:0,0:0:0:0:
326,213,124466,5,2,0:0:0:0:
326,213,124712,1,2,0:0:0:0:
326,213,124958,2,0,P|342:164|339:117,1,72,8|0,0:0|0:0,0:0:0:0:
478,143,125450,5,2,0:0:0:0:
478,143,125696,1,0,0:0:0:0:
460,15,125942,5,10,0:0:0:0:
460,15,126188,1,0,0:0:0:0:
332,33,126434,5,2,0:0:0:0:
332,33,126680,1,0,0:0:0:0:
350,161,126925,5,10,0:0:0:0:
350,161,127171,1,0,0:0:0:0:
268,255,127417,5,2,0:0:0:0:
268,255,127663,1,2,0:0:0:0:
268,255,127909,2,0,P|283:308|286:345,1,72,8|0,0:0|0:0,0:0:0:0:
147,274,128401,5,2,0:0:0:0:
147,274,128647,1,2,0:0:0:0:
147,274,128893,2,0,P|108:313|78:334,1,72,8|0,0:0|0:0,0:0:0:0:
70,178,129384,5,2,0:0:0:0:
70,178,129630,1,0,0:0:0:0:
70,178,129876,5,10,0:0:0:0:
192,160,130122,1,2,0:0:0:0:
52,56,130368,5,0,0:0:0:0:
70,178,130614,1,2,0:0:0:0:
174,38,130860,5,10,0:0:0:0:
52,56,131106,1,2,0:0:0:0:
192,160,131352,6,0,P|239:161|332:116,1,144,2|8,0:0|0:0,0:0:0:0:
405,18,132089,2,0,L|413:95,1,72,2|0,0:0|0:0,0:0:0:0:
377,192,132581,1,2,0:0:0:0:
476,150,132827,2,0,L|468:227,1,72,10|2,0:0|0:0,0:0:0:0:
317,331,133319,6,0,L|169:300,1,144,2|8,0:0|0:0,0:0:0:0:
274,200,134056,1,2,0:0:0:0:
49,245,134302,2,0,L|197:214,1,144,2|8,0:0|0:0,0:0:0:0:
96,22,135286,6,0,P|43:69|14:134,1,144,2|8,0:0|0:0,0:0:0:0:
49,245,136024,1,2,0:0:0:0:
186,161,136270,2,0,P|217:199|231:234,1,72,2|0,0:0|0:0,0:0:0:0:
121,300,136761,2,0,P|100:335|92:376,1,72,10|2,0:0|0:0,0:0:0:0:
256,344,137253,6,0,L|371:358,2,108,2|0|0,0:0|0:0|0:0,0:0:0:0:
361,262,138237,2,0,P|431:275|491:331,1,144,2|10,0:0|0:0,0:0:0:0:
501,183,138975,1,2,0:0:0:0:
370,78,139220,6,0,P|284:119|215:238,1,216,2|2,0:0|0:0,0:0:0:0:
219,217,140204,2,0,P|203:183|120:120,1,144,2|10,0:0|0:0,0:0:0:0:
5,263,141188,6,0,B|33:378|33:378|159:349,1,216,2|2,0:0|0:0,0:0:0:0:
128,356,142171,2,0,B|290:318,1,144,2|10,0:0|0:0,0:0:0:0:
502,258,143155,6,0,P|454:350|351:362,1,216,2|2,0:0|0:0,0:0:0:0:
296,212,144138,2,0,P|337:242|354:271,1,72,2|2,0:0|0:0,0:0:0:0:
437,148,144630,2,0,P|431:198|414:227,1,72,10|0,0:0|0:0,0:0:0:0:
296,212,145122,1,2,0:0:0:0:
226,125,145385,6,0,L|217:43,1,72,2|10,0:0|0:0,0:0:0:0:
127,86,145911,6,0,L|122:134,1,48,2|8,0:0|0:0,0:0:0:0:
53,189,146246,1,2,0:0:0:0:
53,189,146426,2,0,L|-4:180,2,36,8|2|0,0:0|0:0|0:0,0:0:0:0:
108,258,146968,1,10,0:0:0:0:
243,237,147380,1,2,0:0:0:0:
254,217,147842,6,0,L|245:318,1,90,6|2,0:0|0:0,0:0:0:0:
357,242,148333,2,0,L|348:343,1,90,10|2,0:0|0:0,0:0:0:0:
400,145,149071,1,2,0:0:0:0:
503,120,149317,2,0,L|494:19,1,90,10|2,0:0|0:0,0:0:0:0:
317,15,149809,5,2,0:0:0:0:
400,145,150055,1,2,0:0:0:0:
400,145,150178,1,2,0:0:0:0:
400,145,150301,2,0,L|391:246,1,90,10|2,0:0|0:0,0:0:0:0:
402,249,151038,1,2,0:0:0:0:
281,194,151284,2,0,P|241:226|217:272,1,90,10|2,0:0|0:0,0:0:0:0:
142,354,151776,6,0,P|123:301|99:268,1,90,2|2,0:0|0:0,0:0:0:0:
134,156,152268,2,0,L|16:178,1,90,10|2,0:0|0:0,0:0:0:0:
231,48,153005,1,2,0:0:0:0:
328,33,153251,2,0,L|350:151,1,90,10|2,0:0|0:0,0:0:0:0:
480,193,153743,5,2,0:0:0:0:
382,305,153989,1,2,0:0:0:0:
382,305,154112,1,2,0:0:0:0:
382,305,154235,2,0,L|404:187,1,90,10|2,0:0|0:0,0:0:0:0:
389,200,154973,1,2,0:0:0:0:
301,319,155219,2,0,P|331:368|365:386,1,90,10|2,0:0|0:0,0:0:0:0:
232,243,155710,6,0,L|125:236,1,90,6|2,0:0|0:0,0:0:0:0:
14,344,156202,2,0,L|103:349,1,90,10|2,0:0|0:0,0:0:0:0:
51,115,156940,1,2,0:0:0:0:
149,42,157186,2,0,P|170:97|163:162,1,90,10|2,0:0|0:0,0:0:0:0:
39,222,157678,5,2,0:0:0:0:
171,283,157923,1,2,0:0:0:0:
171,283,158046,1,2,0:0:0:0:
171,283,158169,2,0,L|277:275,1,90,10|2,0:0|0:0,0:0:0:0:
273,289,158907,1,2,0:0:0:0:
337,141,159153,2,0,L|343:230,1,90,10|2,0:0|0:0,0:0:0:0:
251,125,159645,6,0,P|274:83|328:52,1,90,2|2,0:0|0:0,0:0:0:0:
423,157,160137,2,0,P|400:199|346:230,1,90,10|2,0:0|0:0,0:0:0:0:
369,376,160874,1,2,0:0:0:0:
271,309,161120,2,0,L|173:300,1,90,10|2,0:0|0:0,0:0:0:0:
45,210,161612,6,0,P|45:153|59:114,1,90,2|2,0:0|0:0,0:0:0:0:
137,223,162104,2,0,P|148:179|147:135,1,90,10|2,0:0|0:0,0:0:0:0:
158,120,162842,1,2,0:0:0:0:
147,32,163087,2,0,P|146:76|158:120,1,90,14|2,0:0|0:0,0:0:0:0:
312,161,163579,6,0,L|459:137,1,125.999996154785,6|0,0:0|0:0,0:0:0:0:
264,59,164071,1,8,0:0:0:0:
433,78,164317,6,0,P|439:109|436:141,1,62.9999980773926,10|10,0:3|0:3,0:0:0:0:
499,261,164563,2,0,P|495:229|501:198,1,62.9999980773926,2|2,0:0|0:3,0:0:0:0:
380,236,164808,1,2,0:3:0:0:
435,16,165055,2,0,P|445:78|436:140,1,125.999996154785,8|0,0:0|0:0,0:0:0:0:
384,240,165423,1,0,0:0:0:0:
384,239,165546,6,0,P|329:271|293:331,1,125.999996154785,2|8,0:0|0:3,0:0:0:0:
420,369,166038,1,8,0:0:0:0:
206,321,166284,6,0,L|123:344,1,62.9999980773926,10|10,0:3|0:3,0:0:0:0:
22,367,166530,2,0,L|105:390,1,62.9999980773926,2|2,0:0|0:3,0:0:0:0:
126,251,166775,1,2,0:3:0:0:
26,103,167022,2,0,L|45:240,1,125.999996154785,8|8,0:0|0:3,0:0:0:0:
207,220,167391,1,8,0:3:0:0:
207,220,167514,6,0,L|344:201,1,125.999996154785,2|8,0:0|0:3,0:0:0:0:
283,298,168005,1,8,0:0:0:0:
244,121,168251,6,0,P|231:89|207:59,1,62.9999980773926,10|10,0:3|0:3,0:0:0:0:
163,0,168497,2,0,P|141:27|127:63,1,62.9999980773926,2|2,0:0|0:3,0:0:0:0:
207,220,168743,1,2,0:3:0:0:
22,128,168989,2,0,P|87:140|152:177,1,125.999996154785,8|8,0:0|0:3,0:0:0:0:
173,349,169480,5,2,0:0:0:0:
221,141,169726,1,8,0:3:0:0:
50,237,169972,1,8,0:0:0:0:
243,305,170219,6,0,P|254:343|248:385,1,62.9999980773926,10|10,0:3|0:3,0:0:0:0:
173,349,170464,2,0,L|106:360,1,62.9999980773926,2|2,0:0|0:3,0:0:0:0:
135,189,170710,1,2,0:3:0:0:
313,261,170956,2,0,P|383:269|460:220,1,125.999996154785,8|8,0:0|0:3,0:0:0:0:
492,148,171325,1,8,0:3:0:0:
492,148,171448,6,0,L|516:294,1,125.999996154785,2|0,0:0|0:0,0:0:0:0:
362,182,171939,1,8,0:0:0:0:
501,285,172186,6,0,L|515:372,1,62.9999980773926,10|10,0:3|0:3,0:0:0:0:
425,322,172432,2,0,L|414:259,1,62.9999980773926,2|2,0:0|0:3,0:0:0:0:
492,148,172677,1,2,0:3:0:0:
326,24,172923,2,0,P|399:84|423:142,1,125.999996154785,8|8,0:0|0:3,0:0:0:0:
362,182,173292,1,8,0:3:0:0:
362,182,173415,6,0,P|289:242|265:300,1,125.999996154785,2|8,0:0|0:3,0:0:0:0:
172,161,173907,1,8,0:0:0:0:
157,275,174153,6,0,P|185:299|212:345,1,62.9999980773926,10|10,0:3|0:3,0:0:0:0:
285,358,174399,2,0,L|352:340,1,62.9999980773926,2|2,0:0|0:3,0:0:0:0:
125,351,174645,1,2,0:3:0:0:
257,219,174891,2,0,P|205:255|143:263,1,125.999996154785,8|8,0:0|0:3,0:0:0:0:
61,179,175260,1,8,0:3:0:0:
61,179,175382,6,0,L|43:39,1,125.999996154785,2|8,0:0|0:3,0:0:0:0:
144,143,175751,1,0,0:0:0:0:
144,143,175874,2,0,L|126:3,1,125.999996154785,8|10,0:0|0:3,0:0:0:0:
235,44,176243,1,10,0:3:0:0:
235,44,176366,6,0,L|222:142,1,62.9999980773926,2|2,0:0|0:3,0:0:0:0:
319,63,176612,2,0,L|306:161,1,62.9999980773926,2|0,0:3|0:0,0:0:0:0:
417,163,176857,1,8,0:0:0:0:
252,190,177103,1,8,0:3:0:0:
456,242,177350,6,0,P|468:270|474:302,1,62.9999980773926,2|2,0:0|0:3,0:0:0:0:
374,208,177596,2,0,P|392:183|416:162,1,62.9999980773926,10|0,0:3|0:0,0:0:0:0:
386,297,177842,2,0,P|355:293|325:282,1,62.9999980773926,8|0,0:0|0:0,0:0:0:0:
236,329,178087,5,10,0:3:0:0:
224,323,178210,1,10,0:3:0:0:
205,318,178333,1,2,0:0:0:0:
179,315,178456,1,2,0:3:0:0:
148,322,178579,6,0,L|157:384,1,62.9999980773926,10|2,0:3|0:3,0:0:0:0:
64,252,178825,2,0,L|73:189,1,62.9999980773926,14|2,0:0|0:3,0:0:0:0:
147,56,179071,2,0,L|157:119,1,62.9999980773926,10|2,0:3|0:3,0:0:0:0:
236,329,179317,6,0,P|266:270|345:220,1,125.999996154785,6|0,0:0|0:0,0:0:0:0:
503,215,179809,1,8,0:0:0:0:
404,86,180055,5,10,0:3:0:0:
360,94,180178,1,10,0:3:0:0:
315,94,180301,1,2,0:0:0:0:
273,81,180423,1,2,0:3:0:0:
238,52,180546,2,0,L|221:151,1,62.9999980773926,2|0,0:3|0:0,0:0:0:0:
206,209,180792,1,8,0:0:0:0:
85,112,181038,2,0,L|-20:101,1,62.9999980773926,8|8,0:3|0:3,0:0:0:0:
130,35,181284,5,2,0:0:0:0:
206,209,181530,1,8,0:3:0:0:
0,186,181776,2,0,L|87:195,1,62.9999980773926,8|0,0:0|0:0,0:0:0:0:
120,276,182022,5,10,0:3:0:0:
156,300,182145,1,10,0:3:0:0:
198,310,182268,1,2,0:0:0:0:
242,309,182391,1,2,0:3:0:0:
283,294,182514,1,2,0:3:0:0:
206,209,182760,1,8,0:0:0:0:
388,315,183005,2,0,L|398:394,1,62.9999980773926,8|8,0:3|0:3,0:0:0:0:
458,259,183251,6,0,L|439:113,1,125.999996154785,2|0,0:0|0:0,0:0:0:0:
316,209,183743,1,8,0:0:0:0:
372,35,183989,6,0,L|364:97,1,62.9999980773926,10|10,0:3|0:3,0:0:0:0:
247,126,184235,2,0,L|239:63,1,62.9999980773926,2|2,0:0|0:3,0:0:0:0:
442,133,184481,1,2,0:3:0:0:
247,126,184727,1,8,0:0:0:0:
73,13,184973,2,0,P|86:40|97:85,1,62.9999980773926,8|8,0:3|0:3,0:0:0:0:
33,186,185219,5,2,0:0:0:0:
247,126,185464,1,0,0:0:0:0:
15,71,185710,1,8,0:0:0:0:
202,206,185956,6,0,L|207:296,1,62.9999980773926,10|10,0:3|0:3,0:0:0:0:
120,163,186202,2,0,L|125:253,1,62.9999980773926,2|2,0:0|0:3,0:0:0:0:
214,346,186448,1,2,0:3:0:0:
33,186,186694,1,8,0:0:0:0:
293,232,186940,2,0,L|198:241,1,62.9999980773926,8|8,0:3|0:3,0:0:0:0:
23,286,187186,6,0,P|70:309|124:371,1,125.999996154785,6|0,0:0|0:0,0:0:0:0:
298,318,187678,1,8,0:0:0:0:
208,154,187923,5,10,0:3:0:0:
223,112,188046,1,10,0:3:0:0:
255,82,188169,1,2,0:0:0:0:
296,66,188292,1,2,0:3:0:0:
340,64,188415,2,0,L|349:143,1,62.9999980773926,2|0,0:3|0:0,0:0:0:0:
492,168,188661,1,8,0:0:0:0:
444,17,188907,2,0,L|435:96,1,62.9999980773926,8|8,0:3|0:3,0:0:0:0:
455,253,189153,5,2,0:0:0:0:
312,162,189399,1,8,0:3:0:0:
214,285,189645,2,0,L|205:206,1,62.9999980773926,8|0,0:0|0:0,0:0:0:0:
298,318,189891,5,10,0:3:0:0:
271,354,190013,1,10,0:3:0:0:
232,373,190136,1,2,0:0:0:0:
188,371,190259,1,2,0:3:0:0:
151,350,190382,1,2,0:3:0:0:
14,226,190628,1,8,0:0:0:0:
136,123,190874,2,0,L|127:202,1,62.9999980773926,8|8,0:3|0:3,0:0:0:0:
96,48,191120,6,0,P|157:43|208:78,1,125.999996154785,2|0,0:0|0:0,0:0:0:0:
225,211,191612,1,8,0:0:0:0:
312,122,191858,6,0,P|342:128|373:124,1,62.9999980773926,10|10,0:3|0:3,0:0:0:0:
489,13,192104,2,0,P|468:36|456:65,1,62.9999980773926,2|2,0:0|0:3,0:0:0:0:
469,167,192350,1,2,0:3:0:0:
341,47,192596,1,8,0:0:0:0:
333,253,192842,2,0,L|348:333,1,62.9999980773926,8|8,0:3|0:3,0:0:0:0:
225,211,193087,5,2,0:0:0:0:
233,254,193209,1,2,0:3:0:0:
241,297,193332,1,10,0:3:0:0:
249,341,193455,1,2,0:3:0:0:
257,384,193578,1,8,0:0:0:0:
77,324,193825,5,10,0:3:0:0:
77,324,193948,1,10,0:3:0:0:
77,324,194071,5,2,0:0:0:0:
64,281,194194,1,2,0:3:0:0:
73,237,194317,1,2,0:3:0:0:
104,206,194440,1,2,0:3:0:0:
152,191,194563,5,12,0:0:0:0:
200,182,194685,1,2,0:3:0:0:
236,147,194809,1,2,0:3:0:0:
248,99,194932,1,2,0:3:0:0:
229,45,195055,6,0,L|92:31,1,125.999996154785,6|0,0:0|0:0,0:0:0:0:
0,143,195546,1,8,0:0:0:0:
152,191,195792,5,10,0:3:0:0:
190,213,195915,1,10,0:3:0:0:
221,243,196038,1,2,0:0:0:0:
241,281,196161,1,2,0:3:0:0:
251,323,196284,2,0,L|325:309,1,62.9999980773926,2|0,0:3|0:0,0:0:0:0:
409,293,196530,1,8,0:0:0:0:
140,303,196776,2,0,L|66:289,1,62.9999980773926,8|8,0:3|0:3,0:0:0:0:
184,383,197022,5,2,0:0:0:0:
309,234,197268,1,8,0:3:0:0:
234,51,197514,2,0,L|221:126,1,62.9999980773926,8|0,0:0|0:0,0:0:0:0:
317,143,197760,5,10,0:3:0:0:
357,158,197882,1,10,0:3:0:0:
384,192,198005,1,2,0:0:0:0:
420,217,198128,1,2,0:3:0:0:
462,226,198251,1,2,0:3:0:0:
454,129,198497,1,8,0:0:0:0:
512,312,198743,2,0,L|501:392,1,62.9999980773926,8|8,0:3|0:3,0:0:0:0:
403,335,198989,6,0,L|267:316,1,125.999996154785,2|0,0:0|0:0,0:0:0:0:
210,181,199481,1,8,0:0:0:0:
123,373,199727,6,0,P|119:337|99:293,1,62.9999980773926,10|10,0:3|0:3,0:0:0:0:
46,185,199973,2,0,P|48:216|59:246,1,62.9999980773926,2|2,0:0|0:3,0:0:0:0:
197,309,200219,1,2,0:3:0:0:
3,302,200464,1,8,0:0:0:0:
128,183,200710,2,0,P|138:153|141:121,1,62.9999980773926,8|8,0:3|0:3,0:0:0:0:
20,15,200956,5,2,0:0:0:0:
232,64,201202,1,0,0:0:0:0:
43,159,201448,1,8,0:0:0:0:
252,76,201694,6,0,P|273:114|279:165,1,62.9999980773926,10|10,0:3|0:3,0:0:0:0:
342,222,201940,2,0,P|354:180|385:139,1,62.9999980773926,2|2,0:0|0:3,0:0:0:0:
492,111,202186,1,2,0:3:0:0:
342,222,202432,1,8,0:0:0:0:
437,351,202678,2,0,L|522:336,1,62.9999980773926,8|8,0:3|0:3,0:0:0:0:
359,241,202923,6,0,L|197:212,1,125.999996154785,6|0,0:0|0:0,0:0:0:0:
304,343,203415,1,8,0:0:0:0:
108,344,203661,6,0,L|204:326,1,62.9999980773926,10|10,0:3|0:3,0:0:0:0:
67,264,203907,2,0,L|-29:246,1,62.9999980773926,2|2,0:0|0:3,0:0:0:0:
116,189,204153,1,2,0:3:0:0:
18,339,204399,1,8,0:0:0:0:
0,145,204645,2,0,L|17:48,1,62.9999980773926,8|8,0:3|0:3,0:0:0:0:
134,196,204891,5,2,0:0:0:0:
81,30,205137,1,8,0:3:0:0:
215,136,205382,2,0,L|232:232,1,62.9999980773926,8|0,0:0|0:0,0:0:0:0:
284,70,205628,5,10,0:3:0:0:
327,64,205750,1,10,0:3:0:0:
370,74,205873,1,2,0:0:0:0:
407,97,205996,1,2,0:3:0:0:
434,131,206119,1,2,0:3:0:0:
306,245,206366,1,8,0:0:0:0:
512,197,206612,2,0,P|484:212|465:237,1,62.9999980773926,8|8,0:3|0:3,0:0:0:0:
364,331,206858,6,0,P|291:337|217:304,1,125.999996154785,2|0,0:0|0:0,0:0:0:0:
120,193,207350,1,8,0:0:0:0:
6,331,207596,5,10,0:3:0:0:
47,315,207719,1,10,0:3:0:0:
90,314,207842,1,2,0:0:0:0:
132,328,207964,1,2,0:3:0:0:
167,355,208087,1,2,0:3:0:0:
306,245,208333,1,8,0:0:0:0:
228,94,208579,2,0,L|222:4,1,62.9999980773926,8|8,0:3|0:3,0:0:0:0:
213,219,208825,5,2,0:0:0:0:
416,142,209071,1,8,0:3:0:0:
252,360,209317,1,8,0:0:0:0:
455,283,209563,1,10,0:3:0:0:
455,283,209686,1,10,0:3:0:0:
455,283,209809,5,2,0:0:0:0:
414,301,209932,1,2,0:3:0:0:
369,301,210055,1,2,0:3:0:0:
329,281,210178,1,2,0:3:0:0:
283,259,210301,5,12,0:0:0:0:
233,250,210423,1,2,0:3:0:0:
183,241,210546,1,2,0:3:0:0:
133,232,210669,1,2,0:3:0:0:
133,232,210792,5,0,0:0:0:0:
46,49,212760,6,0,P|72:103|81:149,1,90,2|2,0:0|0:0,0:0:0:0:
179,78,213412,2,0,P|174:137|159:182,1,90,2|0,0:0|0:0,0:0:0:0:
251,322,214064,2,0,P|246:262|231:217,1,90,2|2,0:0|0:0,0:0:0:0:
351,230,214716,2,0,P|317:180|281:149,1,90,2|0,0:0|0:0,0:0:0:0:
417,58,215368,6,0,L|517:44,2,90,2|2|2,0:0|0:0|0:0,0:0:0:0:
450,185,216346,1,0,0:0:0:0:
450,185,216673,2,0,P|456:234|438:302,1,90,2|2,0:0|0:0,0:0:0:0:
349,335,217325,2,0,L|248:318,1,90,2|2,0:0|0:0,0:0:0:0:
145,252,217977,6,0,L|164:366,2,90,2|2|2,0:0|0:0|0:0,0:0:0:0:
53,174,218955,1,2,0:0:0:0:
53,174,219281,2,0,P|37:108|10:71,1,90,2|2,0:0|0:0,0:0:0:0:
152,151,219933,2,0,P|171:85|166:40,1,90,2|2,0:0|0:0,0:0:0:0:
249,180,220586,6,0,P|298:133|316:91,1,90,2|2,0:0|0:0,0:0:0:0:
309,86,221075,1,0,0:0:0:0:
309,86,221238,2,0,L|438:71,1,90,2|2,0:0|0:0,0:0:0:0:
487,37,221890,2,0,P|491:82|469:137,1,90,2|2,0:0|0:0,0:0:0:0:
423,217,222542,2,0,P|419:262|441:317,1,90,2|2,0:0|0:0,0:0:0:0:
512,377,223194,6,0,B|454:344|410:353|410:353|321:371,1,180,2|0,0:0|0:0,0:0:0:0:
254,314,224173,1,2,0:0:0:0:
180,250,224499,2,0,B|122:283|78:274|78:274|-11:256,1,180,2|2,0:0|0:0,0:0:0:0:
63,178,225477,1,0,0:0:0:0:
58,84,225803,5,0,0:0:0:0:
