osu file format v14

[General]
AudioFilename: .mp3
AudioLeadIn: 0
PreviewTime: 2605
Countdown: 0
SampleSet: Soft
StackLeniency: 0.7
Mode: 3
LetterboxInBreaks: 0
SpecialStyle: 0
WidescreenStoryboard: 0

[Editor]
DistanceSpacing: 0.8
BeatDivisor: 4
GridSize: 4
TimelineZoom: 2.4

[Metadata]
Title:Koibito Wo Uchi Otoshita Hi
TitleUnicode:恋人を射ち堕とした日
Artist:Sound Horizon
ArtistUnicode:Sound Horizon
Creator:Rush_FTK
Version:4K Easy
Source:Pico Magic
Tags:Blues
BeatmapID:573414
BeatmapSetID:249407

[Difficulty]
HPDrainRate:7
CircleSize:4
OverallDifficulty:7
ApproachRate:5
SliderMultiplier:1.4
SliderTickRate:1

[Events]
//Background and Video events
//Break Periods
//Storyboard Layer 0 (Background)
//Storyboard Layer 1 (Fail)
//Storyboard Layer 2 (Pass)
//Storyboard Layer 3 (Foreground)
//Storyboard Sound Samples

[TimingPoints]
1499,491.803278688525,4,2,0,50,1,0
3466,-100,4,2,0,50,0,1
18466,-100,4,2,0,50,0,0
34982,-133.333333333333,4,2,0,50,0,0
145105,535.714285714286,4,2,0,50,1,0
145640,576.923076923077,4,2,0,50,1,0
146216,697.674418604651,4,2,0,50,1,0
146913,909.090909090909,4,2,0,50,1,0
147822,491.803278688525,4,2,0,50,1,0
212740,652.173913043478,4,2,0,50,1,0

[HitObjects]
448,192,3466,5,0,0:0:0:0:
64,192,3712,1,0,0:0:0:0:
320,192,3958,1,0,0:0:0:0:
192,192,4203,1,0,0:0:0:0:
320,192,4695,1,0,0:0:0:0:
192,192,4941,1,0,0:0:0:0:
64,192,5187,1,0,0:0:0:0:
320,192,5433,1,0,0:0:0:0:
448,192,5679,1,0,0:0:0:0:
320,192,5925,1,0,0:0:0:0:
192,192,6171,1,0,0:0:0:0:
64,192,6417,1,0,0:0:0:0:
320,192,6662,1,0,0:0:0:0:
64,192,6908,1,0,0:0:0:0:
192,192,7154,1,0,0:0:0:0:
448,192,7400,1,0,0:0:0:0:
192,192,7646,1,0,0:0:0:0:
320,192,7892,1,0,0:0:0:0:
192,192,8138,1,0,0:0:0:0:
448,192,8384,1,0,0:0:0:0:
320,192,8630,1,0,0:0:0:0:
64,192,8876,1,0,0:0:0:0:
192,192,9121,1,0,0:0:0:0:
320,192,9367,1,0,0:0:0:0:
448,192,9367,1,0,0:0:0:0:
64,192,9613,1,0,0:0:0:0:
192,192,9859,1,0,0:0:0:0:
320,192,10105,1,0,0:0:0:0:
448,192,10351,1,0,0:0:0:0:
320,192,10597,1,0,0:0:0:0:
64,192,10843,1,0,0:0:0:0:
192,192,11089,1,0,0:0:0:0:
448,192,11335,1,0,0:0:0:0:
64,192,11580,1,0,0:0:0:0:
192,192,11826,1,0,0:0:0:0:
448,192,12072,1,0,0:0:0:0:
320,192,12564,1,0,0:0:0:0:
64,192,12810,1,0,0:0:0:0:
192,192,13056,1,0,0:0:0:0:
448,192,13302,1,0,0:0:0:0:
320,192,13548,1,0,0:0:0:0:
192,192,13794,1,0,0:0:0:0:
64,192,14039,1,0,0:0:0:0:
192,192,14285,1,0,0:0:0:0:
448,192,14531,1,0,0:0:0:0:
64,192,14777,1,0,0:0:0:0:
320,192,15023,1,0,0:0:0:0:
448,192,15269,1,0,0:0:0:0:
192,192,15515,1,0,0:0:0:0:
320,192,15761,1,0,0:0:0:0:
448,192,16007,1,0,0:0:0:0:
192,192,16499,1,0,0:0:0:0:
320,192,16744,1,0,0:0:0:0:
448,192,16990,1,0,0:0:0:0:
64,192,17236,1,0,0:0:0:0:
448,192,17482,1,0,0:0:0:0:
320,192,17728,1,0,0:0:0:0:
192,192,17974,1,0,0:0:0:0:
448,192,18466,1,0,0:0:0:0:
320,192,18712,1,0,0:0:0:0:
192,192,18958,1,0,0:0:0:0:
64,192,19203,1,0,0:0:0:0:
448,192,19203,1,0,0:0:0:0:
192,192,19695,1,0,0:0:0:0:
448,192,19941,1,0,0:0:0:0:
320,192,20187,1,0,0:0:0:0:
64,192,20679,1,0,0:0:0:0:
448,192,20925,1,0,0:0:0:0:
192,192,21171,1,0,0:0:0:0:
448,192,21417,128,0,21662:0:0:0:0:
192,192,21662,1,0,0:0:0:0:
64,192,21908,1,0,0:0:0:0:
320,192,22031,1,0,0:0:0:0:
64,192,22646,1,0,0:0:0:0:
320,192,22892,1,0,0:0:0:0:
192,192,23138,128,0,23507:0:0:0:0:
64,192,23630,1,0,0:0:0:0:
320,192,23876,1,0,0:0:0:0:
64,192,24121,1,0,0:0:0:0:
448,192,24490,1,0,0:0:0:0:
320,192,24859,1,0,0:0:0:0:
192,192,25105,128,0,26458:0:0:0:0:
64,192,26580,1,0,0:0:0:0:
448,192,26826,1,0,0:0:0:0:
192,192,27072,1,0,0:0:0:0:
64,192,27072,1,0,0:0:0:0:
448,192,27564,1,0,0:0:0:0:
64,192,27810,1,0,0:0:0:0:
192,192,28056,1,0,0:0:0:0:
448,192,28548,1,0,0:0:0:0:
64,192,28794,1,0,0:0:0:0:
320,192,29039,128,0,29531:0:0:0:0:
64,192,29531,1,0,0:0:0:0:
448,192,29777,1,0,0:0:0:0:
192,192,29900,1,0,0:0:0:0:
